Zucchero Sugar Fornaciari – Shake (2001)

Download
Zucchero Sugar Fornaciari - Shake (2001)

Zucchero Sugar Fornaciari – Shake (2001)
EAC | Flac(Image) + Cue + Log & MP3 CBR 320Kbps
Polydor, 589 748-2 | ~ 325 or 115 Mb | Scans(jpg) -> 4.38 Mb
Pop Rock

Adelmo Fornaciari is the real name of the talented Italian musician more commonly known to the world by his nickname Zucchero ("Sugar"), given to him by an elementary school teacher. He began playing the guitar in his home province of Reggio Emilia, focusing on music in the blues/R&B mold. As a teenager in the early ’70s, he founded a local band called Le Nuove Luci. He formed another group, Sugar and Candies, in 1978, and began writing as well – Italian pop songs for other artists, and more blues-oriented material for himself.

Zucchero garnered a great deal of success in 1981 when he won the Castrocaro Festival, which led to performances at the 1982 and 1983 Sanremo Festivals. Increased exposure gave him a chance to release his own solo album, 1983’s Un Po’ Di Zucchero. His song "Donne," performed with the newly formed Zucchero & the Randy Jackson Band, caused a sensation at the 1985 Sanremo Festival; even though "Donne" didn’t win, it did become a hit. This introduced the Zucchero blend of Italian pop and electric blues to a larger audience.

During the late ’80s and early ’90s, he became one of the best-selling artists in Italy and a favorite all over Europe. He performed at 1994’s Woodstock Festival, and appeared with Eric Clapton, Buddy Guy, the Scorpions, and Luciano Pavarotti; still, his worldwide audience remained limited. In the new millennium, Zucchero’s success continued as a performer and an award-winning songwriter. In 2002, he released a very successful solo album, Shake. Three years later, Zu & Co. offered a collection of duets with some of his (mainly) non-Italian fans, including Eric Clapton, Macy Gray, and Sheryl Crow. It was followed in 2006 by Fly, recorded by Don Was in Los Angeles. Fly became a major hit, earning platinum in Switzerland and a rare diamond certification in Italy.

Naturally, Zucchero returned to California for his next major album, 2010’s Chocabeck. Produced by Was and Brendan O’Brien, it included high-profile guests like Brian Wilson and Bono. The album topped the charts in Italy, and also proved popular in Germany and Switzerland. The 2012 album, La SesiĆ²n Cubana, was recorded entirely in Cuba, as was a live album, Una Rosa Blanca, which appeared in late 2013. Zucchero returned to the studio for the recording of his 12th album, Black Cat, which was released in April 2016. Black Cat included the song "Streets of Surrender (S.O.S.)" which featured lyrics written by Bono and a guest appearance by Mark Knopfler on guitar.

by Aaron Latham, allmusic

Zucchero Sugar Fornaciari – Shake (2001):

Zucchero Sugar Fornaciari - Shake (2001)

Tracklist:

01. Sento Le Campane (03:26)
02. Music In Me (03:21)
03. Porca L’oca (03:27)
04. Ali D’oro (with John Lee Hooker) (04:56)
05. Ahum (04:43)
06. Scintille (05:14)
07. Baila Morena (04:07)
08. Dindondio (04:37)
09. Rossa Mela Della Sera (05:05)
10. Shake (03:54)
11. Tobia (04:57)

Converted to Image (CUETools 2.1.4)

EAC Log
Exact Audio Copy V1.0 beta 2 from 29. April 2011

EAC extraction logfile from 17. May 2013, 19:13

Zucchero Fornaciari / Shake

Used drive : PLDS DVD+-RW DS-8A5SH Adapter: 0 ID: 0

Read mode : Secure
Utilize accurate stream : Yes
Defeat audio cache : Yes
Make use of C2 pointers : No

Read offset correction : 6
Overread into Lead-In and Lead-Out : No
Fill up missing offset samples with silence : Yes
Delete leading and trailing silent blocks : No
Null samples used in CRC calculations : Yes
Used interface : Native Win32 interface for Win NT & 2000
Gap handling : Appended to previous track

Used output format : User Defined Encoder
Selected bitrate : 256 kBit/s
Quality : High
Add ID3 tag : No
Command line compressor : C:Program Files (x86)Exact Audio CopyFLACFLAC.EXE
Additional command line options : -6 -V -T "ARTIST=%artist%" -T "TITLE=%title%" -T "ALBUM=%albumtitle%" -T "DATE=%year%" -T "TRACKNUMBER=%tracknr%" -T "GENRE=%genre%" -T "COMMENT=%comment%" -T "BAND=%albuminterpret%" -T "COMPOSER=%composer%" %haslyrics%–ta

TOC of the extracted CD

Track | Start | Length | Start sector | End sector
––––––––––––––––––––––––––––-
1 | 0:00.00 | 3:26.22 | 0 | 15471
2 | 3:26.22 | 3:21.37 | 15472 | 30583
3 | 6:47.59 | 3:27.56 | 30584 | 46164
4 | 10:15.40 | 4:56.71 | 46165 | 68435
5 | 15:12.36 | 4:43.58 | 68436 | 89718
6 | 19:56.19 | 5:14.55 | 89719 | 113323
7 | 25:10.74 | 4:08.03 | 113324 | 131926
8 | 29:19.02 | 4:37.25 | 131927 | 152726
9 | 33:56.27 | 5:05.25 | 152727 | 175626
10 | 39:01.52 | 3:54.42 | 175627 | 193218
11 | 42:56.19 | 4:58.13 | 193219 | 215581
12 | 50:26.32 | 0:06.02 | 226982 | 227433

Track 1

Filename C:UsersporcupineDesktopEAC1 – Sento Le Campane.wav

Pre-gap length 0:00:02.00

Peak level 99.3 %
Extraction speed 1.0 X
Track quality 100.0 %
Test CRC BDA83475
Copy CRC BDA83475
Accurately ripped (confidence 2) [62A2EE8B] (AR v2)
Copy OK

Track 2

Filename C:UsersporcupineDesktopEAC2 – Music In Me.wav

Peak level 100.0 %
Extraction speed 1.0 X
Track quality 99.9 %
Test CRC 651B7D21
Copy CRC 651B7D21
Accurately ripped (confidence 2) [A4F57346] (AR v2)
Copy OK

Track 3

Filename C:UsersporcupineDesktopEAC3 – Porca L’Oca.wav

Peak level 100.0 %
Extraction speed 1.2 X
Track quality 100.0 %
Test CRC 33CB75F8
Copy CRC 33CB75F8
Accurately ripped (confidence 2) [26F6FD97] (AR v2)
Copy OK

Track 4

Filename C:UsersporcupineDesktopEAC4 – Ali D’Oro Featuring John Lee Hooker.wav

Peak level 99.3 %
Extraction speed 1.4 X
Track quality 100.0 %
Test CRC B7DF5A42
Copy CRC B7DF5A42
Accurately ripped (confidence 2) [921A7FE8] (AR v2)
Copy OK

Track 5

Filename C:UsersporcupineDesktopEAC5 – Ahum.wav

Peak level 99.3 %
Extraction speed 1.5 X
Track quality 100.0 %
Test CRC 314E7882
Copy CRC 314E7882
Accurately ripped (confidence 2) [967A44ED] (AR v2)
Copy OK

Track 6

Filename C:UsersporcupineDesktopEAC6 – Scintille.wav

Peak level 100.0 %
Extraction speed 1.5 X
Track quality 99.9 %
Test CRC CF019A9A
Copy CRC CF019A9A
Accurately ripped (confidence 2) [2E8240A5] (AR v2)
Copy OK

Track 7

Filename C:UsersporcupineDesktopEAC7 – Baila Sexy Thing.wav

Peak level 99.9 %
Extraction speed 1.7 X
Track quality 100.0 %
Test CRC AE576B22
Copy CRC AE576B22
Accurately ripped (confidence 2) [C1806B0F] (AR v2)
Copy OK

Track 8

Filename C:UsersporcupineDesktopEAC8 – Dindondio.wav

Pre-gap length 0:00:03.36

Peak level 99.3 %
Extraction speed 1.8 X
Track quality 100.0 %
Test CRC 0C210A7C
Copy CRC 0C210A7C
Accurately ripped (confidence 2) [02A84615] (AR v2)
Copy OK

Track 9

Filename C:UsersporcupineDesktopEAC9 – Rossa Mela Della Sera.wav

Pre-gap length 0:00:00.03

Peak level 100.0 %
Extraction speed 1.9 X
Track quality 100.0 %
Test CRC 91266C1D
Copy CRC 91266C1D
Accurately ripped (confidence 2) [EF2DCDA9] (AR v2)
Copy OK

Track 10

Filename C:UsersporcupineDesktopEAC10 – Shake.wav

Peak level 99.3 %
Extraction speed 1.9 X
Track quality 100.0 %
Test CRC 5801973A
Copy CRC 5801973A
Accurately ripped (confidence 2) [770A36CD] (AR v2)
Copy OK

Track 11

Filename C:UsersporcupineDesktopEAC11 – Tobia.wav

Pre-gap length 0:00:00.42

Peak level 100.0 %
Extraction speed 1.8 X
Track quality 99.9 %
Test CRC D2B2C567
Copy CRC D2B2C567
Accurately ripped (confidence 2) [031028F4] (AR v2)
Copy OK

All tracks accurately ripped

No errors occurred

End of status report

==== Log checksum 2F918D7B8DCC4E965134469B7E635124E768776757B01F5BD2AC6619BC3DFB89 ====

CUETools Log
[CUETools log; Date: 09.10.2017 7:17:18; Version: 2.1.5]
CD-Extra data track length 00:06:02.
[AccurateRip ID: 0012fdda-00a82e8d-9c0bd80c] found.
Track [ CRC | V2 ] Status
01 [2ef335dd|62a2ee8b] (13+19/32) Accurately ripped
02 [be80f348|a4f57346] (13+19/32) Accurately ripped
03 [1f553aac|26f6fd97] (13+19/32) Accurately ripped
04 [3046e487|921a7fe8] (13+19/32) Accurately ripped
05 [507781b0|967a44ed] (13+19/32) Accurately ripped
06 [d2db7e67|2e8240a5] (13+19/32) Accurately ripped
07 [72fe0852|c1806b0f] (13+19/32) Accurately ripped
08 [58723bd0|02a84615] (13+19/32) Accurately ripped
09 [55021071|ef2dcda9] (13+19/32) Accurately ripped
10 [0830c642|770a36cd] (13+19/32) Accurately ripped
11 [8de945f3|031028f4] (13+19/32) Accurately ripped
Offsetted by -594:
01 [8744e59b] (00/32) No match
02 [6eb32e68] (00/32) No match
03 [e7fee5bc] (00/32) No match
04 [b5b5b9b3] (00/32) No match (V2 was not tested)
05 [7d1a1e82] (00/32) No match (V2 was not tested)
06 [8c66bae3] (00/32) No match (V2 was not tested)
07 [d1c6ba7c] (00/32) No match
08 [ff6feb34] (00/32) No match
09 [114d664c] (00/32) No match (V2 was not tested)
10 [c201ab85] (00/32) No match
11 [66b51aed] (00/32) No match

Track Peak [ CRC32 ] [W/O NULL] [ LOG ]
– 100,0 [436A83AC] [3F0443E7]
01 99,3 [BDA83475] [D55762AB] CRC32
02 100,0 [651B7D21] [F0703145] CRC32
03 100,0 [33CB75F8] [30DDEC53] CRC32
04 99,3 [B7DF5A42] [F8D33998] CRC32
05 99,3 [314E7882] [93AA3EF6] CRC32
06 100,0 [CF019A9A] [54747B8F] CRC32
07 99,9 [AE576B22] [5E6C5E29] CRC32
08 99,3 [0C210A7C] [0A9711E1] CRC32
09 100,0 [91266C1D] [CAAE95DD] CRC32
10 99,3 [5801973A] [35DA1773] CRC32
11 100,0 [D2B2C567] [CDAFA2C6] CRC32

Zucchero Sugar Fornaciari - Shake (2001)

All thanks go to the original releaser

Zucchero or Zucchero in my Blog

Download Zucchero Sugar Fornaciari – Shake (2001):

Zucchero Sugar Fornaciari – Shake (2001) Download, Warez, DDL, Free, Full Album, Torrent, Legal.

Download