Zucchero – Miserere (1992) | ViralVideoPk

Daily Dose of Free Downloads

Zucchero – Miserere (1992)

Download

Zucchero - Miserere (1992)

Zucchero – Miserere (1992)
EAC Rip | FLAC (Img) + Cue + Log ~ 301 Mb | MP3 CBR320 ~ 116 Mb
Scans (JPG, 600 dpi) ~ 94 Mb | RAR 5% Recovery
Modern Electric Blues, Rock, Blues Rock, Soul, Funk | London Records #517 097-2

Miserere is the sixth studio album by Italian blues rock singer-songwriter Zucchero Fornaciari released in 1992 by Polydor Records. The album Miserere (Have Mercy) is much darker album than Fornaciari’s previous works, made clear from the album’s and same-titled song, as well theme. It reflects his intimate personal life from the time when lived in solitude and depression after the divorce. According to Zucchero, it’s the result of three years in disperation, torn between Emilia where lived his parents, and Versilia where lived his wife and daughters, living in a small house near the sea in Marina di Pietrasanta, with a dog and one bottle. Later while was near the countryside of Pontremoli, he saw a green valley with a ruin and river, went down near them, and for the first time in a period felt at home. There he built his current home.

Beside the title song, his state of mind and emotions are evident from the songs like "Ridammi Il Sole" (Regive me the Sun), "Povero Cristo" (Poor Christ), as well others, many with irony. The title song "Miserere" was written in one morning.

The album includes notable collaborations; Elvis Costello co-wrote the track "Miss Mary", U2’s Bono was responsible for the English version of the "Miserere", the first of several future collaborations, recorded with Luciano Pavarotti, Paul Buchanan of The Blue Nile co-wrote two tracks ("Ridammi Il Sole", "It’s All Right (La Promessa)"), as well guest appearance by Wayne Jackson and Andrew Love (#7, #8) from The Memphis Horns.

Although the song "Miserere" was recorded by Pavarotti, during its audition it was also performed by then unknown Andrea Bocelli. He would record it in his first studio album Il Mare Calmo della Sera, of which the same-titled single was co-written by Zucchero. During his career the song "Miserere" was often performed along Pavarotti and Bocelli.

There’s a ghost track in the end of "Miserere" with lyrics "A volte, la migliore musica è il silenzio… diciamo" (Sometimes, the best music is the silence… let’s say).

It topped the album charts in Italy for 13 weeks, being certified 7x Platinum in Italy, and Platinum in Switzerland (#8).

It was also released an English edition; "L’Urlo" featured Léo Ferré, "It’s All Right (La Promessa)" is in English and named "The Promise (It’s Alright)", "Il Pelo Nell’Uovo" is in English and named "Brick", "Ridammi Il Sole" is in English and named "Come Back the Sun", so is "I Frati" named "Gone Fishing", and "Miserere" (English version).

~ Wiki
Official Website | Wiki | Discogs | All Music

***************

Zucchero - Miserere (1992)

Track List:

01. Miserere (Overture) [0:00:37.52]
02. L’Urlo [0:03:21.20]
03. It’s Alright (The Promise) [0:05:27.50]
04. Brick [0:04:49.18]
05. Miss Mary [0:04:26.35]
06. Anna Solatia … [0:03:43.52]
07. Un’Orgia Di Anime Perse [0:03:45.08]
08. Pene [0:05:26.20]
09. Come Back The Sun [0:04:37.32]
10. Povero Cristo [0:03:49.23]
11. Gone Fishing [0:03:36.27]
12. Miserere [0:04:49.38]

Personnel:

Zucchero – vocals
Luciano Pavarotti – vocals
Corrado Rustici – guitars, backing vocals
David Sancious, Peter John Vitesse – keyboards
Polo Jones – bass
Martin Beedle, Michael Shrieve – drums
Karl Perazzo, Raul Rekow, Rosario Jermano – percussion
Andy Forest – harmonica
Wayne Jackson and Andrew Love – The Memphis Horns
Mino Vergnaghi, Iskra Menarini, Antonella Pepe, Giorgia Todrani, Tessa Niles, Lance Ellington, Linda Taylor, Carol Kenyon, "I Soparis", UK Gospel Fusion – backing vocals
Michael Kamen – string arrangements

EAC Log
Exact Audio Copy V1.2 from 12. August 2016

EAC extraction logfile from 6. January 2017, 12:13

Zucchero / Miserere

Used drive : PLEXTOR DVDR PX-716A Adapter: 1 ID: 0

Read mode : Secure
Utilize accurate stream : Yes
Defeat audio cache : Yes
Make use of C2 pointers : No

Read offset correction : 30
Overread into Lead-In and Lead-Out : No
Fill up missing offset samples with silence : Yes
Delete leading and trailing silent blocks : No
Null samples used in CRC calculations : Yes
Used interface : Native Win32 interface for Win NT & 2000

Used output format : User Defined Encoder
Selected bitrate : 1024 kBit/s
Quality : High
Add ID3 tag : No
Command line compressor : C:Program Files (x86)Exact Audio CopyFLACFLAC.EXE
Additional command line options : -6 -V -T "ARTIST=%artist%" -T "TITLE=%title%" -T "ALBUM=%albumtitle%" -T "DATE=%year%" -T "TRACKNUMBER=%tracknr%" -T "GENRE=%genre%" -T "COMMENT=%comment%" -T "BAND=%albuminterpret%" -T "ALBUMARTIST=%albuminterpret%" -T "COMPOSER=%composer%" %haslyrics%–tag-from-file=LYRICS="%lyricsfile%"%haslyrics% -T "DISCNUMBER=%cdnumber%" -T "TOTALDISCS=%totalcds%" -T "TOTALTRACKS=%numtracks%" %hascover%–picture="%coverfile%"%hascover% %source% -o %dest%

TOC of the extracted CD

Track | Start | Length | Start sector | End sector
––––––––––––––––––––––––––––-
1 | 0:00.00 | 0:37.52 | 0 | 2826
2 | 0:37.52 | 3:21.20 | 2827 | 17921
3 | 3:58.72 | 5:27.50 | 17922 | 42496
4 | 9:26.47 | 4:49.18 | 42497 | 64189
5 | 14:15.65 | 4:26.35 | 64190 | 84174
6 | 18:42.25 | 3:43.52 | 84175 | 100951
7 | 22:26.02 | 3:45.08 | 100952 | 117834
8 | 26:11.10 | 5:26.20 | 117835 | 142304
9 | 31:37.30 | 4:37.32 | 142305 | 163111
10 | 36:14.62 | 3:49.23 | 163112 | 180309
11 | 40:04.10 | 3:36.27 | 180310 | 196536
12 | 43:40.37 | 4:49.38 | 196537 | 218249

Range status and errors

Selected range

Filename C:mmZucchero1992 – Miserere [517 097-2]Zucchero – Miserere.wav

Peak level 100.0 %
Extraction speed 9.7 X
Range quality 99.9 %
Test CRC F72897A7
Copy CRC F72897A7
Copy OK

No errors occurred

AccurateRip summary

Track 1 accurately ripped (confidence 2) [546E238E] (AR v2)
Track 2 accurately ripped (confidence 2) [360BA00E] (AR v1)
Track 3 accurately ripped (confidence 2) [24BB2922] (AR v1)
Track 4 accurately ripped (confidence 2) [91A1C8D4] (AR v1)
Track 5 accurately ripped (confidence 2) [EEA39F8C] (AR v1)
Track 6 accurately ripped (confidence 2) [2EBEF45C] (AR v1)
Track 7 accurately ripped (confidence 2) [234A5171] (AR v1)
Track 8 accurately ripped (confidence 2) [850067ED] (AR v1)
Track 9 accurately ripped (confidence 2) [9342712A] (AR v1)
Track 10 accurately ripped (confidence 2) [6315BEB2] (AR v1)
Track 11 accurately ripped (confidence 2) [789C7C55] (AR v1)
Track 12 accurately ripped (confidence 2) [99A66DC4] (AR v1)

All tracks accurately ripped

End of status report

–– CUETools DB Plugin V2.1.6

[CTDB TOCID: 7VIDcHbvL46YyVNYA_8i0nRVltI-] found
Submit result: 7VIDcHbvL46YyVNYA_8i0nRVltI- has been confirmed
Track | CTDB Status
1 | (1/1) Accurately ripped
2 | (1/1) Accurately ripped
3 | (1/1) Accurately ripped
4 | (1/1) Accurately ripped
5 | (1/1) Accurately ripped
6 | (1/1) Accurately ripped
7 | (1/1) Accurately ripped
8 | (1/1) Accurately ripped
9 | (1/1) Accurately ripped
10 | (1/1) Accurately ripped
11 | (1/1) Accurately ripped
12 | (1/1) Accurately ripped

DR Log
foobar2000 1.2.6 / Dynamic Range Meter 1.1.1
log date: 2017-01-08 15:14:46

––––––––––––––––––––––––––––––––––––––––
Analyzed: Zucchero / Miserere
––––––––––––––––––––––––––––––––––––––––

DR Peak RMS Duration Track
––––––––––––––––––––––––––––––––––––––––
DR10 -2.57 dB -19.86 dB 0:38 01-Miserere (Overture)
DR13 0.00 dB -15.28 dB 3:21 02-L’Urlo
DR13 -1.10 dB -17.30 dB 5:28 03-It’s Alright (The Promise)
DR13 0.00 dB -15.56 dB 4:49 04-Brick
DR13 0.00 dB -16.52 dB 4:26 05-Miss Mary
DR12 -5.28 dB -21.84 dB 3:44 06-Anna Solatia …
DR14 0.00 dB -15.93 dB 3:45 07-Un’Orgia Di Anime Perse
DR12 -0.10 dB -15.28 dB 5:26 08-Pene
DR12 0.00 dB -14.87 dB 4:37 09-Come Back The Sun
DR13 -0.20 dB -16.45 dB 3:49 10-Povero Cristo
DR12 -0.08 dB -17.36 dB 3:36 11-Gone Fishing
DR12 -0.01 dB -16.08 dB 4:50 12-Miserere
––––––––––––––––––––––––––––––––––––––––

Number of tracks: 12
Official DR value: DR12

Samplerate: 44100 Hz
Channels: 2
Bits per sample: 16
Bitrate: 828 kbps
Codec: FLAC
================================================================================

CUETools Log
[CUETools log; Date: 08.01.2017 15:14:53; Version: 2.1.5]
[CTDB TOCID: 7VIDcHbvL46YyVNYA_8i0nRVltI-] found.
Track | CTDB Status
1 | (2/2) Accurately ripped
2 | (2/2) Accurately ripped
3 | (2/2) Accurately ripped
4 | (2/2) Accurately ripped
5 | (2/2) Accurately ripped
6 | (2/2) Accurately ripped
7 | (2/2) Accurately ripped
8 | (2/2) Accurately ripped
9 | (2/2) Accurately ripped
10 | (2/2) Accurately ripped
11 | (2/2) Accurately ripped
12 | (2/2) Accurately ripped
[AccurateRip ID: 00144ee0-00c33f4a-a60b5e0c] found.
Track [ CRC | V2 ] Status
01 [acd7b1a7|546e238e] (2+2/4) Accurately ripped
02 [360ba00e|17eaef1f] (2+0/2) Accurately ripped
03 [24bb2922|fefb0d12] (2+0/2) Accurately ripped
04 [91a1c8d4|f7460391] (2+0/2) Accurately ripped
05 [eea39f8c|cc9cbc87] (2+0/2) Accurately ripped
06 [2ebef45c|b4d4b7d0] (2+0/2) Accurately ripped
07 [234a5171|d67ab434] (2+0/2) Accurately ripped
08 [850067ed|05650e09] (2+0/2) Accurately ripped
09 [9342712a|0839c740] (2+0/2) Accurately ripped
10 [6315beb2|85f9f6d8] (2+0/2) Accurately ripped
11 [789c7c55|5db0a37d] (2+0/2) Accurately ripped
12 [99a66dc4|0641687e] (2+0/2) Accurately ripped

Track Peak [ CRC32 ] [W/O NULL] [ LOG ]
– 100,0 [F72897A7] [F2361A7C] CRC32
01 74,4 [729721F5] [09487ED4]
02 100,0 [1049494B] [A4A7CC77]
03 88,1 [57EEE949] [04A4F410]
04 100,0 [08DEC200] [7D01F4FD]
05 100,0 [CBF2ADD1] [9F6C98D7]
06 54,4 [FA7BA1DC] [90755969]
07 100,0 [54A771ED] [46194202]
08 98,8 [E6C64F5F] [AF7F9E47]
09 100,0 [8C0295D2] [80C3FA7F]
10 97,6 [8DB94FDD] [BDE0B669]
11 99,0 [3F6C911B] [CE651366]
12 99,9 [0717DEF4] [40E01E47]

Zucchero - Miserere (1992)

Zucchero - Miserere (1992)

See also:
Zucchero Sugar Fornaciari – All The Best (2007)

All thanks go to sergych

> Visit my blog <

Zucchero – Miserere (1992) Download, Warez, DDL, Free, Full Album, Torrent, Legal.

Download


  • Recent Posts

  • Recent Tags