Zhaoze – Intoxicatingly Lost (2016)

Download
Zhaoze - Intoxicatingly Lost (2016)

Zhaoze – Intoxicatingly Lost (2016)
EAC | Flac(Image) + Cue + Log & MP3 CBR 320Kbps
Trail Records, TR-017 | ~ 370 or 145 Mb | Scans(png) -> 65 Mb
Progressive Rock / Psychedelic Rock

One word used to describe the new album from Chinese post rock band ZHAOZE would be intoxicating. According to the liner notes Intoxicatingly Lost is the first Western release for the band and includes songs both new and old. In the band are Hoyliang (gugin, xiao, keyboards), Littledream (guitar), Roy (bass) and Seasean (drums, glockenspiel).

Intoxicatingly Lost is everything that a post rock album should be; droning atmospherics, shimmering guitar riffs, excellent drum patterns and fabulous use of exotic instrumentation like gugin, a Chines seven string instrument and xiao, a Chinese flute. The music ebbs and flows in mostly subtle ways with the occasional majestic build like in the intensely atmospheric "Luò Mù (Falling Leaves)" where gentle guitar and gugin are used in a serene manner before heavier chords are unleashed in quite dramatic fashion. Reverberating feedback begins "See You In The Dusk" as well as contemplative guitar and plucked strings. The sound is relaxing and as the rhythms slowly plod, slower droning ebow guitar adds more textural depth to the soundscape. This is the band’s attempt of a post rock orchestral sound and it works amazingly. The first track "The Worthless" opens with an absorbing drum arrangement and wild keyboard sounds before a soothing soundscape ensues. The drum work throughout is excellent and as the song progresses a grand build and crescendo makes for a dense musical outro.
That is just a taste of what you will here. This is really a great find and for anyone into post rock and metal sounds this should be purchased without hesitation. A highly recommended Trail Records release.

~ seaoftranquility.org

Zhaoze - Intoxicatingly Lost (2016)

Zhaoze – Intoxicatingly Lost (2016):

Zhaoze - Intoxicatingly Lost (2016)

Tracklist:

1 The Worthless 5:06
2 See You In The Dusk 6:19
3 Luò Mù (Falling Leaves) 7:16
4 1911 Third Mov. 8:26
5 The Youngster Fishing For The Stars 6:59
6 Lonely Shadow Would Dance 5:02
7 Sleepy Child Sweet Smile 4:01
8 Into Your Dream 6:12
9 Intoxicatingly Lost 12:13

EAC Log
Exact Audio Copy V1.1 from 23. June 2015

EAC extraction logfile from 15. July 2016, 10:43

Zhaoze / Intoxicatingly Lost

Used drive : PIONEER BD-RW BDR-XD04 Adapter: 1 ID: 0

Read mode : Secure
Utilize accurate stream : Yes
Defeat audio cache : Yes
Make use of C2 pointers : No

Read offset correction : 667
Overread into Lead-In and Lead-Out : No
Fill up missing offset samples with silence : Yes
Delete leading and trailing silent blocks : No
Null samples used in CRC calculations : Yes
Used interface : Native Win32 interface for Win NT & 2000

Used output format : User Defined Encoder
Selected bitrate : 768 kBit/s
Quality : High
Add ID3 tag : No
Command line compressor : C:Program Files (x86)Exact Audio CopyWavpackwavpack.exe
Additional command line options : -hm -w "Year=%year%" -w "Genre=%genre%" %source% %dest%

TOC of the extracted CD

Track | Start | Length | Start sector | End sector
––––––––––––––––––––––––––––-
1 | 0:00.00 | 5:05.29 | 0 | 22903
2 | 5:05.29 | 6:19.09 | 22904 | 51337
3 | 11:24.38 | 7:16.08 | 51338 | 84045
4 | 18:40.46 | 8:27.21 | 84046 | 122091
5 | 27:07.67 | 6:59.07 | 122092 | 153523
6 | 34:06.74 | 5:02.51 | 153524 | 176224
7 | 39:09.50 | 4:00.11 | 176225 | 194235
8 | 43:09.61 | 6:14.23 | 194236 | 222308
9 | 49:24.09 | 12:13.34 | 222309 | 277317

Range status and errors

Selected range

Filename E:_NL+__CDZhaoze – Intoxicatingly Lost.wav

Peak level 99.3 %
Extraction speed 1.5 X
Range quality 100.0 %
Test CRC AA738C22
Copy CRC AA738C22
Copy OK

No errors occurred

AccurateRip summary

Track 1 not present in database
Track 2 not present in database
Track 3 not present in database
Track 4 not present in database
Track 5 not present in database
Track 6 not present in database
Track 7 not present in database
Track 8 not present in database
Track 9 not present in database

None of the tracks are present in the AccurateRip database

End of status report

–– CUETools DB Plugin V2.1.6

[CTDB TOCID: qBL9GvMAmp9rx7x8EscEu0kIFEQ-] disk not present in database
Submit result: qBL9GvMAmp9rx7x8EscEu0kIFEQ- has been uploaded

==== Log checksum 046E97F397A7836CA566A0937A89CF213CB8E97F9BF057415368DE9963095055 ====

DR Log
foobar2000 1.2.9 / Dynamic Range Meter 1.1.1
log date: 2017-01-11 07:37:25

––––––––––––––––––––––––––––––––––––––––
Analyzed: Zhaoze / Intoxicatingly Lost
––––––––––––––––––––––––––––––––––––––––

DR Peak RMS Duration Track
––––––––––––––––––––––––––––––––––––––––
DR5 -0.18 dB -8.43 dB 5:05 01-The Worthless
DR7 -0.18 dB -9.49 dB 6:19 02-See You In The Dusk
DR6 -0.14 dB -9.37 dB 7:16 03-Luo Muo (Falling Leaves)
DR7 -0.06 dB -8.92 dB 8:27 04-1911 (Third Movement)
DR5 -0.54 dB -9.14 dB 6:59 05-The Youngster Fishing For the Stars
DR6 -0.28 dB -9.43 dB 5:03 06-Lonely Shadow Would Dance
DR5 -0.12 dB -8.15 dB 4:00 07-Sleepy Child Sweety Smile
DR6 -0.09 dB -9.32 dB 6:14 08-Into Your Dream
DR6 -0.07 dB -10.02 dB 12:13 09-Intoxicatingly Lost
––––––––––––––––––––––––––––––––––––––––

Number of tracks: 9
Official DR value: DR6

Samplerate: 44100 Hz
Channels: 2
Bits per sample: 16
Bitrate: 814 kbps
Codec: FLAC

CUETools Log
[CUETools log; Date: 11.01.2017 7:36:32; Version: 2.1.4]
[CTDB TOCID: qBL9GvMAmp9rx7x8EscEu0kIFEQ-] found.
Track | CTDB Status
1 | (2/2) Accurately ripped
2 | (2/2) Accurately ripped
3 | (2/2) Accurately ripped
4 | (2/2) Accurately ripped
5 | (2/2) Accurately ripped
6 | (2/2) Accurately ripped
7 | (2/2) Accurately ripped
8 | (2/2) Accurately ripped
9 | (2/2) Accurately ripped
[AccurateRip ID: 0013e5b8-0092ed6b-790e7109] found.
Track [ CRC | V2 ] Status
01 [d1fd2450|360eb360] (0+1/1) Accurately ripped
02 [2c7a1b60|c80ab07f] (0+1/1) Accurately ripped
03 [895b35a3|6eeb164a] (0+1/1) Accurately ripped
04 [ad9f1ea9|8daf8bd7] (0+1/1) Accurately ripped
05 [e7afa45a|6af2a190] (0+1/1) Accurately ripped
06 [ff4bd038|c637de07] (0+1/1) Accurately ripped
07 [52052e62|f0953c72] (0+1/1) Accurately ripped
08 [c0ac926a|94a36c00] (0+1/1) Accurately ripped
09 [7ba10f3d|428c03a6] (0+1/1) Accurately ripped

Track Peak [ CRC32 ] [W/O NULL] [ LOG ]
– 99,3 [AA738C22] [77225C87] CRC32
01 97,9 [9FE1A78B] [E86497B5]
02 97,9 [00938FD0] [53292989]
03 98,4 [CA227458] [8FEF29C2]
04 99,3 [00A20AC4] [F2BC5A52]
05 94,0 [A9A75A76] [6CC1598D]
06 96,7 [6F286749] [30623D0D]
07 98,6 [5A30BA82] [166B0A8C]
08 99,0 [9336EC00] [2A1D773B]
09 99,2 [D87B4928] [9FE25193]

Zhaoze - Intoxicatingly Lost (2016)

All thanks go to the original releaser

Download Zhaoze – Intoxicatingly Lost (2016):

Zhaoze – Intoxicatingly Lost (2016) Download, Warez, DDL, Free, Full Album, Torrent, Legal.

Download