Zelenka – Das Neu-Eröffnete Orchestre / Sonnentheil – Complete Orchestral Works (3x CD, 2002) [RE-UP]

Download
Zelenka - Das Neu-Eröffnete Orchestre / Sonnentheil - Complete Orchestral Works (3x CD, 2002) [RE-UP]

Jan Dismas Zelenka – Complete Orchestral Works
Das Neu-Eröffnete Orchestre – Jürgen Sonnentheil
EAC+LOG+CUE | WV: 266+287+292 MB | Full Artwork | 5% Recovery Info
Label/Cat#: CPO # 999 897-2 | Country/Year: Germany 2002
Genre: Classical | Style: Baroque

MD5 [X] CUE [X] LOG [X] INFO TEXT [X] ARTWORK [X]

selfrip [] not my rip [X]

Zelenka - Das Neu-Eröffnete Orchestre / Sonnentheil - Complete Orchestral Works (3x CD, 2002) [RE-UP]

EAC
Exact Audio Copy V1.0 beta 2 from 29. April 2011

EAC extraction logfile from 26. August 2012, 15:47

Das Neu-Eroffnete Orchestre, Jurgen Sonnentheil / Jan Dismas Zelenka – Complete Orchestral Works Vol.1

Used drive : HL-DT-STDVDRAM GH20NS10 Adapter: 4 ID: 0

Read mode : Secure
Utilize accurate stream : Yes
Defeat audio cache : Yes
Make use of C2 pointers : No

Read offset correction : 667
Overread into Lead-In and Lead-Out : No
Fill up missing offset samples with silence : Yes
Delete leading and trailing silent blocks : No
Null samples used in CRC calculations : Yes
Used interface : Installed external ASPI interface

Used output format : Internal WAV Routines
Sample format : 44.100 Hz; 16 Bit; Stereo

TOC of the extracted CD

Track | Start | Length | Start sector | End sector
––––––––––––––––––––––––––––-
1 | 0:00.00 | 3:45.72 | 0 | 16946
2 | 3:45.72 | 0:58.18 | 16947 | 21314
3 | 4:44.15 | 2:09.10 | 21315 | 30999
4 | 6:53.25 | 0:58.67 | 31000 | 35416
5 | 7:52.17 | 1:23.28 | 35417 | 41669
6 | 9:15.45 | 1:09.27 | 41670 | 46871
7 | 10:24.72 | 3:34.20 | 46872 | 62941
8 | 13:59.17 | 2:56.65 | 62942 | 76206
9 | 16:56.07 | 6:01.70 | 76207 | 103351
10 | 22:58.02 | 6:42.15 | 103352 | 133516
11 | 29:40.17 | 4:18.43 | 133517 | 152909
12 | 33:58.60 | 7:14.12 | 152910 | 185471
13 | 41:12.72 | 2:42.00 | 185472 | 197621
14 | 43:54.72 | 3:05.25 | 197622 | 211521
15 | 47:00.22 | 6:11.73 | 211522 | 239419
16 | 53:12.20 | 5:30.57 | 239420 | 264226
17 | 58:43.02 | 2:22.65 | 264227 | 274941

Range status and errors

Selected range

Filename Z:NetLabZelenka – Complete Orchestral Works Vol.1 (Das Neu-Eroffnete Orchestra, Sonnentheil) (1997) {CPO 999 458-2}Jan Dismas Zelenka – Complete Orchestral Works Vol.1.wav

Peak level 99.9 %
Extraction speed 7.8 X
Range quality 100.0 %
Test CRC 628AE75F
Copy CRC 628AE75F
Copy OK

No errors occurred

AccurateRip summary

Track 1 accurately ripped (confidence 10) [647FEB56] (AR v1)
Track 2 accurately ripped (confidence 11) [AE908064] (AR v1)
Track 3 accurately ripped (confidence 11) [CCB44038] (AR v1)
Track 4 accurately ripped (confidence 11) [0EB3EAA8] (AR v1)
Track 5 accurately ripped (confidence 11) [2965E625] (AR v1)
Track 6 accurately ripped (confidence 11) [95C607B6] (AR v1)
Track 7 accurately ripped (confidence 11) [E38F42D6] (AR v1)
Track 8 accurately ripped (confidence 10) [6A12BCDB] (AR v1)
Track 9 accurately ripped (confidence 11) [C6E22AEB] (AR v1)
Track 10 accurately ripped (confidence 10) [3101D806] (AR v1)
Track 11 accurately ripped (confidence 11) [2DC9599F] (AR v1)
Track 12 accurately ripped (confidence 11) [DDEECE00] (AR v1)
Track 13 accurately ripped (confidence 11) [689A8216] (AR v1)
Track 14 accurately ripped (confidence 11) [E8F21365] (AR v1)
Track 15 accurately ripped (confidence 11) [70839761] (AR v1)
Track 16 accurately ripped (confidence 11) [D179F8A9] (AR v1)
Track 17 accurately ripped (confidence 11) [811B8D7B] (AR v1)

All tracks accurately ripped

End of status report

==== Log checksum C6902797A898B3F0E663C920913AA9126260A2F935D38FAC8CCBBE2F65C1B7B4 ====

Exact Audio Copy V1.0 beta 2 from 29. April 2011

EAC extraction logfile from 26. August 2012, 17:15

Das Neu-Eroffnete Orchestre, Jurgen Sonnentheil / Jan Dismas Zelenka – Complete Orchestral Works CD2

Used drive : HL-DT-STDVDRAM GH20NS10 Adapter: 4 ID: 0

Read mode : Secure
Utilize accurate stream : Yes
Defeat audio cache : Yes
Make use of C2 pointers : No

Read offset correction : 667
Overread into Lead-In and Lead-Out : No
Fill up missing offset samples with silence : Yes
Delete leading and trailing silent blocks : No
Null samples used in CRC calculations : Yes
Used interface : Installed external ASPI interface

Used output format : Internal WAV Routines
Sample format : 44.100 Hz; 16 Bit; Stereo

TOC of the extracted CD

Track | Start | Length | Start sector | End sector
––––––––––––––––––––––––––––-
1 | 0:00.00 | 4:54.42 | 0 | 22091
2 | 4:54.42 | 3:07.23 | 22092 | 36139
3 | 8:01.65 | 3:46.25 | 36140 | 53114
4 | 11:48.15 | 1:36.47 | 53115 | 60361
5 | 13:24.62 | 3:49.15 | 60362 | 77551
6 | 17:14.02 | 9:52.48 | 77552 | 121999
7 | 27:06.50 | 3:43.55 | 122000 | 138779
8 | 30:50.30 | 2:24.22 | 138780 | 149601
9 | 33:14.52 | 6:23.70 | 149602 | 178396
10 | 39:38.47 | 3:16.20 | 178397 | 193116
11 | 42:54.67 | 6:54.38 | 193117 | 224204
12 | 49:49.30 | 1:15.65 | 224205 | 229894
13 | 51:05.20 | 2:51.42 | 229895 | 242761
14 | 53:56.62 | 1:19.55 | 242762 | 248741
15 | 55:16.42 | 3:09.53 | 248742 | 262969

Range status and errors

Selected range

Filename Z:NetLabZelenka – Complete Orchestral Works Vol.2 (Das Neu-Eroffnete Orchestra, Sonnentheil) (1999) {CPO 999 629-2}Jan Dismas Zelenka – Complete Orchestral Works Vol.2.wav

Peak level 93.6 %
Extraction speed 8.1 X
Range quality 99.9 %
Test CRC 549275AE
Copy CRC 549275AE
Copy OK

No errors occurred

AccurateRip summary

Track 1 accurately ripped (confidence 5) [122CFBE9] (AR v1)
Track 2 accurately ripped (confidence 5) [A1CDD79F] (AR v1)
Track 3 accurately ripped (confidence 5) [AA12C6FC] (AR v1)
Track 4 accurately ripped (confidence 5) [F2B5C5F9] (AR v1)
Track 5 accurately ripped (confidence 5) [20C297CB] (AR v1)
Track 6 accurately ripped (confidence 5) [91184E6E] (AR v1)
Track 7 accurately ripped (confidence 4) [5BC90B11] (AR v1)
Track 8 accurately ripped (confidence 5) [F5023012] (AR v1)
Track 9 accurately ripped (confidence 5) [1EA7FAC1] (AR v1)
Track 10 accurately ripped (confidence 4) [B570D689] (AR v1)
Track 11 accurately ripped (confidence 5) [DF35A928] (AR v1)
Track 12 accurately ripped (confidence 4) [3F28F97D] (AR v1)
Track 13 accurately ripped (confidence 5) [2A21F069] (AR v1)
Track 14 accurately ripped (confidence 5) [570F2088] (AR v1)
Track 15 accurately ripped (confidence 5) [56F85458] (AR v1)

All tracks accurately ripped

End of status report

==== Log checksum E5410588111E4927A08E648FB4F32CAD9A26A4315CB3C892C31129BD2187E890 ====

Exact Audio Copy V1.0 beta 2 from 29. April 2011

EAC extraction logfile from 26. August 2012, 18:19

Das Neu-Eroffnete Orchestre, Jurgen Sonnentheil / Jan Dismas Zelenka – Complete Orchestral Works Vol.3

Used drive : HL-DT-STDVDRAM GH20NS10 Adapter: 4 ID: 0

Read mode : Secure
Utilize accurate stream : Yes
Defeat audio cache : Yes
Make use of C2 pointers : No

Read offset correction : 667
Overread into Lead-In and Lead-Out : No
Fill up missing offset samples with silence : Yes
Delete leading and trailing silent blocks : No
Null samples used in CRC calculations : Yes
Used interface : Installed external ASPI interface

Used output format : Internal WAV Routines
Sample format : 44.100 Hz; 16 Bit; Stereo

TOC of the extracted CD

Track | Start | Length | Start sector | End sector
––––––––––––––––––––––––––––-
1 | 0:00.00 | 9:01.57 | 0 | 40631
2 | 9:01.57 | 6:03.73 | 40632 | 67929
3 | 15:05.55 | 2:39.22 | 67930 | 79876
4 | 17:45.02 | 6:05.40 | 79877 | 107291
5 | 23:50.42 | 2:13.70 | 107292 | 117336
6 | 26:04.37 | 7:15.38 | 117337 | 149999
7 | 33:20.00 | 7:25.60 | 150000 | 183434
8 | 40:45.60 | 2:08.25 | 183435 | 193059
9 | 42:54.10 | 6:11.20 | 193060 | 220904
10 | 49:05.30 | 2:11.20 | 220905 | 230749
11 | 51:16.50 | 2:31.37 | 230750 | 242111
12 | 53:48.12 | 2:02.00 | 242112 | 251261
13 | 55:50.12 | 2:25.35 | 251262 | 262171

Range status and errors

Selected range

Filename Z:NetLabZelenka – Complete Orchestral Works Vol.3 (Das Neu-Eroffnete Orchestra, Sonnentheil) (2000) {CPO 999 697-2}Jan Dismas Zelenka – Complete Orchestral Works Vol.3.wav

Peak level 94.7 %
Extraction speed 8.0 X
Range quality 99.9 %
Test CRC 95AAEBE0
Copy CRC 95AAEBE0
Copy OK

No errors occurred

AccurateRip summary

Track 1 accurately ripped (confidence 9) [4AF0ACDC] (AR v1)
Track 2 accurately ripped (confidence 9) [A08F889D] (AR v1)
Track 3 accurately ripped (confidence 9) [76861EC3] (AR v1)
Track 4 accurately ripped (confidence 9) [6E1FDEE4] (AR v1)
Track 5 accurately ripped (confidence 9) [E88B08A4] (AR v1)
Track 6 accurately ripped (confidence 9) [982CE70A] (AR v1)
Track 7 accurately ripped (confidence 9) [31606C98] (AR v1)
Track 8 accurately ripped (confidence 9) [25FCC345] (AR v1)
Track 9 accurately ripped (confidence 9) [4501EF0D] (AR v1)
Track 10 accurately ripped (confidence 9) [827985AE] (AR v1)
Track 11 accurately ripped (confidence 9) [89EF5D47] (AR v1)
Track 12 accurately ripped (confidence 9) [5DC2031B] (AR v1)
Track 13 accurately ripped (confidence 9) [3A019CA4] (AR v1)

All tracks accurately ripped

End of status report

==== Log checksum 0752634407E89C651A1CB84DEC988F1155697487267B73B387C18756D6F1ECC0 ====

auCDtect
auCDtect: CD records authenticity detector, version 0.8.2
Copyright © 2004 Oleg Berngardt. All rights reserved.
Copyright © 2004 Alexander Djourik. All rights reserved.

Detect mode (0..40 with 0 = most accurate): 8 (default)

––––––––––––––––––––––––––––––
[Das Neu-Eroffnete Orchestre, Jurgen Sonnentheil – Zelenka – Complete Orchestral Works Vol.1.wav]
Detected average hi-boundary frequency: 2.047162e+004 Hz
Detected average lo-boundary frequency: 1.459594e+004 Hz
Detected average hi-cut frequency: 2.130246e+004 Hz
Detected average lo-cut frequency: 1.514789e+004 Hz
Maximum probablis boundary frequency: 2.189100e+004 Hz
Coefficient of nonlinearity of a phase: 4.674817e-001
First order smothness: 2.939825e-001
Second order smothness: 8.270556e-001
––––––––––––––––––––––––––––––
This track looks like CDDA with probability 100%.

auCDtect: CD records authenticity detector, version 0.8.2
Copyright © 2004 Oleg Berngardt. All rights reserved.
Copyright © 2004 Alexander Djourik. All rights reserved.

Detect mode (0..40 with 0 = most accurate): 8 (default)

––––––––––––––––––––––––––––––
[Das Neu-Eroffnete Orchestre, Jurgen Sonnentheil – Zelenka – Complete Orchestral Works Vol.2.wav]
Detected average hi-boundary frequency: 1.996612e+004 Hz
Detected average lo-boundary frequency: 1.324856e+004 Hz
Detected average hi-cut frequency: 2.196272e+004 Hz
Detected average lo-cut frequency: 1.354960e+004 Hz
Maximum probablis boundary frequency: 2.058300e+004 Hz
Coefficient of nonlinearity of a phase: 1.756859e+000
First order smothness: 2.948102e-001
Second order smothness: 8.135512e-001
––––––––––––––––––––––––––––––
This track looks like CDDA with probability 100%.

auCDtect: CD records authenticity detector, version 0.8.2
Copyright © 2004 Oleg Berngardt. All rights reserved.
Copyright © 2004 Alexander Djourik. All rights reserved.

Detect mode (0..40 with 0 = most accurate): 8 (default)

––––––––––––––––––––––––––––––
[Das Neu-Eroffnete Orchestre, Jurgen Sonnentheil – Zelenka – Complete Orchestral Works Vol.3.wav]
Detected average hi-boundary frequency: 2.024621e+004 Hz
Detected average lo-boundary frequency: 1.348726e+004 Hz
Detected average hi-cut frequency: 2.192546e+004 Hz
Detected average lo-cut frequency: 1.562748e+004 Hz
Maximum probablis boundary frequency: 2.189100e+004 Hz
Coefficient of nonlinearity of a phase: 3.404241e-001
First order smothness: 2.935228e-001
Second order smothness: 8.694919e-001
––––––––––––––––––––––––––––––
This track looks like CDDA with probability 100%.

Dynamic
foobar2000 1.1.14a / Dynamic Range Meter 1.1.1
log date: 2013-03-13 18:04:16

––––––––––––––––––––––––––––––––––––––––
Analyzed: Das Neu-Eroffnete Orchestre, Jurgen Sonnentheil / Zelenka – Complete Orchestral Works Vol.1
––––––––––––––––––––––––––––––––––––––––

DR Peak RMS Duration Track
––––––––––––––––––––––––––––––––––––––––
DR13 -2.65 dB -20.67 dB 3:46 01-Capriccio No.2 in G major, ZWV 183; I. Allegro
DR12 -6.94 dB -22.63 dB 0:58 02-II. Canarie
DR12 -5.35 dB -20.80 dB 2:09 03-III. Aria
DR12 -7.10 dB -22.93 dB 0:59 04-IV. Canarie da capo
DR12 -2.77 dB -19.06 dB 1:23 05-V. Gavotte
DR12 -2.95 dB -19.52 dB 1:09 06-VI. Rondeau
DR12 -3.71 dB -20.57 dB 3:34 07-VII. Menuett – Trio – Menuett da capo
DR11 -4.03 dB -21.22 dB 2:57 08-Hipocondrie а 7 concertanti in A major, ZWV 187; I. [Lentement]
DR13 -5.33 dB -23.07 dB 6:02 09-II. Fuge. Allegro – Lentement
DR15 -8.37 dB -27.06 dB 6:42 10-Concerto a 8 concertanti in G major, ZWV 186; I. [Allegro]
DR12 -6.45 dB -23.38 dB 4:19 11-II. Largo
DR15 -5.55 dB -23.97 dB 7:14 12-III. Allegro
DR11 -2.83 dB -17.89 dB 2:42 13-Capriccio No.3 in F major, ZWV 184; I. [Ouverture] Staccato e forte
DR12 0.00 dB -18.87 dB 3:05 14-II. Allegro
DR11 -10.39 dB -25.58 dB 6:12 15-III. Allemande
DR13 -3.27 dB -20.68 dB 5:31 16-IV. Menuett – [Trio 1] – Menuett da capo [Trio 2] – Menuett da capo
DR12 -2.08 dB -19.92 dB 2:23 17-V. [Allegro]
––––––––––––––––––––––––––––––––––––––––

Number of tracks: 17
Official DR value: DR12

Samplerate: 44100 Hz
Channels: 2
Bits per sample: 16
Bitrate: 610 kbps
Codec: WavPack
================================================================================

foobar2000 1.1.14a / Dynamic Range Meter 1.1.1
log date: 2013-03-13 17:57:34

––––––––––––––––––––––––––––––––––––––––
Analyzed: Das Neu-Eroffnete Orchestre, Jurgen Sonnentheil / Zelenka – Complete Orchestral Works Vol.2
––––––––––––––––––––––––––––––––––––––––

DR Peak RMS Duration Track
––––––––––––––––––––––––––––––––––––––––
DR11 -0.57 dB -15.87 dB 4:55 01-Capriccio No.5 in G major, ZWV 190; I. [Allegro]
DR10 -3.19 dB -19.82 dB 3:07 02-II. Menuett 1 – Menuett 2 – Menuett 1 da Capo
DR13 -3.42 dB -21.80 dB 3:46 03-III. Il Contento – Trio – Il Contento da capo
DR10 -0.73 dB -15.09 dB 1:37 04-IV. Il Furibundo
DR11 -2.34 dB -17.79 dB 3:49 05-V. Villanella – Trio – Villanella da capo
DR14 -4.17 dB -22.12 dB 9:53 06-Sinfonia a 8 concertanti in a minor, ZWV 189; I. [Allegro]
DR11 -8.64 dB -23.62 dB 3:44 07-II. Andante
DR12 -5.94 dB -20.34 dB 2:24 08-III. Capriccio. Tempo di Gavotta
DR13 -6.09 dB -24.54 dB 6:24 09-IV. Aria da Capriccio (Andante – Allegro – Andante – Allegro)
DR12 -3.75 dB -20.07 dB 3:16 10-V. [Menuett 1] – [Menuett 2] – [Menuett 1 ca capo]
DR11 -1.80 dB -17.21 dB 6:55 11-Capriccio No.1 in D major, ZWV 182; I. Andante – [Allegro]
DR12 -5.45 dB -19.87 dB 1:16 12-II. Paysan
DR10 -3.56 dB -17.77 dB 2:52 13-III. Aria
DR13 -4.77 dB -19.88 dB 1:20 14-IV. Bourree
DR11 -1.17 dB -16.75 dB 3:10 15-V. Menuett 1 – Menuett 2 – Menuett 1 da capo
––––––––––––––––––––––––––––––––––––––––

Number of tracks: 15
Official DR value: DR12

Samplerate: 44100 Hz
Channels: 2
Bits per sample: 16
Bitrate: 686 kbps
Codec: WavPack
================================================================================

foobar2000 1.1.14a / Dynamic Range Meter 1.1.1
log date: 2013-03-13 17:40:40

––––––––––––––––––––––––––––––––––––––––
Analyzed: Das Neu-Eroffnete Orchestre, Jurgen Sonnentheil / Zelenka – Complete Orchestral Works Vol.3
––––––––––––––––––––––––––––––––––––––––

DR Peak RMS Duration Track
––––––––––––––––––––––––––––––––––––––––
DR13 -3.14 dB -19.92 dB 9:02 01-Overture а 7 concertanti in F major, ZWV 188; I. Ouverture. Grave – Allegro – Grave
DR15 -5.12 dB -25.15 dB 6:04 02-II. Aria
DR14 -2.58 dB -20.62 dB 2:39 03-III. Menuet 1 – Menuet 2 – Menuet 1 da capo
DR13 -3.12 dB -20.27 dB 6:06 04-IV. [Siciliano]
DR13 -2.70 dB -20.91 dB 2:14 05-V. Folie
DR14 -0.53 dB -18.30 dB 7:16 06-Symphonia from Melodrama de Sancto Wenceslao in D major, ZWV 175; I. Allegro assai
DR13 -0.46 dB -18.20 dB 7:26 07-Capriccio No.4 in A major, ZWV 185; I. Allegro assai
DR13 -5.02 dB -22.55 dB 2:08 08-II. Adagio
DR11 -3.25 dB -19.07 dB 6:11 09-III. Aria 1 – Aria 2 – Ara da capo
DR13 -5.04 dB -23.09 dB 2:11 10-IV. In tempo di Canarie
DR13 -4.80 dB -21.40 dB 2:31 11-V. Menuet 1 – Menuet 2 – Menuet 1 da capo
DR11 -6.84 dB -21.68 dB 2:02 12-VI. Andante
DR10 -1.28 dB -16.39 dB 2:25 13-VII. Paysan 1 – Paysan 2 – Paysan 1 da capo
––––––––––––––––––––––––––––––––––––––––

Number of tracks: 13
Official DR value: DR13

Samplerate: 44100 Hz
Channels: 2
Bits per sample: 16
Bitrate: 702 kbps
Codec: WavPack
================================================================================

CD Info:

Jan Dismas Zelenka (1679-1745) – Complete Orchestral Works

Das Neu-Eröffnete Orchestre – Jürgen Sonnentheil

Label: CPO
Catalog#: 999 897-2
Format: 3xCD, Album, Box Set, Reissue
Country: Germany
Released: 2002 – 1997, 1999, 2000
Genre: Classical
Style: Baroque, Chamber Music

Tracklist:

CD 1:

1 – Capriccio No.2 in G major, ZWV 183; I. Allegro 3:46
2 – II. Canarie 0:58
3 – III. Aria 2:09
4 – IV. Canarie da capo 0:59
5 – V. Gavotte 1:23
6 – VI. Rondeau 1:09
7 – VII. Menuett – Trio – Menuett da capo 3:34
8 – Hipocondrie а 7 concertanti in A major, ZWV 187; I. [Lentement] 2:57
9 – II. Fuge. Allegro – Lentement 6:02
10 – Concerto a 8 concertanti in G major, ZWV 186; I. [Allegro] 6:42
11 – II. Largo 4:19
12 – III. Allegro 7:14
13 – Capriccio No.3 in F major, ZWV 184; I. [Ouverture] Staccato e forte 2:42
14 – II. Allegro 3:05
15 – III. Allemande 6:12
16 – IV. Menuett – [Trio 1] – Menuett da capo [Trio 2] – Menuett da capo 5:31
17 – V. [Allegro] 2:23

CD 2:

1 – Capriccio No.5 in G major, ZWV 190; I. [Allegro] 4:55
2 – II. Menuett 1 – Menuett 2 – Menuett 1 da Capo 3:07
3 – III. Il Contento – Trio – Il Contento da capo 3:46
4 – IV. Il Furibundo 1:37
5 – V. Villanella – Trio – Villanella da capo 3:49
6 – Sinfonia a 8 concertanti in a minor, ZWV 189; I. [Allegro] 9:53
7 – II. Andante 3:44
8 – III. Capriccio. Tempo di Gavotta 2:24
9 – IV. Aria da Capriccio (Andante – Allegro – Andante – Allegro) 6:24
10 – V. [Menuett 1] – [Menuett 2] – [Menuett 1 ca capo] 3:16
11 – Capriccio No.1 in D major, ZWV 182; I. Andante – [Allegro] 6:55
12 – II. Paysan 1:16
13 – III. Aria 2:52
14 – IV. Bourree 1:20
15 – V. Menuett 1 – Menuett 2 – Menuett 1 da capo 3:10

CD 3:

1 – Overture а 7 concertanti in F major, ZWV 188; I. Ouverture. Grave – Allegro – Grave 9:02
2 – II. Aria 6:04
3 – III. Menuet 1 – Menuet 2 – Menuet 1 da capo 2:39
4 – IV. [Siciliano] 6:06
5 – V. Folie 2:14
6 – Symphonia from Melodrama de Sancto Wenceslao in D major, ZWV 175; I. Allegro assai 7:16
7 – Capriccio No.4 in A major, ZWV 185; I. Allegro assai 7:26
8 – II. Adagio 2:08
9 – III. Aria 1 – Aria 2 – Ara da capo 6:11
10 – IV. In tempo di Canarie 2:11
11 – V. Menuet 1 – Menuet 2 – Menuet 1 da capo 2:31
12 – VI. Andante 2:02
13 – VII. Paysan 1 – Paysan 2 – Paysan 1 da capo 2:25

Zelenka - Das Neu-Eröffnete Orchestre / Sonnentheil - Complete Orchestral Works (3x CD, 2002) [RE-UP]

Disc Vol.1 reviews David Hurwitz "CLASSICSTODAY"
We badly need a complete set of Zelenka’s orchestra works, as Arkiv’s edition has long vanished into the remainder bins, and this one (previously issued as three separate CDs) fits the bill nicely. Although the players use “authentic instruments”, their sound is comparatively warm and gentle, though this doesn’t mean that they don’t handle with aplomb the insanely virtuosic horn parts in the Capriccios, or the bubbling wind writing in the Concerto. The inclusion of the overture from Melodrama de S. Wenceslao makes an interesting bonus, with its fascinating opposition of simultaneous duple and triple rhythms. If you haven’t heard this music, let’s just say that Zelenka wrote some of the most enjoyable and colorful music of the Baroque era, and he is supremely well served by CPO’s engineers, conductor Sonnentheil, and his New-Eröffnete Orchestre.

Zelenka - Das Neu-Eröffnete Orchestre / Sonnentheil - Complete Orchestral Works (3x CD, 2002) [RE-UP]

Disc Vol.2 reviews David Hurwitz "CLASSICSTODAY"
Jan Zelenka’s quirky, entertaining, and appallingly virtuosic orchestral pieces have received comparatively little attention from record companies. His entire output for the medium fits onto three CDs, and there has only been one complete set recorded: by Camerata Bern for Archiv, now out of print, like so much of the Universal (formerly Polygram) domestic catalog. That makes this ongoing cycle of Zelenka’s orchestral works all the more important, and fortunately the performances are excellent, as they were in Volume One. Das Neu-Eröffnete Orchestre is a period instrument band that doesn’t sound like a period instrument band, if by this we mean scrappy, thin, and acerbic. They play this music with warmth, affection, and with an ease that makes light of such difficulties as the composer’s atrociously stratospheric horn writing. All three works on this disc essentially fall into the Baroque suite pattern: an introduction followed by a group of dances or character pieces–and every one of them is a gem. The New Grove Dictionary of Music and Musicians cites Zelenka as one of the very few Baroque composers who could create “consistently fresh tonal imagery,” meaning simply that his acute harmonic sense, complex rhythms, and brilliant use of instrumental color constantly tease the ear. Yes, it’s true: he’s an ear tease! Now that the secret is out, you have no excuse for not giving your own ears a little Baroque tickle.

Zelenka - Das Neu-Eröffnete Orchestre / Sonnentheil - Complete Orchestral Works (3x CD, 2002) [RE-UP]

Disc Vol.3 reviews David Hurwitz "CLASSICSTODAY"
This disc completes Jürgen Sonnentheil’s excellent survey of Zelenka’s complete orchestral works. The highlight is a stunning rendition of Capriccio IV, capped by some pretty amazing playing of its insanely high horn parts. The work has all the melodic, harmonic, and textural interest that makes this composer one of the most characterful voices of the Baroque era. The Ouverture a 7 Concertanti doesn’t sport the same colorful array of instruments as the Capriccio, but the music has personality in abundance, especially the delicious concluding Folie. Sonnentheil also offers a special treat in the form of the overture to Zelenka’s Melodrama de S. Wenceslao (complete recording due in 2001 from Supraphon). Typically, it features some remarkably independent writing (given the period) for two trumpets and timpani. Throughout this series, the playing of Das Neu-Eröffnete Orchestre on period instruments has combined vitality with both warmth and elegance, a far cry from the steely cold sound of many UK period instrument bands. A fine conclusion, then, to a wonderful series, beautifully recorded by the engineers of Radio Bremen.

Zelenka - Das Neu-Eröffnete Orchestre / Sonnentheil - Complete Orchestral Works (3x CD, 2002) [RE-UP]

Thanks to pr3ss!

Zelenka - Das Neu-Eröffnete Orchestre / Sonnentheil - Complete Orchestral Works (3x CD, 2002) [RE-UP]

all of my uploads in my blog

====

Zelenka – Das Neu-Eröffnete Orchestre / Sonnentheil – Complete Orchestral Works (3x CD, 2002) [RE-UP] Download, Warez, DDL, Free, Full Album, Torrent, Legal.

Download