Zelenka – Camerata Bern / Holliger / van Wijnkoop – Orchesterwerke (1978, Reissue 2000, DG # 469 578-2) [RE-UP]

Download
Zelenka - Camerata Bern / Holliger / van Wijnkoop - Orchesterwerke (1978, Reissue 2000, DG # 469 578-2) [RE-UP]

Jan Dismas Zelenka – Orchesterwerke
Camerata Bern / Heinz Holliger / Alexander van Wijnkoop
EAC+LOG+CUE | WV: 340 MB | Artwork | 5% Recovery Info
Label/Cat#: Deutsche Grammophon # 469 578-2 | Country/Year: Germany 2000, 1978
Genre: Classical | Style: Baroque

MD5 [X] CUE [X] LOG [X] INFO TEXT [X] ARTWORK [X]

selfrip [X] not my rip []

Zelenka - Camerata Bern / Holliger / van Wijnkoop - Orchesterwerke (1978, Reissue 2000, DG # 469 578-2) [RE-UP]

EAC
Exact Audio Copy V0.99 prebeta 4 from 23. January 2008

EAC extraction logfile from 28. August 2008, 20:57

Camerata Bern – Alexander van Wijnkoop / Jan Dismas Zelenka – Orchesterwerke

Used drive : TSSTcorpCD/DVDW SH-S182M Adapter: 4 ID: 0

Read mode : Secure
Utilize accurate stream : Yes
Defeat audio cache : Yes
Make use of C2 pointers : No

Read offset correction : 6
Overread into Lead-In and Lead-Out : No
Fill up missing offset samples with silence : Yes
Delete leading and trailing silent blocks : No
Null samples used in CRC calculations : Yes
Used interface : Installed external ASPI interface

Used output format : Internal WAV Routines
Sample format : 44.100 Hz; 16 Bit; Stereo

TOC of the extracted CD

Track | Start | Length | Start sector | End sector
––––––––––––––––––––––––––––-
1 | 0:00.00 | 8:28.66 | 0 | 38165
2 | 8:28.66 | 8:19.59 | 38166 | 75649
3 | 16:48.50 | 3:22.29 | 75650 | 90828
4 | 20:11.04 | 2:44.38 | 90829 | 103166
5 | 22:55.42 | 6:20.44 | 103167 | 131710
6 | 29:16.11 | 3:20.17 | 131711 | 146727
7 | 32:36.28 | 9:50.70 | 146728 | 191047
8 | 42:27.23 | 6:15.21 | 191048 | 219193
9 | 48:42.44 | 3:47.51 | 219194 | 236269
10 | 52:30.20 | 6:32.46 | 236270 | 265715
11 | 59:02.66 | 3:24.51 | 265716 | 281066
12 | 62:27.42 | 4:14.09 | 281067 | 300125
13 | 66:41.51 | 1:34.71 | 300126 | 307246
14 | 68:16.47 | 0:49.36 | 307247 | 310957
15 | 69:06.08 | 3:09.24 | 310958 | 325156

Range status and errors

Selected range

Filename F:ReleaseJan Dismas Zelenka – OrchesterwerkeCamerata Bern – Alexander van Wijnkoop – Jan Dismas Zelenka – Orchesterwerke.wav

Peak level 99.9 %
Range quality 99.9 %
Test CRC FB76FE35
Copy CRC FB76FE35
Copy OK

No errors occurred

AccurateRip summary

Track 1 not present in database
Track 2 not present in database
Track 3 not present in database
Track 4 not present in database
Track 5 not present in database
Track 6 not present in database
Track 7 not present in database
Track 8 not present in database
Track 9 not present in database
Track 10 not present in database
Track 11 not present in database
Track 12 not present in database
Track 13 not present in database
Track 14 not present in database
Track 15 not present in database

None of the tracks are present in the AccurateRip database

End of status report

auCDtect
auCDtect: CD records authenticity detector, version 0.8.2
Copyright © 2004 Oleg Berngardt. All rights reserved.
Copyright © 2004 Alexander Djourik. All rights reserved.

Detect mode (0..40 with 0 = most accurate): 8 (default)

––––––––––––––––––––––––––––––
[Camerata Bern – Alexander van Wijnkoop – Jan Dismas Zelenka – Orchesterwerke.wav]
Detected average hi-boundary frequency: 2.037611e+004 Hz
Detected average lo-boundary frequency: 1.507726e+004 Hz
Detected average hi-cut frequency: 2.104237e+004 Hz
Detected average lo-cut frequency: 1.386792e+004 Hz
Maximum probablis boundary frequency: 2.189100e+004 Hz
Coefficient of nonlinearity of a phase: 1.400721e-001
First order smothness: 2.958947e-001
Second order smothness: 7.836948e-001
––––––––––––––––––––––––––––––
This track looks like CDDA with probability 100%.

Dynamic
foobar2000 1.1.14a / Dynamic Range Meter 1.1.1
log date: 2013-03-25 18:54:32

––––––––––––––––––––––––––––––––––––––––
Analyzed: Camerata Bern – Alexander van Wijnkoop / Jan Dismas Zelenka – Orchesterwerke
––––––––––––––––––––––––––––––––––––––––

DR Peak RMS Duration Track
––––––––––––––––––––––––––––––––––––––––
DR12 -0.31 dB -16.83 dB 8:29 01-Ouverture a 7 concertanti in F
DR14 0.00 dB -17.70 dB 8:20 02-Sinfonia a 8 concertanti in a – 1. (Allegro)
DR12 -2.00 dB -19.21 dB 3:22 03-Sinfonia a 8 concertanti in a – 2. Andante
DR13 0.00 dB -16.20 dB 2:45 04-Sinfonia a 8 concertanti in a – 3. Capriccio: Tempo di Gavotta
DR13 -0.90 dB -18.70 dB 6:21 05-Sinfonia a 8 concertanti in a – 4. Aria da Capriccio
DR13 -2.18 dB -18.27 dB 3:20 06-Sinfonia a 8 concertanti in a – 5. Minuetto I-II-I
DR13 -1.55 dB -19.46 dB 9:51 07-Hipocondrie a 7 concertanti in A
DR14 -1.49 dB -20.01 dB 6:15 08-Concerto a 8 concertanti in G – 1. (Allegro)
DR12 -2.39 dB -18.54 dB 3:48 09-Concerto a 8 concertanti in G – 2. Largo Cantabile
DR13 -0.66 dB -18.73 dB 6:33 10-Concerto a 8 concertanti in G – 3. Allegro
DR12 -0.91 dB -18.29 dB 3:25 11-Capriccio No. 2 in G – 1. (Allegro) – Aria – Canarie
DR11 -2.10 dB -18.54 dB 4:14 12-Capriccio No. 2 in G – 2. Canarie
DR9 -1.82 dB -16.50 dB 1:35 13-Capriccio No. 2 in G – 3. Gavotte
DR12 -0.11 dB -16.35 dB 0:49 14-Capriccio No. 2 in G – 4. Rondeau
DR12 0.00 dB -18.00 dB 3:09 15-Capriccio No. 2 in G – 5. Minuetto – Trio – Minuetto
––––––––––––––––––––––––––––––––––––––––

Number of tracks: 15
Official DR value: DR12

Samplerate: 44100 Hz
Channels: 2
Bits per sample: 16
Bitrate: 659 kbps
Codec: WavPack
================================================================================

CD Info:

Jan Dismas Zelenka – Orchesterwerke

Camerata Bern / Heinz Holliger / Alexander van Wijnkoop

Label: Deutsche Grammophon
Series: Eloquence
Catalog#: 469 578-2
Format: CD, Album
Country: Germany
Released: 2000, 1978
Genre: Classical

Zelenka - Camerata Bern / Holliger / van Wijnkoop - Orchesterwerke (1978, Reissue 2000, DG # 469 578-2) [RE-UP]

Tracklist:

1 Ouverture a 7 concertanti in F 8:29
2 Sinfonia a 8 concertanti in a – 1. (Allegro) 8:20
3 Sinfonia a 8 concertanti in a – 2. Andante 3:22
4 Sinfonia a 8 concertanti in a – 3. Capriccio: Tempo di Gavotta 2:45
5 Sinfonia a 8 concertanti in a – 4. Aria da Capriccio 6:21
6 Sinfonia a 8 concertanti in a – 5. Minuetto I-II-I 3:20
7 Hipocondrie a 7 concertanti in A 9:51
8 Concerto a 8 concertanti in G – 1. (Allegro) 6:15
9 Concerto a 8 concertanti in G – 2. Largo Cantabile 3:48
10 Concerto a 8 concertanti in G – 3. Allegro 6:33
11 Capriccio No. 2 in G – 1. (Allegro) – Aria – Canarie 3:25
12 Capriccio No. 2 in G – 2. Canarie 4:14
13 Capriccio No. 2 in G – 3. Gavotte 1:35
14 Capriccio No. 2 in G – 4. Rondeau 0:49
15 Capriccio No. 2 in G – 5. Minuetto – Trio – Minuetto 3:09

Thanks to Гордый!

Zelenka - Camerata Bern / Holliger / van Wijnkoop - Orchesterwerke (1978, Reissue 2000, DG # 469 578-2) [RE-UP]

all of my uploads in my blog

===

Zelenka – Camerata Bern / Holliger / van Wijnkoop – Orchesterwerke (1978, Reissue 2000, DG # 469 578-2) [RE-UP] Download, Warez, DDL, Free, Full Album, Torrent, Legal.

Download