Z-Trip & Radar – Live At The Future Primitive Soundsession Volume Two (1999)

Download
Z-Trip & Radar - Live At The Future Primitive Soundsession Volume Two (1999)

Z-Trip & Radar – Live At The Future Primitive Soundsession Volume Two (1999)
EAC Rip | FLAC with CUE and log | scans | 423 mb
MP3 CBR 320kbps | RAR | 168 mb
Genre: turntablism, R&B, soul, hip-hop, rap, progressive rock

Live At The Future Primitive Soundsession Volume Two is the second of only two volumes of hip-hop live sets by DJ’s Z-Trip and Radar. This was released on Future Primitive’s own label and unlike the disc by Cut Chemist and Shortkut, this one was released without a track listing. All songs are "Untitled" but elements can be figured out for those with good ears.

Z-Trip & Radar - Live At The Future Primitive Soundsession Volume Two (1999)

1. Untitled
2. Untitled
3. Untitled
4. Untitled
5. Untitled
6. Untitled
7. Untitled
8. Untitled
9. Untitled
10. Untitled
11. Untitled
12. Untitled
13. Untitled
14. Untitled
15. Untitled
16. Untitled
17. Untitled
18. Untitled
19. Untitled
20. Untitled
21. Untitled
21. Untitled

Z-Trip & Radar - Live At The Future Primitive Soundsession Volume Two (1999)
EAC Log
Exact Audio Copy V1.1 from 23. June 2015

EAC extraction logfile from 26. January 2017, 9:02

Z-Trip & Radar / Live At The Future Primitive Soundsession Volume Two

Used drive : TEAC DVD-ROM DV-28SW Adapter: 1 ID: 0

Read mode : Secure
Utilize accurate stream : Yes
Defeat audio cache : Yes
Make use of C2 pointers : No

Read offset correction : 6
Overread into Lead-In and Lead-Out : No
Fill up missing offset samples with silence : Yes
Delete leading and trailing silent blocks : No
Null samples used in CRC calculations : Yes
Used interface : Native Win32 interface for Win NT & 2000
Gap handling : Appended to previous track

Used output format : Internal WAV Routines
Sample format : 44.100 Hz; 16 Bit; Stereo

TOC of the extracted CD

Track | Start | Length | Start sector | End sector
––––––––––––––––––––––––––––-
1 | 0:00.00 | 2:07.46 | 0 | 9570
2 | 2:07.46 | 4:10.52 | 9571 | 28372
3 | 6:18.23 | 3:52.57 | 28373 | 45829
4 | 10:11.05 | 3:26.47 | 45830 | 61326
5 | 13:37.52 | 3:01.59 | 61327 | 74960
6 | 16:39.36 | 3:45.55 | 74961 | 91890
7 | 20:25.16 | 3:41.26 | 91891 | 108491
8 | 24:06.42 | 2:58.73 | 108492 | 121914
9 | 27:05.40 | 3:32.52 | 121915 | 137866
10 | 30:38.17 | 3:02.31 | 137867 | 151547
11 | 33:40.48 | 2:32.52 | 151548 | 162999
12 | 36:13.25 | 2:56.26 | 163000 | 176225
13 | 39:09.51 | 2:47.30 | 176226 | 188780
14 | 41:57.06 | 3:16.35 | 188781 | 203515
15 | 45:13.41 | 2:45.40 | 203516 | 215930
16 | 47:59.06 | 3:00.74 | 215931 | 229504
17 | 51:00.05 | 3:51.38 | 229505 | 246867
18 | 54:51.43 | 2:26.16 | 246868 | 257833
19 | 57:17.59 | 3:28.53 | 257834 | 273486
20 | 60:46.37 | 2:31.26 | 273487 | 284837
21 | 63:17.63 | 1:02.37 | 284838 | 289524
22 | 64:20.25 | 9:15.66 | 289525 | 331215

Track 1

Filename C:My DocumentsMy FLACZ-Trip & Radar – Live At The Future Primitive Soundsession Volume Two (1999) [FLAC]1 – Untitled.wav

Pre-gap length 0:00:02.00

Peak level 98.7 %
Extraction speed 2.4 X
Track quality 100.0 %
Test CRC 5505F3CC
Copy CRC 5505F3CC
Accurately ripped (confidence 2) [8E20E7C7] (AR v2)
Copy OK

Track 2

Filename C:My DocumentsMy FLACZ-Trip & Radar – Live At The Future Primitive Soundsession Volume Two (1999) [FLAC]2 – Untitled.wav

Peak level 100.0 %
Extraction speed 2.9 X
Track quality 100.0 %
Test CRC C2C04CF2
Copy CRC C2C04CF2
Accurately ripped (confidence 2) [05EEBF91] (AR v2)
Copy OK

Track 3

Filename C:My DocumentsMy FLACZ-Trip & Radar – Live At The Future Primitive Soundsession Volume Two (1999) [FLAC]3 – Untitled.wav

Peak level 100.0 %
Extraction speed 2.6 X
Track quality 99.9 %
Test CRC 293DED30
Copy CRC 293DED30
Accurately ripped (confidence 2) [5498156E] (AR v2)
Copy OK

Track 4

Filename C:My DocumentsMy FLACZ-Trip & Radar – Live At The Future Primitive Soundsession Volume Two (1999) [FLAC]4 – Untitled.wav

Peak level 99.8 %
Extraction speed 2.8 X
Track quality 100.0 %
Test CRC 7DAAB308
Copy CRC 7DAAB308
Accurately ripped (confidence 2) [E0DCED37] (AR v2)
Copy OK

Track 5

Filename C:My DocumentsMy FLACZ-Trip & Radar – Live At The Future Primitive Soundsession Volume Two (1999) [FLAC]5 – Untitled.wav

Peak level 100.0 %
Extraction speed 2.5 X
Track quality 100.0 %
Test CRC D050575E
Copy CRC D050575E
Accurately ripped (confidence 2) [8B66F5CB] (AR v2)
Copy OK

Track 6

Filename C:My DocumentsMy FLACZ-Trip & Radar – Live At The Future Primitive Soundsession Volume Two (1999) [FLAC]6 – Untitled.wav

Peak level 99.1 %
Extraction speed 2.9 X
Track quality 99.9 %
Test CRC 421770A8
Copy CRC 421770A8
Accurately ripped (confidence 2) [FCE770C8] (AR v2)
Copy OK

Track 7

Filename C:My DocumentsMy FLACZ-Trip & Radar – Live At The Future Primitive Soundsession Volume Two (1999) [FLAC]7 – Untitled.wav

Peak level 100.0 %
Extraction speed 3.3 X
Track quality 100.0 %
Test CRC 1AA747D8
Copy CRC 1AA747D8
Accurately ripped (confidence 2) [7F1B296D] (AR v2)
Copy OK

Track 8

Filename C:My DocumentsMy FLACZ-Trip & Radar – Live At The Future Primitive Soundsession Volume Two (1999) [FLAC]8 – Untitled.wav

Peak level 100.0 %
Extraction speed 2.8 X
Track quality 99.9 %
Test CRC 10132655
Copy CRC 10132655
Accurately ripped (confidence 2) [6B8ACBD1] (AR v2)
Copy OK

Track 9

Filename C:My DocumentsMy FLACZ-Trip & Radar – Live At The Future Primitive Soundsession Volume Two (1999) [FLAC]9 – Untitled.wav

Peak level 99.5 %
Extraction speed 3.7 X
Track quality 100.0 %
Test CRC 8659885B
Copy CRC 8659885B
Accurately ripped (confidence 2) [A1ACD659] (AR v2)
Copy OK

Track 10

Filename C:My DocumentsMy FLACZ-Trip & Radar – Live At The Future Primitive Soundsession Volume Two (1999) [FLAC]10 – Untitled.wav

Peak level 98.2 %
Extraction speed 4.2 X
Track quality 100.0 %
Test CRC 51BBF4CF
Copy CRC 51BBF4CF
Accurately ripped (confidence 2) [21F66531] (AR v2)
Copy OK

Track 11

Filename C:My DocumentsMy FLACZ-Trip & Radar – Live At The Future Primitive Soundsession Volume Two (1999) [FLAC]11 – Untitled.wav

Peak level 100.0 %
Extraction speed 3.3 X
Track quality 99.9 %
Test CRC 4081BAC8
Copy CRC 4081BAC8
Accurately ripped (confidence 2) [70A60A0C] (AR v2)
Copy OK

Track 12

Filename C:My DocumentsMy FLACZ-Trip & Radar – Live At The Future Primitive Soundsession Volume Two (1999) [FLAC]12 – Untitled.wav

Peak level 100.0 %
Extraction speed 4.2 X
Track quality 100.0 %
Test CRC 07D7CEEA
Copy CRC 07D7CEEA
Accurately ripped (confidence 2) [77EB5312] (AR v2)
Copy OK

Track 13

Filename C:My DocumentsMy FLACZ-Trip & Radar – Live At The Future Primitive Soundsession Volume Two (1999) [FLAC]13 – Untitled.wav

Peak level 100.0 %
Extraction speed 4.0 X
Track quality 100.0 %
Test CRC 712C6156
Copy CRC 712C6156
Accurately ripped (confidence 2) [E745349A] (AR v2)
Copy OK

Track 14

Filename C:My DocumentsMy FLACZ-Trip & Radar – Live At The Future Primitive Soundsession Volume Two (1999) [FLAC]14 – Untitled.wav

Peak level 100.0 %
Extraction speed 4.4 X
Track quality 100.0 %
Test CRC DDBCC7B3
Copy CRC DDBCC7B3
Accurately ripped (confidence 2) [A5D186C7] (AR v2)
Copy OK

Track 15

Filename C:My DocumentsMy FLACZ-Trip & Radar – Live At The Future Primitive Soundsession Volume Two (1999) [FLAC]15 – Untitled.wav

Peak level 100.0 %
Extraction speed 4.6 X
Track quality 100.0 %
Test CRC F3BEEBDA
Copy CRC F3BEEBDA
Accurately ripped (confidence 2) [11A5596C] (AR v2)
Copy OK

Track 16

Filename C:My DocumentsMy FLACZ-Trip & Radar – Live At The Future Primitive Soundsession Volume Two (1999) [FLAC]16 – Untitled.wav

Peak level 99.7 %
Extraction speed 4.6 X
Track quality 100.0 %
Test CRC 4F54EBB5
Copy CRC 4F54EBB5
Accurately ripped (confidence 2) [36739E8D] (AR v2)
Copy OK

Track 17

Filename C:My DocumentsMy FLACZ-Trip & Radar – Live At The Future Primitive Soundsession Volume Two (1999) [FLAC]17 – Untitled.wav

Peak level 100.0 %
Extraction speed 5.1 X
Track quality 100.0 %
Test CRC 9133F1C0
Copy CRC 9133F1C0
Accurately ripped (confidence 2) [19BB6B2C] (AR v2)
Copy OK

Track 18

Filename C:My DocumentsMy FLACZ-Trip & Radar – Live At The Future Primitive Soundsession Volume Two (1999) [FLAC]18 – Untitled.wav

Peak level 99.1 %
Extraction speed 4.8 X
Track quality 100.0 %
Test CRC 4B027BCE
Copy CRC 4B027BCE
Accurately ripped (confidence 2) [D5E3420E] (AR v2)
Copy OK

Track 19

Filename C:My DocumentsMy FLACZ-Trip & Radar – Live At The Future Primitive Soundsession Volume Two (1999) [FLAC]19 – Untitled.wav

Peak level 100.0 %
Extraction speed 5.2 X
Track quality 100.0 %
Test CRC D0D96BE9
Copy CRC D0D96BE9
Accurately ripped (confidence 2) [5562E22B] (AR v2)
Copy OK

Track 20

Filename C:My DocumentsMy FLACZ-Trip & Radar – Live At The Future Primitive Soundsession Volume Two (1999) [FLAC]20 – Untitled.wav

Peak level 100.0 %
Extraction speed 4.9 X
Track quality 100.0 %
Test CRC 82D8794A
Copy CRC 82D8794A
Accurately ripped (confidence 2) [652EB217] (AR v2)
Copy OK

Track 21

Filename C:My DocumentsMy FLACZ-Trip & Radar – Live At The Future Primitive Soundsession Volume Two (1999) [FLAC]21 – Untitled.wav

Peak level 100.0 %
Extraction speed 4.0 X
Track quality 100.0 %
Test CRC 17D846B4
Copy CRC 17D846B4
Accurately ripped (confidence 2) [CB549A67] (AR v2)
Copy OK

Track 22

Filename C:My DocumentsMy FLACZ-Trip & Radar – Live At The Future Primitive Soundsession Volume Two (1999) [FLAC]22 – Untitled.wav

Peak level 100.0 %
Extraction speed 4.4 X
Track quality 100.0 %
Test CRC F1274045
Copy CRC F1274045
Accurately ripped (confidence 2) [CBE608D6] (AR v2)
Copy OK

All tracks accurately ripped

No errors occurred

End of status report

–– CUETools DB Plugin V2.1.6

[CTDB TOCID: cYNYMJ_ZJPRGDiTgu5ODJJ9Jdpo-] found
Submit result: cYNYMJ_ZJPRGDiTgu5ODJJ9Jdpo- has been confirmed
Track | CTDB Status
1 | (7/7) Accurately ripped
2 | (7/7) Accurately ripped
3 | (7/7) Accurately ripped
4 | (7/7) Accurately ripped
5 | (7/7) Accurately ripped
6 | (7/7) Accurately ripped
7 | (7/7) Accurately ripped
8 | (7/7) Accurately ripped
9 | (7/7) Accurately ripped
10 | (7/7) Accurately ripped
11 | (7/7) Accurately ripped
12 | (7/7) Accurately ripped
13 | (7/7) Accurately ripped
14 | (7/7) Accurately ripped
15 | (7/7) Accurately ripped
16 | (7/7) Accurately ripped
17 | (7/7) Accurately ripped
18 | (7/7) Accurately ripped
19 | (7/7) Accurately ripped
20 | (7/7) Accurately ripped
21 | (7/7) Accurately ripped
22 | (7/7) Accurately ripped

==== Log checksum AC2D37BA1BF393B77F13A3D14758E947ACD07155C98D9F1807387263A86BED25 ====

Z-Trip & Radar - Live At The Future Primitive Soundsession Volume Two (1999)

Z-Trip & Radar – Live At The Future Primitive Soundsession Volume Two (1999) Download, Warez, DDL, Free, Full Album, Torrent, Legal.

Download