Yes – Drama (1980) {1990, Japan 1st press} | ViralVideoPk

Daily Dose of Free Downloads

Yes – Drama (1980) {1990, Japan 1st press}

Download

Yes - Drama (1980) {1990, Japan 1st press}

Yes – Drama (1980) {1990, Japan 1st press}
EAC Rip | FLAC (Img) + Cue + Log ~ 241 Mb | MP3 CBR320 ~ 95 Mb
Scans Included (JPG, 300 dpi) | RAR 5% Recovery
Progressive Rock | Atlantic / MMG Inc. #AMCY-16

Drama is the tenth studio album by the English rock band Yes, released on 18 August 1980 by Atlantic Records. It is their only album to feature Trevor Horn as lead vocalist, following the departure of Jon Anderson and Rick Wakeman in March 1980 after unsuccessful recording sessions for a new album in Paris and London. Horn was joined by keyboardist Geoff Downes, his partner in the new wave band The Buggles. Drama was recorded in a short amount of time as a tour was already booked prior to the change in personnel. It marked a departure in the band’s musical direction with songs more accessible and aggressive, and featuring the use of modern keyboards and a vocoder.

~ Wiki

For this one album, ex-Buggles Geoffrey Downes and Trevor Horn were drafted in to replace Jon Anderson and Rick Wakeman. It rocks harder than other Yes albums, and for classically inclined fans, it was a jarring departure; but it was a harbinger of Yes and Asia albums to come. A newly emboldened Chris Squire lays down aggressive rhythms with Alan White, and Steve Howe eschews his usual acoustic rags and flamenco licks for a more metallic approach, opting for sheets of electric sound. Prime cuts include the doom-laden "Machine Messiah" and the manic ska inflections of "Tempus Fugit." Despite the promise of this new material, the band soon fell apart; Horn went into production, Howe and Downes joined Asia, and Squire and White toyed and then gave up on a pair-up with Robert Plant and Jimmy Page, which was to be titled XYZ (i.e., Ex-Yes and Zeppelin).

~ Paul Collins, All Music
Official Website | Wiki | Discogs | All Music

***************

Yes - Drama (1980) {1990, Japan 1st press}

Track List:

01. Machine Messiah [0:10:23.70]
02. White Car [0:01:21.00]
03. Does It Really Happen? [0:06:32.05]
04. Into The Lens [0:08:30.45]
05. Run Through The Light [0:04:41.20]
06. Tempus Fugit [0:05:14.60]

Personnel:

Trevor Horn – lead vocals, fretless bass on «Run Through the Light»
Steve Howe – Gibson Les Paul on «Machine Messiah» and «Run Through the Light», Gibson Les Paul Goldtop on «Does It Really Happen?», Fender Console Steel and Telecaster on «Into the Lens», Martin mandolin on «Run Through the Light», Fender Stratocaster on «Tempus Fugit», backing vocals
Chris Squire – bass, backing vocals, piano on «Run Through the Light»
Geoff Downes – keyboards, vocoder
Alan White – drums, percussion, backing vocals

EAC Log
Exact Audio Copy V1.2 from 12. August 2016

EAC extraction logfile from 28. December 2016, 18:10

Yes / Drama [AMCY-16]

Used drive : HL-DT-STBD-RE BH10LS38 Adapter: 1 ID: 1

Read mode : Secure
Utilize accurate stream : Yes
Defeat audio cache : Yes
Make use of C2 pointers : No

Read offset correction : 667
Overread into Lead-In and Lead-Out : No
Fill up missing offset samples with silence : Yes
Delete leading and trailing silent blocks : No
Null samples used in CRC calculations : Yes
Used interface : Installed external ASPI interface

Used output format : User Defined Encoder
Selected bitrate : 128 kBit/s
Quality : High
Add ID3 tag : No
Command line compressor : C:Program Files (x86)Exact Audio Copywavpack-4.60.1wavpack.exe
Additional command line options : -hm -w "Year=%year%" -w "Genre=%genre%" %source% %dest%

TOC of the extracted CD

Track | Start | Length | Start sector | End sector
––––––––––––––––––––––––––––-
1 | 0:00.00 | 10:23.70 | 0 | 46794
2 | 10:23.70 | 1:21.00 | 46795 | 52869
3 | 11:44.70 | 6:32.05 | 52870 | 82274
4 | 18:17.00 | 8:30.45 | 82275 | 120569
5 | 26:47.45 | 4:41.20 | 120570 | 141664
6 | 31:28.65 | 5:14.60 | 141665 | 165274

Range status and errors

Selected range

Filename G:Rips by AlderYes – Drama [AMCY-16].wav

Peak level 100.0 %
Extraction speed 6.7 X
Range quality 100.0 %
Test CRC A5F29197
Copy CRC A5F29197
Copy OK

No errors occurred

AccurateRip summary

Track 1 accurately ripped (confidence 5) [9539DC40] (AR v2)
Track 2 accurately ripped (confidence 5) [DD12439D] (AR v2)
Track 3 accurately ripped (confidence 5) [A463EA9B] (AR v2)
Track 4 accurately ripped (confidence 5) [A352F6C4] (AR v2)
Track 5 accurately ripped (confidence 5) [B30C01C0] (AR v2)
Track 6 accurately ripped (confidence 5) [F88A6221] (AR v2)

All tracks accurately ripped

End of status report

–– CUETools DB Plugin V2.1.6

[CTDB TOCID: jwPZ7lg8hLah5kd3RQHadwwPmbM-] found
Submit result: jwPZ7lg8hLah5kd3RQHadwwPmbM- has been confirmed
Track | CTDB Status
1 | (12/12) Accurately ripped
2 | (12/12) Accurately ripped
3 | (12/12) Accurately ripped
4 | (12/12) Accurately ripped
5 | (12/12) Accurately ripped
6 | (12/12) Accurately ripped

==== Log checksum D0BE740387A9A6579A711AA0460FA61E4FEE94478869045FC11D0C343FD0A3FA ====

DR Log
foobar2000 1.2.6 / Dynamic Range Meter 1.1.1
log date: 2016-12-29 21:43:54

––––––––––––––––––––––––––––––––––––––––
Analyzed: Yes / Drama [AMCY-16]
––––––––––––––––––––––––––––––––––––––––

DR Peak RMS Duration Track
––––––––––––––––––––––––––––––––––––––––
DR10 -0.20 dB -14.52 dB 10:24 01-Machine Messiah
DR10 -3.35 dB -16.45 dB 1:21 02-White Car
DR10 -0.15 dB -12.56 dB 6:32 03-Does It Really Happen?
DR10 0.00 dB -13.17 dB 8:31 04-Into The Lens
DR10 -1.32 dB -13.84 dB 4:41 05-Run Through The Light
DR10 -1.03 dB -13.48 dB 5:15 06-Tempus Fugit
––––––––––––––––––––––––––––––––––––––––

Number of tracks: 6
Official DR value: DR10

Samplerate: 44100 Hz
Channels: 2
Bits per sample: 16
Bitrate: 836 kbps
Codec: WavPack
================================================================================

CUETools Log
[CUETools log; Date: 29.12.2016 21:43:54; Version: 2.1.5]
[CTDB TOCID: jwPZ7lg8hLah5kd3RQHadwwPmbM-] found.
Track | CTDB Status
1 | (13/13) Accurately ripped
2 | (13/13) Accurately ripped
3 | (13/13) Accurately ripped
4 | (13/13) Accurately ripped
5 | (13/13) Accurately ripped
6 | (13/13) Accurately ripped
[AccurateRip ID: 00094caa-0030b11a-51089b06] found.
Track [ CRC | V2 ] Status
01 [c6cd7132|9539dc40] (2+5/7) Accurately ripped
02 [857208a8|dd12439d] (2+5/7) Accurately ripped
03 [3de8bef3|a463ea9b] (2+5/7) Accurately ripped
04 [5bcecba9|a352f6c4] (2+5/7) Accurately ripped
05 [6aa82d68|b30c01c0] (2+5/7) Accurately ripped
06 [ffa08e5d|f88a6221] (2+5/7) Accurately ripped

Track Peak [ CRC32 ] [W/O NULL] [ LOG ]
– 100,0 [A5F29197] [9B62B531] CRC32
01 97,7 [5C7F8C3B] [5B2F7480]
02 68,0 [2F3679BC] [FBA1BAAD]
03 98,3 [901CC6D6] [4E730517]
04 100,0 [B651A603] [DF418F0D]
05 85,9 [D6906D48] [0DCD8ACE]
06 88,8 [044CDBE7] [AFF1F744]

Yes - Drama (1980) {1990, Japan 1st press}

Yes - Drama (1980) {1990, Japan 1st press}

All thanks go to Alder

> Visit my blog <

Download:

Yes – Drama (1980) {1990, Japan 1st press} Download, Warez, DDL, Free, Full Album, Torrent, Legal.

Download


  • Recent Posts

  • Recent Tags