Yellowjackets – Timeline (2011) {Mack Avenue} [Re-Up]

Download
Yellowjackets - Timeline (2011) {Mack Avenue} [Re-Up]

Yellowjackets – Timeline (2011) {Mack Avenue}
EAC 1.0b1 | FLAC tracks level 8 | Cue+Log+M3U+MD5 | Full Scans 600dpi | 411MB + 5% Recovery
MP3 CBR 320 Kbps | 176MB + 5% Recovery
Genre: Fusion

Contemporary jazz ensemble Yellowjackets’ 2011 Mack Avenue debut, Timeline features the band’s longstanding knack for straddling the line between smooth jazz and more cerebral post-bop stuff. Marking the group’s 30 years in the business, the album is a perfect mix of low-key, soulful moments and more funky, angular jazz.

Track List
01. Why Is It 5:04
02. Tenacity 6:07
03. Rosemary 4:54
04. Timeline 5:11
05. Magnolia 4:36
06. A Single Step 7:05
07. Indivisible 5:22
08. Like Elvin 5:32
09. My Soliloquy 6:22
10. Numerology 5:56
11. I Do 6:00

musicians
Russell Ferrante – piano, keyboards
Jimmy Haslip – bass
Bob Mintzer – tenor and soprano saxes, bass clarinet
Will Kennedy – drums, keyboards

guests:
Robben Ford – guitar on track 5
John Daversa – trumpet on tracks 2,8

Produced by Yellowjackets

EAC Logfile
Exact Audio Copy V1.0 beta 1 from 15. November 2010

EAC extraction logfile from 15. May 2011, 19:21

Yellowjackets / Timeline

Used drive : HL-DT-STDVDRAM GH20NS10 Adapter: 2 ID: 1

Read mode : Secure
Utilize accurate stream : Yes
Defeat audio cache : Yes
Make use of C2 pointers : No

Read offset correction : 667
Overread into Lead-In and Lead-Out : No
Fill up missing offset samples with silence : Yes
Delete leading and trailing silent blocks : No
Null samples used in CRC calculations : Yes
Used interface : Native Win32 interface for Win NT & 2000
Gap handling : Appended to previous track

Used output format : User Defined Encoder
Selected bitrate : 1024 kBit/s
Quality : High
Add ID3 tag : No
Command line compressor : C:Program FilesExact Audio CopyFlacflac.exe
Additional command line options : -8 -V -T "ARTIST=%a" -T "TITLE=%t" -T "ALBUM=%g" -T "DATE=%y" -T "TRACKNUMBER=%n" -T "TOTALTRACKS=%x" -T "GENRE=%m" -T "ALBUMARTIST=%v" -T "ALBUM ARTIST=%v" -T "COMMENT=EAC Secure Mode, Test & Copy, AccurateRip, FLAC -8" %s

TOC of the extracted CD

Track | Start | Length | Start sector | End sector
––––––––––––––––––––––––––––-
1 | 0:00.00 | 5:04.24 | 0 | 22823
2 | 5:04.24 | 6:07.28 | 22824 | 50376
3 | 11:11.52 | 4:54.30 | 50377 | 72456
4 | 16:06.07 | 5:11.17 | 72457 | 95798
5 | 21:17.24 | 4:36.07 | 95799 | 116505
6 | 25:53.31 | 7:05.16 | 116506 | 148396
7 | 32:58.47 | 5:22.11 | 148397 | 172557
8 | 38:20.58 | 5:32.28 | 172558 | 197485
9 | 43:53.11 | 6:22.71 | 197486 | 226206
10 | 50:16.07 | 5:56.30 | 226207 | 252936
11 | 56:12.37 | 6:00.49 | 252937 | 279985

Track 1

Filename G:Yellowjackets – Timeline (2011) {Mack Avenue}1 – Why Is It.wav

Pre-gap length 0:00:02.00

Peak level 94.3 %
Extraction speed 4.6 X
Track quality 100.0 %
Test CRC 41899628
Copy CRC 41899628
Cannot be verified as accurate (confidence 1) [AFEADB37], AccurateRip returned [766351CD]
Copy OK

Track 2

Filename G:Yellowjackets – Timeline (2011) {Mack Avenue}2 – Tenacity.wav

Peak level 97.3 %
Extraction speed 5.6 X
Track quality 100.0 %
Test CRC 61BBFA83
Copy CRC 61BBFA83
Cannot be verified as accurate (confidence 1) [5818A2D0], AccurateRip returned [01D9C7AD]
Copy OK

Track 3

Filename G:Yellowjackets – Timeline (2011) {Mack Avenue}3 – Rosemary.wav

Peak level 96.4 %
Extraction speed 6.0 X
Track quality 100.0 %
Test CRC 02FE8D55
Copy CRC 02FE8D55
Cannot be verified as accurate (confidence 1) [26CDD788], AccurateRip returned [DA388949]
Copy OK

Track 4

Filename G:Yellowjackets – Timeline (2011) {Mack Avenue}4 – Timeline.wav

Peak level 95.5 %
Extraction speed 3.5 X
Track quality 100.0 %
Test CRC 6EC2D4AF
Copy CRC 6EC2D4AF
Cannot be verified as accurate (confidence 1) [9F4BE31C], AccurateRip returned [460DC8C2]
Copy OK

Track 5

Filename G:Yellowjackets – Timeline (2011) {Mack Avenue}5 – Magnolia.wav

Peak level 95.6 %
Extraction speed 5.1 X
Track quality 100.0 %
Test CRC 19F37DE2
Copy CRC 19F37DE2
Cannot be verified as accurate (confidence 1) [238B40EB], AccurateRip returned [1A269D0B]
Copy OK

Track 6

Filename G:Yellowjackets – Timeline (2011) {Mack Avenue}6 – A Single Step.wav

Peak level 94.5 %
Extraction speed 4.9 X
Track quality 100.0 %
Test CRC 1CE9482B
Copy CRC 1CE9482B
Cannot be verified as accurate (confidence 1) [FDEF1C76], AccurateRip returned [342C8A7A]
Copy OK

Track 7

Filename G:Yellowjackets – Timeline (2011) {Mack Avenue}7 – Indivisible.wav

Peak level 92.6 %
Extraction speed 3.7 X
Track quality 100.0 %
Test CRC 20B370EC
Copy CRC 20B370EC
Cannot be verified as accurate (confidence 1) [AB1E5EF5], AccurateRip returned [ADDB5264]
Copy OK

Track 8

Filename G:Yellowjackets – Timeline (2011) {Mack Avenue}8 – Like Elvin.wav

Peak level 99.6 %
Extraction speed 4.8 X
Track quality 99.9 %
Test CRC 601212C7
Copy CRC 601212C7
Cannot be verified as accurate (confidence 1) [9040DB0B], AccurateRip returned [6B3042B6]
Copy OK

Track 9

Filename G:Yellowjackets – Timeline (2011) {Mack Avenue}9 – My Soliloquy.wav

Peak level 92.7 %
Extraction speed 5.7 X
Track quality 100.0 %
Test CRC DFD20F6B
Copy CRC DFD20F6B
Cannot be verified as accurate (confidence 1) [E944560E], AccurateRip returned [E0232CB6]
Copy OK

Track 10

Filename G:Yellowjackets – Timeline (2011) {Mack Avenue}10 – Numerology.wav

Peak level 97.9 %
Extraction speed 4.2 X
Track quality 100.0 %
Test CRC D8A62529
Copy CRC D8A62529
Cannot be verified as accurate (confidence 1) [B84C5219], AccurateRip returned [EFFB90F7]
Copy OK

Track 11

Filename G:Yellowjackets – Timeline (2011) {Mack Avenue}11 – I Do.wav

Peak level 92.5 %
Extraction speed 5.5 X
Track quality 99.9 %
Test CRC C2A33206
Copy CRC C2A33206
Cannot be verified as accurate (confidence 1) [8920F034], AccurateRip returned [F96555F4]
Copy OK

No tracks could be verified as accurate
You may have a different pressing from the one(s) in the database

No errors occurred

End of status report

==== Log checksum B25036E3E21AB4DE95DB7BA4A2B1009D2F0F434C7E6C79E004AD1673FA18A83B ====

Yellowjackets - Timeline (2011) {Mack Avenue} [Re-Up]
Yellowjackets - Timeline (2011) {Mack Avenue} [Re-Up]

Yellowjackets – Timeline (2011) {Mack Avenue} [Re-Up] Download, Warez, DDL, Free, Full Album, Torrent, Legal.

Download