Wolverine – 3 Studio Albums (2001-2011)

Download
Wolverine - 3 Studio Albums (2001-2011)

Wolverine – 3 Studio Albums (2001-2011)
EAC Rip | FLAC (image+.cue+log) – 1,32 GB | MP3 CBR 320 kbps (LAME 3.93) – 446 MB | Covers – 61 MB
Genre: Progressive Metal | RAR 3% Rec. | Label: Earache Records, Candlelight Records

Hailing from Soderhamn, Sweden, Wolverine was formed in 1995 by Stefan Zell (bass, vocals) and Marcus Losbjer (drums, backing vocals). They were soon joined by Stefan’s younger brother Mikael (guitar), followed by Andreas Baglien (keyboards, organ) and Carl-Henrik Landegren (guitar) as their sound evolved into melodic progressive metal.
During summer 2001, the band travelled to Germany to record their debut studio album, "The Window Purpose" (2001) by which time, guitarist Landegren had left the band, to be replaced by Per Per Broddesson, while second bassist Thomas Jansson was later added to free Stefan Zell up for some of the vocal passages. Their debut, through Losbjer’s occasional growling vocals and Zell’s heavier guitar work continued to bear traces of their death metal legacy besides traces of a ‘Pain Of Salvation’ influence alongside the new progressive/ post metal direction they were now taking. Critically acclaimed, "The Window Purpose" caught the ear of Elitist records, who signed the band to a potential four-album deal, while more concerts followed, including a support slot for Anathema in London.

After splitting with Elitist Records in 2005 the band signed to Candlelight Records, who released their third album, "Still" (2006). Prior to entering the studios however, WOLVERINE witnessed the departure of keyboardist Andreas Baglien after 8 years as a member of the band, to be replaced by Per Hendriksson. The album, which had been recorded at the Spacelab Studio, Germany during the summer of 2005, tended toward a blend of their previous offerings; atmospherically powerful, emotionally laden with melancholy moods and subtle nuances. Although Mikael Zell’s harder edged guitar evidences a heavier offering than its predecessor, the combination of his riffing style set against the melodic backdrop of Hendriksson’s keys, suggest the band’s sound being nudged in the direction of Riverside and Anathema.

‘Complicated’ personal issues came to the fore during 2007/8 which almost brought the band to a halt; however the process of song writing was renewed and material was gradually put together for what would eventually become "Communication Lost" (2011), the band’s fourth full studio effort. The album was recorded in various locations around Sweden during early 2010, mixed by Jacob Hansen in Denmark and finally released through Candlelight Records in May. According to Marcus Losbjer, the album is the natural evolution and continuation from "Still", the songs being structurally more complex, with electronic elements and effects being utilised to help create the desired atmosphere. Critics have commented on the album benefitting from high quality of production, with a wide dynamic range.

Progarchives

Wolverine - 3 Studio Albums (2001-2011)

Wolverine – The Window Purpose (2001) [Reissue 2005]
EAC Rip | FLAC (image+.cue+log) – 489 MB | MP3 CBR 320 kbps (LAME 3.93) – 158 MB | Covers – 20 MB
Genre: Progressive Metal | RAR 3% Rec. | Label: Earache Records (MOSH912CD)

Tracklist:
01. End
02. My Room
03. His Cold Touch
Part I: Within These Walls
Part II: A Silent Outside
04. …
05. Leaving Yesterday
06. Towards Loss
07. The Storm Inside
08. Coma
09. Release
10. Post Life
11. Again! (Bonus track)

Total time: 01:07:02

EAC log
Exact Audio Copy V1.0 beta 1 from 15. November 2010

EAC extraction logfile from 11. March 2011, 18:47

Wolverine / The Window Purpose (2005)

Used drive : Optiarc DVD RW AD-7240S Adapter: 2 ID: 0

Read mode : Secure
Utilize accurate stream : Yes
Defeat audio cache : Yes
Make use of C2 pointers : No

Read offset correction : 48
Overread into Lead-In and Lead-Out : No
Fill up missing offset samples with silence : Yes
Delete leading and trailing silent blocks : No
Null samples used in CRC calculations : Yes
Used interface : Native Win32 interface for Win NT & 2000

Used output format : Internal WAV Routines
Sample format : 44.100 Hz; 16 Bit; Stereo

TOC of the extracted CD

Track | Start | Length | Start sector | End sector
––––––––––––––––––––––––––––-
1 | 0:00.00 | 0:42.71 | 0 | 3220
2 | 0:42.71 | 8:05.56 | 3221 | 39651
3 | 8:48.52 | 9:41.74 | 39652 | 83300
4 | 18:30.51 | 1:52.03 | 83301 | 91703
5 | 20:22.54 | 7:11.19 | 91704 | 124047
6 | 27:33.73 | 5:55.08 | 124048 | 150680
7 | 33:29.06 | 7:56.25 | 150681 | 186405
8 | 41:25.31 | 7:25.14 | 186406 | 219794
9 | 48:50.45 | 2:10.56 | 219795 | 229600
10 | 51:01.26 | 6:00.17 | 229601 | 256617
11 | 57:01.43 | 10:00.59 | 256618 | 301676

Range status and errors

Selected range

Filename D:spiralarchWolverine – The Window Purpose (2005).wav

Peak level 100.0 %
Extraction speed 0.6 X
Range quality 100.0 %
Copy CRC EFFA0396
Copy OK

No errors occurred

AccurateRip summary

Track 1 accurately ripped (confidence 5) [B96F9395]
Track 2 accurately ripped (confidence 5) [D412079A]
Track 3 accurately ripped (confidence 5) [B9A86CC0]
Track 4 accurately ripped (confidence 5) [5AFCB457]
Track 5 accurately ripped (confidence 5) [E1831123]
Track 6 accurately ripped (confidence 5) [086C514F]
Track 7 accurately ripped (confidence 5) [7424EA44]
Track 8 accurately ripped (confidence 5) [0BF7B9AF]
Track 9 accurately ripped (confidence 5) [8B545D47]
Track 10 accurately ripped (confidence 5) [01B13FEB]
Track 11 accurately ripped (confidence 5) [01C2D6A9]

All tracks accurately ripped

End of status report

==== Log checksum 8C07F539AE6CFEA19D36E5328A23BFB35CE7E3CCDBBCB662A6DCE7D1EAC4FD70 ====

CUETools log
[CUETools log; Date: 01.07.2017 22:32:46; Version: 2.1.4]
[CTDB TOCID: tF5qnsc6X0emZ0Oyda6InPAmphQ-] found.
Track | CTDB Status
1 | (3/3) Accurately ripped
2 | (3/3) Accurately ripped
3 | (3/3) Accurately ripped
4 | (3/3) Accurately ripped
5 | (3/3) Accurately ripped
6 | (3/3) Accurately ripped
7 | (3/3) Accurately ripped
8 | (3/3) Accurately ripped
9 | (3/3) Accurately ripped
10 | (3/3) Accurately ripped
11 | (3/3) Accurately ripped
[AccurateRip ID: 0019bcb0-00e3bae1-720fb60b] found.
Track [ CRC | V2 ] Status
01 [b96f9395|50b0d7ac] (07+02/12) Accurately ripped
02 [d412079a|6acaf124] (07+02/12) Accurately ripped
03 [b9a86cc0|26f6d719] (07+02/12) Accurately ripped
04 [5afcb457|cd81c31a] (07+02/12) Accurately ripped
05 [e1831123|bb35a08f] (07+02/12) Accurately ripped
06 [086c514f|e95d715a] (07+02/12) Accurately ripped
07 [7424ea44|ec4cb028] (07+02/12) Accurately ripped
08 [0bf7b9af|694657fd] (07+02/12) Accurately ripped
09 [8b545d47|7ef18313] (07+02/12) Accurately ripped
10 [01b13feb|9b6ca36e] (07+02/12) Accurately ripped
11 [01c2d6a9|5b6412a5] (07+02/12) Accurately ripped
Offsetted by 590:
01 [720fcb1d] (00/12) No match (V2 was not tested)
02 [36f57e7e] (00/12) No match (V2 was not tested)
03 [13c9ca0a] (00/12) No match (V2 was not tested)
04 [d42f5fc1] (00/12) No match (V2 was not tested)
05 [7b22dc25] (00/12) No match (V2 was not tested)
06 [03b120fb] (00/12) No match (V2 was not tested)
07 [73f5170c] (00/12) No match (V2 was not tested)
08 [4d958565] (00/12) No match (V2 was not tested)
09 [23277627] (00/12) No match (V2 was not tested)
10 [8b82c107] (00/12) No match (V2 was not tested)
11 [a1142a6e] (00/12) No match (V2 was not tested)

Track Peak [ CRC32 ] [W/O NULL] [ LOG ]
– 100,0 [EFFA0396] [A1A104A6] CRC32
01 52,7 [B9921309] [CDE5D977]
02 98,8 [58DC30E4] [741A81AA]
03 98,8 [36E9DBD7] [4C96B2EA]
04 98,8 [0E1FA6A7] [7FDFC208]
05 98,8 [4A52AC81] [A3FC40E0]
06 98,8 [CBFF7034] [DB16A9D9]
07 98,8 [8C2208B1] [45F56511]
08 98,8 [271BC7FD] [33DCDF24]
09 97,8 [0E569338] [89254C22]
10 98,8 [325458CC] [B9656241]
11 100,0 [0EDC337E] [C6A7E824]

Wolverine - 3 Studio Albums (2001-2011)

Wolverine – Still (2006)
EAC Rip | FLAC (image+.cue+log) – 375 MB | MP3 CBR 320 kbps (LAME 3.93) – 123 MB | Covers – 15 MB
Genre: Progressive Metal | RAR 3% Rec. | Label: Candlelight Records (Candle146Cd)

Tracklist:
01. A House of Plague
02. Bleeding
03. Taste of Sand
04. Nothing More
05. Sleepy Town
06. Liar on the Mount
07. Hiding
08. This Cold Heart of Mine
09. And She Slowly Dies

Total time: 52:11

EAC log
Exact Audio Copy V0.99 prebeta 5 from 4. May 2009

Отчёт EAC об извлечении, выполненном 22. мая 2009, 20:18

Wolverine / Wolverine – "Still" (Candle146Cd)

Дисковод: TSSTcorpCD/DVDW SH-S183L Adapter: 0 ID: 0

Режим чтения : Достоверность
Использование точного потока : Да
Отключение кэша аудио : Да
Использование указателей C2 : Нет

Коррекция смещения при чтении : 6
Способность читать области Lead-in и Lead-out : Нет
Заполнение пропущенных сэмплов тишиной : Да
Удаление блоков с тишиной в начале и конце : Нет
При вычислениях CRC использовались нулевые сэмплы : Да
Интерфейс : Установленный внешний ASPI-интерфейс

Выходной формат : Внутренние WAV-операции
Формат сэмплов : 44.100 Гц; 16 бит; стерео

TOC извлечённого CD

Трек | Старт | Длительность | Начальный сектор | Конечный сектор
––––––––––––––––––––––––––––––––––-
1 | 0:00.00 | 6:52.17 | 0 | 30916
2 | 6:52.17 | 5:21.23 | 30917 | 55014
3 | 12:13.40 | 6:02.23 | 55015 | 82187
4 | 18:15.63 | 4:11.10 | 82188 | 101022
5 | 22:26.73 | 4:13.60 | 101023 | 120057
6 | 26:40.58 | 5:43.53 | 120058 | 145835
7 | 32:24.36 | 4:14.35 | 145836 | 164920
8 | 36:38.71 | 7:52.11 | 164921 | 200331
9 | 44:31.07 | 7:40.20 | 200332 | 234851

Характеристики диапазона извлечения и сообщения об ошибках

Выбранный диапазон

Имя файла C:UsersCoronerDocumentsWolverine – Wolverine – Still (Candle146Cd).wav

Пиковый уровень 98.8 %
Качество диапазона 99.9 %
CRC копии 7EF7D997
Копирование… OK

Ошибок не произошло

AccurateRip: сводка

Трек 1 точное извлечение (доверие 2) [0D441BA9]
Трек 2 точное извлечение (доверие 2) [574564AB]
Трек 3 точное извлечение (доверие 2) [844830A2]
Трек 4 точное извлечение (доверие 2) [F00D52D3]
Трек 5 точное извлечение (доверие 2) [669B966D]
Трек 6 точное извлечение (доверие 2) [9CFBF557]
Трек 7 точное извлечение (доверие 2) [66529F23]
Трек 8 точное извлечение (доверие 2) [58ED8D98]
Трек 9 точное извлечение (доверие 2) [2B3FC10E]

Все треки извлечены точно

Конец отчёта

CUETools log
[CUETools log; Date: 01.07.2017 22:35:46; Version: 2.1.4]
[CTDB TOCID: 87DyaIpa0ex.T3OInEKiZHyJKso-] found.
Track | CTDB Status
1 | (16/16) Accurately ripped
2 | (16/16) Accurately ripped
3 | (16/16) Accurately ripped
4 | (16/16) Accurately ripped
5 | (16/16) Accurately ripped
6 | (16/16) Accurately ripped
7 | (16/16) Accurately ripped
8 | (16/16) Accurately ripped
9 | (16/16) Accurately ripped
[AccurateRip ID: 00115226-007e3bb7-6e0c3b09] found.
Track [ CRC | V2 ] Status
01 [0d441ba9|de37e451] (07+06/23) Accurately ripped
02 [574564ab|05dee2bc] (07+06/23) Accurately ripped
03 [844830a2|2dbc0057] (07+06/23) Accurately ripped
04 [f00d52d3|ee0f85f4] (07+06/23) Accurately ripped
05 [669b966d|3c4506ef] (07+06/23) Accurately ripped
06 [9cfbf557|a0e09584] (07+06/23) Accurately ripped
07 [66529f23|d5cbdc81] (07+06/23) Accurately ripped
08 [58ed8d98|e87a52b5] (07+06/23) Accurately ripped
09 [2b3fc10e|12c0ed32] (07+06/21) Accurately ripped
Offsetted by -646:
01 [778eafff] (03/23) Accurately ripped
02 [322810c9] (03/23) Accurately ripped
03 [4364746a] (03/23) Accurately ripped
04 [48ebb7fd] (03/23) Accurately ripped
05 [4bfe1087] (03/23) Accurately ripped
06 [d6153cb5] (03/23) Accurately ripped
07 [b58a26f1] (03/23) Accurately ripped
08 [0b6ba816] (03/23) Accurately ripped
09 [7222f08e] (03/21) Accurately ripped
Offsetted by -1310:
01 [ac89b5d7] (02/23) Accurately ripped
02 [b4d33bc1] (02/23) Accurately ripped
03 [622e498a] (02/23) Accurately ripped
04 [a6a4b825] (02/23) Accurately ripped
05 [b82a386f] (02/23) Accurately ripped
06 [8d34c4ad] (02/23) Accurately ripped
07 [517724a9] (02/23) Accurately ripped
08 [518c948e] (02/23) Accurately ripped
09 [af1c4e8e] (00/21) No match (V2 was not tested)

Track Peak [ CRC32 ] [W/O NULL] [ LOG ]
– 98,8 [7EF7D997] [9ABC4805] CRC32
01 98,8 [2B288466] [096878BA]
02 98,8 [3BFA512B] [1CB1A5C4]
03 98,8 [156DA3F3] [EDEFAA4B]
04 69,9 [B76D9F29] [D3B7AAED]
05 98,8 [A9FFC65B] [DAD47C08]
06 98,8 [ADB88E01] [F6627C03]
07 98,8 [22517A56] [983F430E]
08 98,8 [4052C449] [B054C4A1]
09 98,8 [61D9E83B] [D7409979]

Wolverine - 3 Studio Albums (2001-2011)

Wolverine – Communication Lost (2011)
EAC Rip | FLAC (image+.cue+log) – 456 MB | MP3 CBR 320 kbps (LAME 3.93) – 165 MB | Covers – 26 MB
Genre: Progressive Metal | RAR 3% Rec. | Label: Candlelight Records (Candle328cd)

Tracklist:
01. Downfall
02. Into The Great Nothing
03. Poison Ivy
04. Your Favourite War
05. Embrace
06. Pulse
07. What Remains
08. In Memory Of Me
09. In The Quiet Of Dawn
10. Communication Lost
11. A Beginning

Total time: 01:10:05

EAC log
Exact Audio Copy V0.99 prebeta 5 from 4. May 2009

EAC extraction logfile from 26. June 2011, 14:10

Wolverine / Communication Lost

Used drive : PIONEER DVD-RW DVR-111D Adapter: 1 ID: 0

Read mode : Secure
Utilize accurate stream : Yes
Defeat audio cache : Yes
Make use of C2 pointers : No

Read offset correction : 48
Overread into Lead-In and Lead-Out : No
Fill up missing offset samples with silence : Yes
Delete leading and trailing silent blocks : No
Null samples used in CRC calculations : No
Used interface : Native Win32 interface for Win NT & 2000

Used output format : User Defined Encoder
Selected bitrate : 32 kBit/s
Quality : High
Add ID3 tag : No
Command line compressor : C:Program FilesExact Audio CopyFLACFLAC.EXE
Additional command line options : -6 -V %s

TOC of the extracted CD

Track | Start | Length | Start sector | End sector
––––––––––––––––––––––––––––-
1 | 0:00.00 | 3:46.23 | 0 | 16972
2 | 3:46.23 | 8:36.34 | 16973 | 55706
3 | 12:22.57 | 5:16.40 | 55707 | 79446
4 | 17:39.22 | 5:16.03 | 79447 | 103149
5 | 22:55.25 | 6:41.71 | 103150 | 133295
6 | 29:37.21 | 6:16.34 | 133296 | 161529
7 | 35:53.55 | 5:28.47 | 161530 | 186176
8 | 41:22.27 | 8:38.43 | 186177 | 225069
9 | 50:00.70 | 4:29.07 | 225070 | 245251
10 | 54:30.02 | 8:51.66 | 245252 | 285142
11 | 63:21.68 | 6:43.08 | 285143 | 315375

Range status and errors

Selected range

Filename D:MusicFilesFLAC Temp MetalMadnessWolverine – Communication LostWolverine – Communication Lost.wav

Peak level 98.8 %
Range quality 100.0 %
Copy CRC C636A36C
Copy OK

No errors occurred

AccurateRip summary

Track 1 accurately ripped (confidence 1) [B4451C1F]
Track 2 accurately ripped (confidence 1) [4B61C336]
Track 3 accurately ripped (confidence 1) [3C3713B9]
Track 4 accurately ripped (confidence 1) [47A025EC]
Track 5 accurately ripped (confidence 1) [6FE14E53]
Track 6 accurately ripped (confidence 1) [97B1FB00]
Track 7 accurately ripped (confidence 1) [F51F2708]
Track 8 accurately ripped (confidence 1) [BCADF91A]
Track 9 accurately ripped (confidence 1) [F605184F]
Track 10 accurately ripped (confidence 1) [C134B8B4]
Track 11 accurately ripped (confidence 1) [968EB40A]

All tracks accurately ripped

End of status report

CUETools log
[CUETools log; Date: 01.07.2017 22:39:57; Version: 2.1.4]
[CTDB TOCID: CNQSZ2VDdRdHbeSbNHo3xvE3IJE-] found.
Track | CTDB Status
1 | (22/22) Accurately ripped
2 | (22/22) Accurately ripped
3 | (22/22) Accurately ripped
4 | (15/22) Accurately ripped
5 | (15/22) Accurately ripped
6 | (15/22) Accurately ripped
7 | (15/22) Accurately ripped
8 | (15/22) Accurately ripped
9 | (14/22) Accurately ripped
10 | (14/22) Accurately ripped
11 | (14/22) Accurately ripped
[AccurateRip ID: 001b9311-00f1e8af-8f106d0b] found.
Track [ CRC | V2 ] Status
01 [b4451c1f|de24475a] (04+11/22) Accurately ripped
02 [4b61c336|2b494268] (04+11/22) Accurately ripped
03 [3c3713b9|a8ec348a] (04+11/22) Accurately ripped
04 [47a025ec|5955f101] (04+11/22) Accurately ripped
05 [6fe14e53|c917b8cb] (04+12/23) Accurately ripped
06 [97b1fb00|7c90f0a3] (04+12/23) Accurately ripped
07 [f51f2708|1f941607] (04+12/23) Accurately ripped
08 [bcadf91a|c6cbf206] (04+12/23) Accurately ripped
09 [f605184f|35aae4e3] (04+12/23) Accurately ripped
10 [c134b8b4|438013ea] (04+12/21) Accurately ripped
11 [968eb40a|fba5e3c8] (04+11/20) Accurately ripped
Offsetted by -730:
01 [16951375] (00/22) No match (V2 was not tested)
02 [21d467cf] (00/22) No match (V2 was not tested)
03 [ed2b96c1] (00/22) No match (V2 was not tested)
04 [620ccdc0] (00/22) No match (V2 was not tested)
05 [794a830d] (00/23) No match (V2 was not tested)
06 [9dfa0246] (00/23) No match (V2 was not tested)
07 [04f02d3c] (00/23) No match (V2 was not tested)
08 [db82d52a] (00/23) No match (V2 was not tested)
09 [1d40eb0b] (00/23) No match (V2 was not tested)
10 [7adc6443] (00/21) No match
11 [5a8dd64e] (00/20) No match
Offsetted by 12:
01 [0aa99343] (00/22) No match (V2 was not tested)
02 [972255cd] (00/22) No match (V2 was not tested)
03 [7d67de82] (00/22) No match (V2 was not tested)
04 [0563b263] (00/22) No match (V2 was not tested)
05 [b115eade] (00/23) No match (V2 was not tested)
06 [1463bb67] (00/23) No match (V2 was not tested)
07 [2d8c4883] (00/23) No match (V2 was not tested)
08 [4eae742f] (00/23) No match (V2 was not tested)
09 [c45549f9] (00/23) No match (V2 was not tested)
10 [97f99716] (00/21) No match (V2 was not tested)
11 [248ec069] (00/20) No match
Offsetted by 24:
01 [a1f09fa9] (00/22) No match (V2 was not tested)
02 [9fd0cedb] (00/22) No match (V2 was not tested)
03 [f1d9a844] (00/22) No match (V2 was not tested)
04 [c8370d1f] (00/22) No match (V2 was not tested)
05 [6df47a9a] (00/23) No match (V2 was not tested)
06 [984585ed] (00/23) No match (V2 was not tested)
07 [8ab7b015] (00/23) No match (V2 was not tested)
08 [c070d811] (00/23) No match (V2 was not tested)
09 [91fd680f] (00/23) No match (V2 was not tested)
10 [9a1e483a] (00/21) No match (V2 was not tested)
11 [54450a3e] (00/20) No match (V2 was not tested)

Track Peak [ CRC32 ] [W/O NULL] [ LOG ]
– 98,8 [774A5B11] [C636A36C] W/O NULL
01 75,0 [E0B36F3E] [8890211D]
02 98,8 [A60D87F1] [3231B356]
03 98,8 [75E59A6D] [70144B0A]
04 98,8 [74506DF4] [C121412E]
05 98,8 [8E8F1938] [887F9093]
06 98,8 [9B2CD333] [A1B70AC9]
07 87,0 [A389D8BB] [EBB00998]
08 98,8 [2D901282] [6A1F4301]
09 98,8 [5B1D37A1] [0DF73A25]
10 98,8 [CB40941A] [C491325D]
11 98,8 [35482BEA] [82B076BF]

Thanks to spiralarch, Coroner, BACKLASH

Welcome to My Blog!

Wolverine – 3 Studio Albums (2001-2011) Download, Warez, DDL, Free, Full Album, Torrent, Legal.

Download