Wolfgang Schneiderhan, Eugen Jochum – Beethoven: Violin Concerto; Mozart: Violin Concerto No.5 (1995)

Download
Wolfgang Schneiderhan, Eugen Jochum - Beethoven: Violin Concerto; Mozart: Violin Concerto No.5 (1995)

Wolfgang Schneiderhan, Eugen Jochum – Beethoven: Violin Concerto; Mozart: Violin Concerto No.5 (1995)
EAC | FLAC (log,tracks+cue) -> 393 Mb (5% Rec.) | Scans included
Classical | Label: Deutsche Grammophon, #:447 403-2 | 1995 | 01:14:36

On this reissue we are also offered a characteristically classical performance of Mozart’s A major Violin Concerto, in which the soloist directs the orchestral accompaniment. Schneiderhan launches into the first movement with great vitality and then sets the emotional world of the Adagio in an aura of calm tranquillity that makes the joyful contrasts of the finale, with its extrovert bravura, the more telling. The late-I 960s recording is fuller and rather more cleanly focused in the orchestra and the solo violin is vividly real, again with an admirable balance. But it is for the Beethoven Concerto that this record is indispensable and every collector who cares about this masterpiece should consider finding a place for Schneiderhan’s interpretation in their personal CD library. –Gramophone [9/1995]

Tracklist:

Beethoven: Concerto for Violin and Orchestra in D major, Op.61
01. I. Allegro ma non troppo 24:35
02. II. Larghetto 10:49
03. III. Rondo. Allegro 10:54

Date of Recording: 05/1962

Mozart: Concerto for Violin and Orchestra No.5 in A major, KV 219
04. IV. Allegro aperto 09:11
05. V. Adagio 10:20
06. VI. Rondeau. Tempo di Menuetto 08:40

Date of Recording: 02/1967

Performers:
Wolfgang Schneiderhan – Violin
Eugen Jochum – Conductor
Berliner Philharmoniker – Orchestra

Ludwig van Beethoven, Wolfgang Amadeus Mozart – Composers

EAC_log
Exact Audio Copy V0.99 prebeta 5 from 4. May 2009

EAC extraction logfile from 10. June 2011, 16:10

Wolfgang Schneiderhan, Berliner Philharmoniker, Eugen Jochum / Beethoven, Mozart: Violin Concertos

Used drive : _NEC DVD_RW ND-3570A Adapter: 3 ID: 1

Read mode : Secure
Utilize accurate stream : Yes
Defeat audio cache : Yes
Make use of C2 pointers : No

Read offset correction : 48
Overread into Lead-In and Lead-Out : No
Fill up missing offset samples with silence : Yes
Delete leading and trailing silent blocks : No
Null samples used in CRC calculations : Yes
Used interface : Installed external ASPI interface
Gap handling : Appended to previous track

Used output format : User Defined Encoder
Selected bitrate : 128 kBit/s
Quality : High
Add ID3 tag : No
Command line compressor : C:Program FilesExact Audio CopyFlacflac.exe
Additional command line options : -8 -V -T "ARTIST=%a" -T "TITLE=%t" -T "ALBUM=%g" -T "DATE=%y" -T "TRACKNUMBER=%n" -T "GENRE=%m" -T "COMMENT=EAC FLAC -8" %s

TOC of the extracted CD

Track | Start | Length | Start sector | End sector
––––––––––––––––––––––––––––-
1 | 0:00.33 | 24:35.00 | 33 | 110657
2 | 24:35.33 | 10:48.40 | 110658 | 159297
3 | 35:23.73 | 11:01.35 | 159298 | 208907
4 | 46:25.33 | 9:11.00 | 208908 | 250232
5 | 55:36.33 | 10:20.00 | 250233 | 296732
6 | 65:56.33 | 8:40.00 | 296733 | 335732

Track 1

Filename D:Мои документыExact Audio CopyBeethoven & Mozart1 – Beethoven- Concerto for Violin and Orchestra in D major, op. 61 , I. Allegro ma non troppo.wav

Pre-gap length 0:00:02.44

Peak level 96.6 %
Track quality 99.9 %
Test CRC 02E54FD1
Copy CRC 02E54FD1
Accurately ripped (confidence 14) [B449EC3B]
Copy OK

Track 2

Filename D:Мои документыExact Audio CopyBeethoven & Mozart2 – Beethoven- Concerto for Violin and Orchestra in D major, op. 61 , II. Larghetto.wav

Peak level 65.8 %
Track quality 99.9 %
Test CRC 7A40840D
Copy CRC 7A40840D
Accurately ripped (confidence 15) [CF4A774F]
Copy OK

Track 3

Filename D:Мои документыExact Audio CopyBeethoven & Mozart3 – Beethoven- Concerto for Violin and Orchestra in D major, op. 61 , III. Rondo. Allegro.wav

Peak level 97.0 %
Track quality 99.9 %
Test CRC D11CF959
Copy CRC D11CF959
Accurately ripped (confidence 15) [E1CD4A14]
Copy OK

Track 4

Filename D:Мои документыExact Audio CopyBeethoven & Mozart4 – Mozart- Concerto for Violin and Orchestra no. 5 in A major, K. 219 , I. Allegro aperto.wav

Pre-gap length 0:00:07.00

Peak level 78.9 %
Track quality 100.0 %
Test CRC 874B1224
Copy CRC 874B1224
Accurately ripped (confidence 14) [2CD9C9E9]
Copy OK

Track 5

Filename D:Мои документыExact Audio CopyBeethoven & Mozart5 – Mozart- Concerto for Violin and Orchestra no. 5 in A major, K. 219 , II. Adagio.wav

Peak level 58.1 %
Track quality 99.9 %
Test CRC 3D2AC92E
Copy CRC 3D2AC92E
Accurately ripped (confidence 13) [2B54139F]
Copy OK

Track 6

Filename D:Мои документыExact Audio CopyBeethoven & Mozart6 – Mozart- Concerto for Violin and Orchestra no. 5 in A major, K. 219 , III. Rondeau. Tempodi Menuetto.wav

Peak level 80.0 %
Track quality 99.9 %
Test CRC 5A42B10D
Copy CRC 5A42B10D
Accurately ripped (confidence 14) [5069C7D9]
Copy OK

All tracks accurately ripped

No errors occurred

End of status report

Dynamic_Range_log
foobar2000 1.3.6 / Dynamic Range Meter 1.1.1
log date: 2017-02-06 11:04:39

––––––––––––––––––––––––––––––––––––––––
Analyzed: Wolfgang Schneiderhan, Berliner Philharmoniker, Eugen Jochum / Beethoven, Mozart: Violin Concertos
––––––––––––––––––––––––––––––––––––––––

DR Peak RMS Duration Track
––––––––––––––––––––––––––––––––––––––––
DR14 -0.29 dB -21.42 dB 24:35 01-Beethoven: Concerto for Violin and Orchestra in D major, op. 61 / I. Allegro ma non troppo
DR16 -3.63 dB -26.58 dB 10:49 02-Beethoven: Concerto for Violin and Orchestra in D major, op. 61 / II. Larghetto
DR13 -0.26 dB -19.80 dB 11:01 03-Beethoven: Concerto for Violin and Orchestra in D major, op. 61 / III. Rondo. Allegro
DR13 -2.05 dB -21.21 dB 9:11 04-Mozart: Concerto for Violin and Orchestra no. 5 in A major, K. 219 / I. Allegro aperto
DR13 -4.72 dB -23.66 dB 10:20 05-Mozart: Concerto for Violin and Orchestra no. 5 in A major, K. 219 / II. Adagio
DR12 -1.94 dB -19.19 dB 8:40 06-Mozart: Concerto for Violin and Orchestra no. 5 in A major, K. 219 / III. Rondeau. Tempodi Menuetto
––––––––––––––––––––––––––––––––––––––––

Number of tracks: 6
Official DR value: DR13

Samplerate: 44100 Hz
Channels: 2
Bits per sample: 16
Bitrate: 676 kbps
Codec: FLAC
================================================================================

Thanks to the original releaser

Wolfgang Schneiderhan, Eugen Jochum – Beethoven: Violin Concerto; Mozart: Violin Concerto No.5 (1995) Download, Warez, DDL, Free, Full Album, Torrent, Legal.

Download