Wolf Parade – Cry Cry Cry (2017)

Download
Wolf Parade - Cry Cry Cry (2017)

Wolf Parade – Cry Cry Cry
XLD Rip | FLAC (tracks)+cue, log, front cover | 42:19 min | 340 MB
Label: Sub Pop Records – SP1212 | Tracks: 12 | Rls.date: 2017
Indie Rock, Alternative

The band’s first album produced by Pacific Northwest legend John Goodmanson (Bikini Kill, Sleater-Kinney, Unwound) at Robert Lang Studios outside of Seattle, Cry Cry Cry is undeniably Wolf Parade-but with the renewed focus and creativity of a band that took the time to get exactly where we needed to be. The album takes the best parts of what makes Wolf Parade so uniquely electric-the soaring choruses, rousing anthems, sprawling guitars, and chaotic keys-and finds a way to allow the best compositionally prog elements a firm seat at the table. It’s also a homecoming to Sub Pop, which released all three of the band’s previous albums. In their time apart, the band scattered geographically and focused on family and other work – Spencer on his solo project Moonface, Dan Boeckner on his bands Handsome Furs, Operators, and Divine Fits (with Spoon’s Britt Daniel), Dante De Caro on records with Carey Mercer’s Frog Eyes and Blackout Beach, and Arlen Thompson on being a dad and working a "normal" job. This break allowed for an even stronger, tighter Wolf Parade to emerge, if not exactly pick up where they left off. "All of our albums are always a reaction to our last one," says Arlen. "Expo 86 (2010) was about as sparse as we get, and this time we wanted to make the palette a little larger." Cry Cry Cry is deliberate in its arrangements and embrace of the studio process. The result is songs like "Valley Boy," a Bowie-inflected anthem for which Spencer wrote lyrics after Leonard Cohen died the day before the 2016 election. "You’re Dreaming," also influenced by the election and the spinning shock that followed, is driving, urgent power pop that draws from artists like Tom Petty and what Dan calls one of his "default languages" for writing music. The swirly, synth-heavy crescendo of "Artificial Life" takes on the struggle of artists and at-risk communities. The album carries a sense of uprising that is not unrelated to Wolf Parade’s renewed determination to drive the band forward in uncertain times.

TRACKLIST
1. Lazarus Online
2. You’re Dreaming
3. Valley Boy
4. Incantation
5. Files On The Sun
6. Baby Blue
7. Weaponized
8. Who Are Ya
9. Am I An Alien Here
10. Artificial Life
11. King Of Piss And Paper

XLD Log
X Lossless Decoder version 20151214 (149.1)

XLD extraction logfile from 2017-10-10 00:01:51 -0400

Wolf Parade / Cry Cry Cry

Used drive : MATSHITA DVD-R UJ-8A8 (revision HA13)
Media type : Pressed CD

Ripper mode : XLD Secure Ripper
Disable audio cache : OK for the drive with a cache less than 1375KiB
Make use of C2 pointers : NO
Read offset correction : 102
Max retry count : 100
Gap status : Analyzed, Appended (except HTOA)

TOC of the extracted CD
Track | Start | Length | Start sector | End sector
––––––––––––––––––––––––––––-
1 | 00:00:00 | 03:25:51 | 0 | 15425
2 | 03:25:51 | 03:39:09 | 15426 | 31859
3 | 07:04:60 | 03:38:71 | 31860 | 48280
4 | 10:43:56 | 04:22:60 | 48281 | 67990
5 | 15:06:41 | 03:42:62 | 67991 | 84702
6 | 18:49:28 | 06:00:33 | 84703 | 111735
7 | 24:49:61 | 06:39:50 | 111736 | 141710
8 | 31:29:36 | 03:43:60 | 141711 | 158495
9 | 35:13:21 | 03:36:23 | 158496 | 174718
10 | 38:49:44 | 03:48:12 | 174719 | 191830
11 | 42:37:56 | 04:47:39 | 191831 | 213394

AccurateRip Summary
Disc not found in AccurateRip DB.

All Tracks
Album gain : -10.46 dB
Peak : 0.996552
Statistics
Read error : 0
Jitter error (maybe fixed) : 0
Retry sector count : 0
Damaged sector count : 0

Track 01
Filename : /Users/baconfat/Desktop/XLD rips/Wolf Parade – Cry Cry Cry (2017) [FLAC]/01 Lazarus Online.flac
Pre-gap length : 00:02:00

Track gain : -9.96 dB
Peak : 0.996552
CRC32 hash (test run) : 9EAFD68A
CRC32 hash : 9EAFD68A
CRC32 hash (skip zero) : D6FAB8F5
AccurateRip v1 signature : 583241EB
AccurateRip v2 signature : 071111C4
->Track not present in AccurateRip database.
Statistics
Read error : 0
Jitter error (maybe fixed) : 0
Retry sector count : 0
Damaged sector count : 0

Track 02
Filename : /Users/baconfat/Desktop/XLD rips/Wolf Parade – Cry Cry Cry (2017) [FLAC]/02 You’re Dreaming.flac

Track gain : -10.31 dB
Peak : 0.996552
CRC32 hash (test run) : E90445C3
CRC32 hash : E90445C3
CRC32 hash (skip zero) : B9241FFE
AccurateRip v1 signature : 06686126
AccurateRip v2 signature : 1BD96757
->Track not present in AccurateRip database.
Statistics
Read error : 0
Jitter error (maybe fixed) : 0
Retry sector count : 0
Damaged sector count : 0

Track 03
Filename : /Users/baconfat/Desktop/XLD rips/Wolf Parade – Cry Cry Cry (2017) [FLAC]/03 Valley Boy.flac

Track gain : -10.83 dB
Peak : 0.996552
CRC32 hash (test run) : 251D9C38
CRC32 hash : 251D9C38
CRC32 hash (skip zero) : 752AE58C
AccurateRip v1 signature : B86AE8BF
AccurateRip v2 signature : 6418F791
->Track not present in AccurateRip database.
Statistics
Read error : 0
Jitter error (maybe fixed) : 0
Retry sector count : 0
Damaged sector count : 0

Track 04
Filename : /Users/baconfat/Desktop/XLD rips/Wolf Parade – Cry Cry Cry (2017) [FLAC]/04 Incantation.flac

Track gain : -9.87 dB
Peak : 0.996552
CRC32 hash (test run) : 045E0A26
CRC32 hash : 045E0A26
CRC32 hash (skip zero) : 00AD978A
AccurateRip v1 signature : F6BBF662
AccurateRip v2 signature : FD62CEBC
->Track not present in AccurateRip database.
Statistics
Read error : 0
Jitter error (maybe fixed) : 0
Retry sector count : 0
Damaged sector count : 0

Track 05
Filename : /Users/baconfat/Desktop/XLD rips/Wolf Parade – Cry Cry Cry (2017) [FLAC]/05 Flies on the Sun.flac

Track gain : -9.64 dB
Peak : 0.996552
CRC32 hash (test run) : 720EFA17
CRC32 hash : 720EFA17
CRC32 hash (skip zero) : 801586B1
AccurateRip v1 signature : E51A1EA2
AccurateRip v2 signature : 9C56B21F
->Track not present in AccurateRip database.
Statistics
Read error : 0
Jitter error (maybe fixed) : 0
Retry sector count : 0
Damaged sector count : 0

Track 06
Filename : /Users/baconfat/Desktop/XLD rips/Wolf Parade – Cry Cry Cry (2017) [FLAC]/06 Baby Blue.flac

Track gain : -10.49 dB
Peak : 0.996552
CRC32 hash (test run) : 3E5E11BF
CRC32 hash : 3E5E11BF
CRC32 hash (skip zero) : 48CEFDD3
AccurateRip v1 signature : 0A6E370C
AccurateRip v2 signature : 6C48A7EB
->Track not present in AccurateRip database.
Statistics
Read error : 0
Jitter error (maybe fixed) : 0
Retry sector count : 0
Damaged sector count : 0

Track 07
Filename : /Users/baconfat/Desktop/XLD rips/Wolf Parade – Cry Cry Cry (2017) [FLAC]/07 Weaponized.flac

Track gain : -10.32 dB
Peak : 0.996552
CRC32 hash (test run) : AEA0ADB2
CRC32 hash : AEA0ADB2
CRC32 hash (skip zero) : C8D8912B
AccurateRip v1 signature : D4DE5137
AccurateRip v2 signature : 06642945
->Track not present in AccurateRip database.
Statistics
Read error : 0
Jitter error (maybe fixed) : 0
Retry sector count : 0
Damaged sector count : 0

Track 08
Filename : /Users/baconfat/Desktop/XLD rips/Wolf Parade – Cry Cry Cry (2017) [FLAC]/08 Who Are Ya.flac

Track gain : -10.99 dB
Peak : 0.996552
CRC32 hash (test run) : 38CDF2D8
CRC32 hash : 38CDF2D8
CRC32 hash (skip zero) : F2AF613B
AccurateRip v1 signature : 236E18AF
AccurateRip v2 signature : 8CA715B1
->Track not present in AccurateRip database.
Statistics
Read error : 0
Jitter error (maybe fixed) : 0
Retry sector count : 0
Damaged sector count : 0

Track 09
Filename : /Users/baconfat/Desktop/XLD rips/Wolf Parade – Cry Cry Cry (2017) [FLAC]/09 Am I an Alien Here.flac

Track gain : -10.29 dB
Peak : 0.996552
CRC32 hash (test run) : 12E440A4
CRC32 hash : 12E440A4
CRC32 hash (skip zero) : E3321588
AccurateRip v1 signature : D9D88407
AccurateRip v2 signature : 987D9C47
->Track not present in AccurateRip database.
Statistics
Read error : 0
Jitter error (maybe fixed) : 0
Retry sector count : 0
Damaged sector count : 0

Track 10
Filename : /Users/baconfat/Desktop/XLD rips/Wolf Parade – Cry Cry Cry (2017) [FLAC]/10 Artificial Life.flac

Track gain : -10.19 dB
Peak : 0.996552
CRC32 hash (test run) : 7AA94AC2
CRC32 hash : 7AA94AC2
CRC32 hash (skip zero) : 5DAEB21A
AccurateRip v1 signature : 8C435DF5
AccurateRip v2 signature : E89D069E
->Track not present in AccurateRip database.
Statistics
Read error : 0
Jitter error (maybe fixed) : 0
Retry sector count : 0
Damaged sector count : 0

Track 11
Filename : /Users/baconfat/Desktop/XLD rips/Wolf Parade – Cry Cry Cry (2017) [FLAC]/11 King of Piss and Paper.flac

Track gain : -10.82 dB
Peak : 0.996552
CRC32 hash (test run) : 154B177A
CRC32 hash : 154B177A
CRC32 hash (skip zero) : 02F9D1F5
AccurateRip v1 signature : B363964F
AccurateRip v2 signature : 3DB18D75
->Track not present in AccurateRip database.
Statistics
Read error : 0
Jitter error (maybe fixed) : 0
Retry sector count : 0
Damaged sector count : 0

No errors occurred

End of status report

––-BEGIN XLD SIGNATURE––-
4g3bD93Ja5X.X.W2oEkrb_E3lKzyqbqn2uGh4H7o.ZS31GboGM0drxjz11eB7obc6CoI_IEtektqPSMyZ2x4F66LhI0jnkZThNHn2TK
––-END XLD SIGNATURE––-

Thanks to the Original customer.

Wolf Parade – Cry Cry Cry (2017) Download, Warez, DDL, Free, Full Album, Torrent, Legal.

Download