Within Temptation – Let Us Burn: Elements & Hydra Live in Concert (2014) [2CD + BD=>2xDVD9] | ViralVideoPk

Daily Dose of Free Downloads

Within Temptation – Let Us Burn: Elements & Hydra Live in Concert (2014) [2CD + BD=>2xDVD9]

Download

Within Temptation - Let Us Burn: Elements & Hydra Live in Concert (2014) [2CD + BD=>2xDVD9]

Within Temptation – Let Us Burn: Elements & Hydra Live in Concert (2014)
EAC | Flac(Image) + Cue + Log & MP3 CBR 320Kbps
2CD | SoyuzMusic, SZCD 6589-14 | ~ 11.43 or Mb | Scans(jpg) -> 373 Mb
2xDVD9: PAL 16:9 (720x576p) VBR | LPCM 2ch, 1536Kbps / AC3 6ch, 448 bps -> 12.67 Gb
Symphonic / Power Metal

Let Us Burn – Elements & Hydra Live in Concert (or simply Let Us Burn) is a live album, DVD and Blu-ray Disc from Dutch symphonic metal band Within Temptation. It was scheduled to be released in November, 2014 and is available on 2-disc DVD, 2-disc CD, 2-disc Blu-ray and digital album. The live album features two performances, being the first one the greatest part of the band’s 15th anniversary concert at the Sportpaleis, entitled Elements, and the second one the band’s performance at the Heineken Music Hall during the Hydra World Tour…

~ wiki

Within Temptation - Let Us Burn: Elements & Hydra Live in Concert (2014) [2CD + BD=>2xDVD9]

Within Temptation at Wiki | Within Temptation at Discogs | Within Temptation at Allmusic | Within Temptation HomePage

***********

Within Temptation – Let Us Burn: Elements & Hydra Live in Concert (2014):

Within Temptation - Let Us Burn: Elements & Hydra Live in Concert (2014) [2CD + BD=>2xDVD9]

Tracklist CD1 – ELEMENTS – Antwerp:

1.Iron
2.In the middle of the night
3.Faster
4.Fire and ice
5.Our solemn hour
6.Stand my ground
7.Angels
8.Sanctuary intro
9.The last dance
10.Say my name
11.Candles
12.Sinead
13.The promise
14.Mother earth
15.Ice queen
16.Stairway to the skies

Converted to Image (CUETools 2.1.4)

EAC Log
Exact Audio Copy V1.0 beta 3 from 29. August 2011

EAC extraction logfile from 13. December 2014, 16:45

Within Temptation / Let Us Burn: Elements (CD1)

Used drive : HL-DT-STDVDRAM GH22LS50 Adapter: 0 ID: 1

Read mode : Secure
Utilize accurate stream : Yes
Defeat audio cache : Yes
Make use of C2 pointers : No

Read offset correction : 667
Overread into Lead-In and Lead-Out : No
Fill up missing offset samples with silence : Yes
Delete leading and trailing silent blocks : No
Null samples used in CRC calculations : Yes
Used interface : Native Win32 interface for Win NT & 2000
Gap handling : Appended to previous track

Used output format : User Defined Encoder
Selected bitrate : 1024 kBit/s
Quality : High
Add ID3 tag : No
Command line compressor : C:Program Files (x86)Exact Audio CopyFlacflac.exe
Additional command line options : -8 -V -T "ARTIST=%artist%" -T "TITLE=%title%" -T "ALBUM=%albumtitle%" -T "DATE=%year%" -T "TRACKNUMBER=%tracknr%" -T "TOTALTRACKS=%numtracks%" -T "GENRE=%genre%" -T "ALBUMARTIST=%albumartist%" -T "ALBUM ARTIST=%albumartist%" -T "COMMENT=EAC Secure Mode, Test & Copy, AccurateRip, FLAC -8" %source%

TOC of the extracted CD

Track | Start | Length | Start sector | End sector
––––––––––––––––––––––––––––-
1 | 0:00.00 | 5:42.48 | 0 | 25697
2 | 5:42.48 | 5:11.69 | 25698 | 49091
3 | 10:54.42 | 4:21.73 | 49092 | 68739
4 | 15:16.40 | 3:54.06 | 68740 | 86295
5 | 19:10.46 | 5:14.70 | 86296 | 109915
6 | 24:25.41 | 4:27.70 | 109916 | 130010
7 | 28:53.36 | 4:09.56 | 130011 | 148741
8 | 33:03.17 | 2:00.17 | 148742 | 157758
9 | 35:03.34 | 4:31.41 | 157759 | 178124
10 | 39:35.00 | 4:05.64 | 178125 | 196563
11 | 43:40.64 | 7:03.01 | 196564 | 228289
12 | 50:43.65 | 4:21.73 | 228290 | 247937
13 | 55:05.63 | 8:10.55 | 247938 | 284742
14 | 63:16.43 | 5:33.24 | 284743 | 309741
15 | 68:49.67 | 4:54.33 | 309742 | 331824
16 | 73:44.25 | 6:12.37 | 331825 | 359761

Track 1

Filename N:AudioWithin Temptation – Let Us Burn – Elements & Hydra Live In Concert (2014) [FLAC]CD11 – Iron.wav

Pre-gap length 0:00:02.00

Peak level 100.0 %
Extraction speed 1.1 X
Track quality 99.9 %
Test CRC 1A5D590B
Copy CRC 1A5D590B
Track not present in AccurateRip database
Copy OK

Track 2

Filename N:AudioWithin Temptation – Let Us Burn – Elements & Hydra Live In Concert (2014) [FLAC]CD12 – In The Middle Of The Night.wav

Peak level 100.0 %
Extraction speed 1.4 X
Track quality 100.0 %
Test CRC 066B6695
Copy CRC 066B6695
Track not present in AccurateRip database
Copy OK

Track 3

Filename N:AudioWithin Temptation – Let Us Burn – Elements & Hydra Live In Concert (2014) [FLAC]CD13 – Faster.wav

Peak level 100.0 %
Extraction speed 1.4 X
Track quality 100.0 %
Test CRC 5DBD073C
Copy CRC 5DBD073C
Track not present in AccurateRip database
Copy OK

Track 4

Filename N:AudioWithin Temptation – Let Us Burn – Elements & Hydra Live In Concert (2014) [FLAC]CD14 – Fire And Ice.wav

Peak level 100.0 %
Extraction speed 1.5 X
Track quality 100.0 %
Test CRC 4CD1135B
Copy CRC 4CD1135B
Track not present in AccurateRip database
Copy OK

Track 5

Filename N:AudioWithin Temptation – Let Us Burn – Elements & Hydra Live In Concert (2014) [FLAC]CD15 – Our Solemn Hour.wav

Peak level 100.0 %
Extraction speed 1.7 X
Track quality 100.0 %
Test CRC 18753948
Copy CRC 18753948
Track not present in AccurateRip database
Copy OK

Track 6

Filename N:AudioWithin Temptation – Let Us Burn – Elements & Hydra Live In Concert (2014) [FLAC]CD16 – Stand My Ground.wav

Peak level 100.0 %
Extraction speed 1.5 X
Track quality 99.9 %
Test CRC 338E54A4
Copy CRC 338E54A4
Track not present in AccurateRip database
Copy OK

Track 7

Filename N:AudioWithin Temptation – Let Us Burn – Elements & Hydra Live In Concert (2014) [FLAC]CD17 – Angels.wav

Peak level 100.0 %
Extraction speed 1.8 X
Track quality 100.0 %
Test CRC C16D6CDF
Copy CRC C16D6CDF
Track not present in AccurateRip database
Copy OK

Track 8

Filename N:AudioWithin Temptation – Let Us Burn – Elements & Hydra Live In Concert (2014) [FLAC]CD18 – Sanctuary Intro.wav

Peak level 100.0 %
Extraction speed 1.6 X
Track quality 100.0 %
Test CRC B3437EA9
Copy CRC B3437EA9
Track not present in AccurateRip database
Copy OK

Track 9

Filename N:AudioWithin Temptation – Let Us Burn – Elements & Hydra Live In Concert (2014) [FLAC]CD19 – The Last Dance.wav

Peak level 100.0 %
Extraction speed 1.7 X
Track quality 99.9 %
Test CRC ED44B9E7
Copy CRC ED44B9E7
Track not present in AccurateRip database
Copy OK

Track 10

Filename N:AudioWithin Temptation – Let Us Burn – Elements & Hydra Live In Concert (2014) [FLAC]CD110 – Say My Name.wav

Peak level 100.0 %
Extraction speed 2.0 X
Track quality 100.0 %
Test CRC EDE025A7
Copy CRC EDE025A7
Track not present in AccurateRip database
Copy OK

Track 11

Filename N:AudioWithin Temptation – Let Us Burn – Elements & Hydra Live In Concert (2014) [FLAC]CD111 – Candles.wav

Peak level 100.0 %
Extraction speed 2.2 X
Track quality 100.0 %
Test CRC 61474EF0
Copy CRC 61474EF0
Track not present in AccurateRip database
Copy OK

Track 12

Filename N:AudioWithin Temptation – Let Us Burn – Elements & Hydra Live In Concert (2014) [FLAC]CD112 – Sinead.wav

Peak level 100.0 %
Extraction speed 2.2 X
Track quality 100.0 %
Test CRC 45E73F82
Copy CRC 45E73F82
Track not present in AccurateRip database
Copy OK

Track 13

Filename N:AudioWithin Temptation – Let Us Burn – Elements & Hydra Live In Concert (2014) [FLAC]CD113 – The Promise.wav

Peak level 100.0 %
Extraction speed 2.5 X
Track quality 100.0 %
Test CRC E9D3D540
Copy CRC E9D3D540
Track not present in AccurateRip database
Copy OK

Track 14

Filename N:AudioWithin Temptation – Let Us Burn – Elements & Hydra Live In Concert (2014) [FLAC]CD114 – Mother Earth.wav

Peak level 100.0 %
Extraction speed 2.2 X
Track quality 99.9 %
Test CRC F65C2E27
Copy CRC F65C2E27
Track not present in AccurateRip database
Copy OK

Track 15

Filename N:AudioWithin Temptation – Let Us Burn – Elements & Hydra Live In Concert (2014) [FLAC]CD115 – Ice Queen.wav

Peak level 100.0 %
Extraction speed 2.2 X
Track quality 99.9 %
Test CRC 9F95598A
Copy CRC 9F95598A
Track not present in AccurateRip database
Copy OK

Track 16

Filename N:AudioWithin Temptation – Let Us Burn – Elements & Hydra Live In Concert (2014) [FLAC]CD116 – Stairway To The Skies.wav

Peak level 100.0 %
Extraction speed 2.5 X
Track quality 99.9 %
Test CRC 92C30CDC
Copy CRC 92C30CDC
Track not present in AccurateRip database
Copy OK

None of the tracks are present in the AccurateRip database

No errors occurred

End of status report

==== Log checksum E5333F8F6AD2CD11D375D

Within Temptation - Let Us Burn: Elements & Hydra Live in Concert (2014) [2CD + BD=>2xDVD9]

Tracklist CD2 – HYDRA – Amsterdam:

1.Let us burn
2.Paradise (What about us?)
3.Faster
4.Iron
5.Edge of the world
6.In the middle of the night
7.Dangerous
8.And we run
9.Stand my ground
10.Covered by roses
11.Mother earth
12.What have you done
13.Silver moonlight
14.Whole world is watching
15.Sinead
16.Ice queen

Converted to Image (CUETools 2.1.4)

EAC Log
Exact Audio Copy V1.0 beta 3 from 29. August 2011

EAC extraction logfile from 13. December 2014, 18:46

Within Temptation / Let Us Burn: Hydra (CD2)

Used drive : HL-DT-STDVDRAM GH22LS50 Adapter: 0 ID: 1

Read mode : Secure
Utilize accurate stream : Yes
Defeat audio cache : Yes
Make use of C2 pointers : No

Read offset correction : 667
Overread into Lead-In and Lead-Out : No
Fill up missing offset samples with silence : Yes
Delete leading and trailing silent blocks : No
Null samples used in CRC calculations : Yes
Used interface : Native Win32 interface for Win NT & 2000
Gap handling : Appended to previous track

Used output format : User Defined Encoder
Selected bitrate : 1024 kBit/s
Quality : High
Add ID3 tag : No
Command line compressor : C:Program Files (x86)Exact Audio CopyFlacflac.exe
Additional command line options : -8 -V -T "ARTIST=%artist%" -T "TITLE=%title%" -T "ALBUM=%albumtitle%" -T "DATE=%year%" -T "TRACKNUMBER=%tracknr%" -T "TOTALTRACKS=%numtracks%" -T "GENRE=%genre%" -T "ALBUMARTIST=%albumartist%" -T "ALBUM ARTIST=%albumartist%" -T "COMMENT=EAC Secure Mode, Test & Copy, AccurateRip, FLAC -8" %source%

TOC of the extracted CD

Track | Start | Length | Start sector | End sector
––––––––––––––––––––––––––––-
1 | 0:00.00 | 5:24.55 | 0 | 24354
2 | 5:24.55 | 5:23.74 | 24355 | 48653
3 | 10:48.54 | 4:22.05 | 48654 | 68308
4 | 15:10.59 | 5:37.47 | 68309 | 93630
5 | 20:48.31 | 4:59.70 | 93631 | 116125
6 | 25:48.26 | 5:14.30 | 116126 | 139705
7 | 31:02.56 | 4:51.58 | 139706 | 161588
8 | 35:54.39 | 3:56.56 | 161589 | 179344
9 | 39:51.20 | 5:18.53 | 179345 | 203247
10 | 45:09.73 | 5:12.64 | 203248 | 226711
11 | 50:22.62 | 5:50.03 | 226712 | 252964
12 | 56:12.65 | 5:02.36 | 252965 | 275650
13 | 61:15.26 | 5:42.22 | 275651 | 301322
14 | 66:57.48 | 3:02.20 | 301323 | 314992
15 | 69:59.68 | 3:21.54 | 314993 | 330121
16 | 73:21.47 | 5:05.45 | 330122 | 353041

Track 1

Filename N:AudioWithin Temptation – Let Us Burn – Elements & Hydra Live In Concert (2014) [FLAC]CD21 – Let Us Burn.wav

Pre-gap length 0:00:02.00

Peak level 100.0 %
Extraction speed 1.2 X
Track quality 100.0 %
Test CRC 52558504
Copy CRC 52558504
Track not present in AccurateRip database
Copy OK

Track 2

Filename N:AudioWithin Temptation – Let Us Burn – Elements & Hydra Live In Concert (2014) [FLAC]CD22 – Paradise (What About Us).wav

Peak level 100.0 %
Extraction speed 1.3 X
Track quality 100.0 %
Test CRC 08499822
Copy CRC 08499822
Track not present in AccurateRip database
Copy OK

Track 3

Filename N:AudioWithin Temptation – Let Us Burn – Elements & Hydra Live In Concert (2014) [FLAC]CD23 – Faster.wav

Peak level 100.0 %
Extraction speed 1.5 X
Track quality 100.0 %
Test CRC 45B65D72
Copy CRC 45B65D72
Track not present in AccurateRip database
Copy OK

Track 4

Filename N:AudioWithin Temptation – Let Us Burn – Elements & Hydra Live In Concert (2014) [FLAC]CD24 – Iron.wav

Peak level 100.0 %
Extraction speed 1.4 X
Track quality 99.9 %
Test CRC ACFAC27A
Copy CRC ACFAC27A
Track not present in AccurateRip database
Copy OK

Track 5

Filename N:AudioWithin Temptation – Let Us Burn – Elements & Hydra Live In Concert (2014) [FLAC]CD25 – Edge Of The World.wav

Peak level 100.0 %
Extraction speed 1.7 X
Track quality 100.0 %
Test CRC 9F439103
Copy CRC 9F439103
Track not present in AccurateRip database
Copy OK

Track 6

Filename N:AudioWithin Temptation – Let Us Burn – Elements & Hydra Live In Concert (2014) [FLAC]CD26 – In The Middle Of The Night.wav

Peak level 100.0 %
Extraction speed 1.6 X
Track quality 99.9 %
Test CRC 365218CC
Copy CRC 365218CC
Track not present in AccurateRip database
Copy OK

Track 7

Filename N:AudioWithin Temptation – Let Us Burn – Elements & Hydra Live In Concert (2014) [FLAC]CD27 – Dangerous.wav

Peak level 100.0 %
Extraction speed 1.9 X
Track quality 100.0 %
Test CRC A76FB2B4
Copy CRC A76FB2B4
Track not present in AccurateRip database
Copy OK

Track 8

Filename N:AudioWithin Temptation – Let Us Burn – Elements & Hydra Live In Concert (2014) [FLAC]CD28 – And We Run.wav

Peak level 100.0 %
Extraction speed 1.9 X
Track quality 100.0 %
Test CRC 57D07893
Copy CRC 57D07893
Track not present in AccurateRip database
Copy OK

Track 9

Filename N:AudioWithin Temptation – Let Us Burn – Elements & Hydra Live In Concert (2014) [FLAC]CD29 – Stand My Ground.wav

Peak level 100.0 %
Extraction speed 1.9 X
Track quality 99.9 %
Test CRC F8A36B38
Copy CRC F8A36B38
Track not present in AccurateRip database
Copy OK

Track 10

Filename N:AudioWithin Temptation – Let Us Burn – Elements & Hydra Live In Concert (2014) [FLAC]CD210 – Covered By Roses.wav

Peak level 100.0 %
Extraction speed 2.2 X
Track quality 100.0 %
Test CRC B4CFA7B1
Copy CRC B4CFA7B1
Track not present in AccurateRip database
Copy OK

Track 11

Filename N:AudioWithin Temptation – Let Us Burn – Elements & Hydra Live In Concert (2014) [FLAC]CD211 – Mother Earth.wav

Peak level 100.0 %
Extraction speed 2.3 X
Track quality 100.0 %
Test CRC 16EBEE53
Copy CRC 16EBEE53
Track not present in AccurateRip database
Copy OK

Track 12

Filename N:AudioWithin Temptation – Let Us Burn – Elements & Hydra Live In Concert (2014) [FLAC]CD212 – What Have You Done.wav

Peak level 100.0 %
Extraction speed 2.3 X
Track quality 100.0 %
Test CRC 15E04D73
Copy CRC 15E04D73
Track not present in AccurateRip database
Copy OK

Track 13

Filename N:AudioWithin Temptation – Let Us Burn – Elements & Hydra Live In Concert (2014) [FLAC]CD213 – Silver Moonlight.wav

Peak level 100.0 %
Extraction speed 2.2 X
Track quality 99.9 %
Test CRC BC53A866
Copy CRC BC53A866
Track not present in AccurateRip database
Copy OK

Track 14

Filename N:AudioWithin Temptation – Let Us Burn – Elements & Hydra Live In Concert (2014) [FLAC]CD214 – Whole World Is Watching.wav

Peak level 100.0 %
Extraction speed 1.9 X
Track quality 99.9 %
Test CRC 31761F4B
Copy CRC 31761F4B
Track not present in AccurateRip database
Copy OK

Track 15

Filename N:AudioWithin Temptation – Let Us Burn – Elements & Hydra Live In Concert (2014) [FLAC]CD215 – Sinead.wav

Peak level 100.0 %
Extraction speed 2.3 X
Track quality 100.0 %
Test CRC 81024BDE
Copy CRC 81024BDE
Track not present in AccurateRip database
Copy OK

Track 16

Filename N:AudioWithin Temptation – Let Us Burn – Elements & Hydra Live In Concert (2014) [FLAC]CD216 – Ice Queen.wav

Peak level 100.0 %
Extraction speed 2.6 X
Track quality 100.0 %
Test CRC 7A39F061
Copy CRC 7A39F061
Track not present in AccurateRip database
Copy OK

None of the tracks are present in the AccurateRip database

No errors occurred

End of status report

==== Log checksum 368C783FFFF616AA4F7B80F5CFD833515D45163FFFD98827784046338B886644 ====

Tracklist DVD1 – ELEMENTS – Antwerp:

01. Intro
02. Iron
03. In The Middle Of The Night
04. Faster
05. Fire and Ice
06. Our Solemn Hour
07. Stand My Ground
08. Angels
09. Sanctuary Intro
10. The Last Dance
11. Say My Name
12. Candles
13. Sinéad
14. The Promise
15. Mother Earth
16. Ice Queen
17. Stairway To The Skies

DVDIngo
Title: Within Temptation 2014 – Let Us Burn DVD1
Size: 6.31 Gb ( 6 617 254,00 KBytes ) – DVD-9
Enabled regions: 1, 2, 3, 4, 5, 6, 7, 8

VTS_01 :
Play Length: 01:30:11
Video: PAL 16:9 (720×576) VBR, Auto Letterboxed
Audio:
English, LPCM, Delay = 0 mSec
English, AC3, 3/2 (L,C,R,SL,SR)+LFE ch, 448 kbps, Delay 0 mSec

Tracklist DVD2 – HYDRA – Amsterdam:

01. Intro
02. Let Us Burn
03. Paradise (What About Us?)
04. Faster
05. Iron
06. Edge Of The World
07. In The Middle Of The Night
08. Dangerous
09. And We Run
10. Stand My Ground
11. Covered By Roses
12. Mother Earth
13. What Have You Done
14. Silver Moonlight
15. Whole World Is Watching
16. Sinéad
17. Ice Queen

DVDIngo
Title: Within Temptation 2014 – Let Us Burn DVD2
Size: 5.70 Gb ( 5 972 180,00 KBytes ) – DVD-9
Enabled regions: 1, 2, 3, 4, 5, 6, 7, 8

VTS_01 :
Play Length: 01:21:22
Video: PAL 16:9 (720×576) VBR, Auto Letterboxed
Audio:
English (LinearPCM, 2 ch)
English (Dolby AC3, 6 ch)

Within Temptation - Let Us Burn: Elements & Hydra Live in Concert (2014) [2CD + BD=>2xDVD9]

Within Temptation - Let Us Burn: Elements & Hydra Live in Concert (2014) [2CD + BD=>2xDVD9]

Within Temptation - Let Us Burn: Elements & Hydra Live in Concert (2014) [2CD + BD=>2xDVD9]

Within Temptation - Let Us Burn: Elements & Hydra Live in Concert (2014) [2CD + BD=>2xDVD9]

Within Temptation - Let Us Burn: Elements & Hydra Live in Concert (2014) [2CD + BD=>2xDVD9]

Within Temptation - Let Us Burn: Elements & Hydra Live in Concert (2014) [2CD + BD=>2xDVD9]

All thanks go to nikolai11new & CHKA1961

Within Temptation in my Blog

Download Within Temptation – Let Us Burn: Elements & Hydra Live in Concert (2014):

Within Temptation – Let Us Burn: Elements & Hydra Live in Concert (2014) [2CD + BD=>2xDVD9] Download, Warez, DDL, Free, Full Album, Torrent, Legal.

Download


  • Recent Posts

  • Recent Tags