Wild Rose – Four (2016) {Limited Edition} | ViralVideoPk

Daily Dose of Free Downloads

Wild Rose – Four (2016) {Limited Edition}

Download

Wild Rose - Four (2016) {Limited Edition}

Wild Rose – Four (2016) {Limited Edition}
EAC Rip | FLAC (Img) + Cue + Log ~ 361 Mb | MP3 CBR320 ~ 119 Mb
Scans (JPG, 600 dpi) ~ 81 Mb | RAR 5% Recovery
Melodic Rock, AOR | Steel Gallery Records #SGR CD-049

Wild Rose has been rockin’ for over a decade. The original idea was sprung in 2004 by Andy Rock. A lot of soul-searching was required initially, as it was essential to find a suitable line up to harness the stylish and polished mellow sound of a quality A.O.R. band. Finally, after two years and several line up changes Wild Rose settled on the line up today, introduced to an unsuspecting public back in 2006, with quality songs composed by Andy Rock.

2007 Wild Rose released their first promo single CD entitled “It’s All About Love” which contained the hard hitting title track and “Too Late”, tracks that rapidly became accepted and loved by the A.O.R. audience. During the same period Wild Rose were picked up as support on Talisman’s Farewell Tour in Hellas.

Wild Rose returned in mid 2009 and recorded a 10 track demo CD with tracks written by Andy Rock and Dirty Haris.
These songs matured through the rehearsal process and ended up in professionally recorded versions on the band’s debut album “Half Past Midnight” which was finally released on 10 October 2011 on the “Retrospect Records” label and received great results in the A.O.R. specialized press. The band also performed two successful live shows in Athens and Thessaloniki to support “Half Past Midnight” and also participated in “Rosewood Festival” and received a great response and applause from the Hellenic audience.

December 2011 and “Half Past Midnight” hits the Best Debut Release / Newcomer of 2011 on Heavy Paradise.

January 2012 and Wild Rose took part at “Brave New Love: A Tribute To Alien” project covering Alien’s well known track “Feel My Love”.

March 2012 and Wild Rose performed at “Rosewood Festival II” along with bands like Newman, Work Of Art, Konkurent to name a few, taking rave reviews from the music press.

Later on 2012, the band has worked on new songs and recorded their second album “Dangerous” which was released on 22 February 2013 on the “AOR Heaven” label.
Wild Rose “Dangerous” receives rave reviews worldwide from the press and in June 2013 hits No.1 on import sales in Japan (BURRN Magazine).

August 2013 and Wild Rose debut album Half Past Midnight hits SOLD OUT of it’s press at “Retrospect Records” label.
“CEO Retrospect Records / Sam McCaslin: I’m very happy to announce that the Wild Rose ‘Half Past Midnight ‘ CD is Officially Sold Out. Congratulations guys for being one of the Top Sellers ever in Retrospect’s vast catalog. Great band , great music. Much respect to Andy Rock and crew for a job well done!”

March 2014 and Wild Rose sign with “AOR Blvd Records” and are celebrating their Ten Years Of Existence with the release of their third album “Hit ‘N’ Run” along with a tour to support it.

October 2014 first single “Through The Night” from the album “Hit ‘N’ Run” hits #1 on Classic Rock Chart Week #40 and weeks #43- #44- #45 / 2014 and stayed in the Top Ten until Week #8-2015! ! (Week #40 as first week appearence on the charts) of Melodic Net (Sweden).

February 2015 and Wild Rose’s second album “Dangerous” hits SOLD OUT of it’s press at “AOR Heaven Records” label.

March 2015 Wild Rose sign a deal with “Nevermore Production Films LLC” for the track “Too Late” taken from their debut album “Half Past Midnight” to take part as a soundtrack on the upcoming movie “The Barn”.

April 2015 George and John Bitzios reunite with the band and Wild Rose release the acoustic version of the track “I Want Your Love” as a single.
In the meanwhile Wild Rose start writing and recording new songs for their upcoming fourth album and also complete their “Hit ‘N’ Run Tour” in October with more than 5 successful shows in Hellas taking the applause of the crowds.

November 2015 and Wild Rose signed with Lions Pride Music for the worldwide release of their new album “4” in May 2016; with Avalon / Marquee Inc. for its Japanese release and also with Steel Gallery Records for an exclusive Hellenic Press release.

“Wild Rose – 4” has been recorded at EVO Studios, Evosmos, Hellas except drums recorded at Stone House Studio, Evosmos, Hellas between May 2015 and August 2015.
“4” was mixed by Pelle Saether at Studio Underground, Vasteras, Sweden and mastered by Dan Backman and Produced by Andy Rock and co-Produced by Wild Rose.
December 2015 and the new album was ready and three different front covers were taken care by C.S.M&P Designs for the triple release of it.

“Wild Rose – 4” was critically acclaimed by the press:

“Like a glorious page ripped from the book of ‘Consummate 80s American Melodic Rock’, Wild Rose’s fourth release is a monumental achievement that will have fans of Survivor and Night Ranger begging for more. Simply amazing! – Bruce Mee / Fireworks Magazine UK”

“A major step up for Wild Rose in every aspect. Much bigger production, terrific performances and above all else – some truly catchy old school AOR songs that will help these guys gain a lot of new fans. – Andrew McNeice / Melodicrock.com”

January 2016 and “Hit ‘N’ Run” hits Sold Out on AOR Boulevard Records.

And the Wild Rose story keeps on rocking’…
Awards

• Wild Rose third album “Hit ‘N’ Run” hits SOLD OUT at AOR Boulevard Records label (January 2016).

• Wild Rose second album “Dangerous” hits SOLD OUT at AOR Heaven Records label (February 2015).

• First single “Through The Night” from the album “Hit ‘N’ Run” hits #1 on Classic Rock Chart Week #40 and weeks #43 / #44 / #45 – 2014! (Week #40 as first week appearence on the charts of Melodic net)

• Wild Rose debut album “Half Past Midnight” hits SOLD OUT at Retrospect Records label (Top Sellers Ever in Retrospect Records vast catalog / August 2013).

• Wild Rose “Dangerous” hits No.1 on import sales in Japan (BURRN Magazine / June 2013).

• Best Debut Release / Newcomer of 2011 (Heavy Paradise).

Wild Rose - Four (2016) {Limited Edition}

Official Website | Discogs

***************

Wild Rose - Four (2016) {Limited Edition}

Track List:

01. Desperate Heart [4:54]
02. Love Can Change You [3:41]
03. Summer Girl [4:25]
04. Time After Time [4:01]
05. Love Games [4:29]
06. Hot Wired [3:39]
07. Save the Night [3:38]
08. Broken Hearted [4:04]
09. Waiting for You [4:29]
10. Don’t let me Down [3:15]
11. Sleepless Night (Bonus Track) [4:12]
12. When It Comes To You (Bonus Track) [4:33]

EAC Log
Exact Audio Copy V1.0 beta 3 from 29. August 2011

EAC extraction logfile from 28. December 2016, 21:26

Wild Rose / Four

Used drive : SlimtypeDVD A DS8A5SH Adapter: 0 ID: 0

Read mode : Secure
Utilize accurate stream : Yes
Defeat audio cache : Yes
Make use of C2 pointers : No

Read offset correction : 6
Overread into Lead-In and Lead-Out : No
Fill up missing offset samples with silence : Yes
Delete leading and trailing silent blocks : No
Null samples used in CRC calculations : Yes
Used interface : Installed external ASPI interface

Used output format : User Defined Encoder
Selected bitrate : 320 kBit/s
Quality : High
Add ID3 tag : No
Command line compressor : C:Program Files (x86)Exact Audio CopyFlacflac.exe
Additional command line options : -V -8 -T "Date=%year%" -T "Genre=%genre%" %source%

TOC of the extracted CD

Track | Start | Length | Start sector | End sector
––––––––––––––––––––––––––––-
1 | 0:00.00 | 4:54.10 | 0 | 22059
2 | 4:54.10 | 3:40.48 | 22060 | 38607
3 | 8:34.58 | 4:25.25 | 38608 | 58507
4 | 13:00.08 | 4:01.10 | 58508 | 76592
5 | 17:01.18 | 4:29.33 | 76593 | 96800
6 | 21:30.51 | 3:39.10 | 96801 | 113235
7 | 25:09.61 | 3:38.33 | 113236 | 129618
8 | 28:48.19 | 4:03.63 | 129619 | 147906
9 | 32:52.07 | 4:29.10 | 147907 | 168091
10 | 37:21.17 | 3:15.10 | 168092 | 182726
11 | 40:36.27 | 4:12.18 | 182727 | 201644
12 | 44:48.45 | 4:32.60 | 201645 | 222104

Range status and errors

Selected range

Filename D:My MusicWild Rose – 2016 Four (Hellenic Edition)Wild Rose – Four.wav

Peak level 100.0 %
Extraction speed 1.8 X
Range quality 100.0 %
Test CRC DAB2CAEC
Copy CRC DAB2CAEC
Copy OK

No errors occurred

AccurateRip summary

Track 1 accurately ripped (confidence 1) [3E8D690A] (AR v2)
Track 2 accurately ripped (confidence 1) [627FBDB0] (AR v2)
Track 3 accurately ripped (confidence 1) [113BB175] (AR v2)
Track 4 accurately ripped (confidence 1) [5DB37DA5] (AR v2)
Track 5 accurately ripped (confidence 1) [D9E4D18E] (AR v2)
Track 6 accurately ripped (confidence 1) [2482FE1A] (AR v2)
Track 7 accurately ripped (confidence 1) [4EC1D78B] (AR v2)
Track 8 accurately ripped (confidence 1) [F4D31B66] (AR v2)
Track 9 accurately ripped (confidence 1) [25E62D65] (AR v2)
Track 10 accurately ripped (confidence 1) [992C66E7] (AR v2)
Track 11 accurately ripped (confidence 1) [4BF40A50] (AR v2)
Track 12 accurately ripped (confidence 1) [36BA8FB9] (AR v2)

All tracks accurately ripped

End of status report

==== Log checksum 50F22547645F7B483C9AC201B0869618F7F5CB15241E161E33E2E658A4496C30 ====

DR Log
foobar2000 1.2.6 / Dynamic Range Meter 1.1.1
log date: 2016-12-29 12:22:18

––––––––––––––––––––––––––––––––––––––––
Analyzed: Wild Rose / Four
––––––––––––––––––––––––––––––––––––––––

DR Peak RMS Duration Track
––––––––––––––––––––––––––––––––––––––––
DR8 0.00 dB -9.17 dB 4:54 01-Desperate Heart
DR8 0.00 dB -8.86 dB 3:41 02-Love Can Change You
DR8 0.00 dB -9.06 dB 4:25 03-Summer Girl
DR8 0.00 dB -9.18 dB 4:01 04-Time After Time
DR8 0.00 dB -8.97 dB 4:29 05-Love Games
DR8 0.00 dB -9.09 dB 3:39 06-Hot Wired
DR8 0.00 dB -9.19 dB 3:38 07-Save the Night
DR8 0.00 dB -9.32 dB 4:04 08-Broken Hearted
DR8 0.00 dB -9.27 dB 4:29 09-Waiting for You
DR8 0.00 dB -9.35 dB 3:15 10-Don’t let me Down
DR8 0.00 dB -9.11 dB 4:12 11-Sleepless Night (Bonus Track)
DR8 0.00 dB -10.02 dB 4:33 12-When It Comes To You (Bonus Track)
––––––––––––––––––––––––––––––––––––––––

Number of tracks: 12
Official DR value: DR8

Samplerate: 44100 Hz
Channels: 2
Bits per sample: 16
Bitrate: 974 kbps
Codec: FLAC
================================================================================

CUETools Log
[CUETools log; Date: 29.12.2016 12:23:04; Version: 2.1.5]
[CTDB TOCID: VjPCedl_OCDCEqK6nYzWNyr7NRY-] disk not present in database.
[AccurateRip ID: 00163eed-00ce3ef9-990b910c] found.
Track [ CRC | V2 ] Status
01 [6b945e1b|3e8d690a] (0+1/1) Accurately ripped
02 [52b3fb73|627fbdb0] (0+1/1) Accurately ripped
03 [70852d5a|113bb175] (0+1/1) Accurately ripped
04 [42ef8400|5db37da5] (0+1/1) Accurately ripped
05 [7371ce67|d9e4d18e] (0+1/1) Accurately ripped
06 [4abdbb3b|2482fe1a] (0+1/1) Accurately ripped
07 [0caab8ae|4ec1d78b] (0+1/1) Accurately ripped
08 [04d5e39c|f4d31b66] (0+1/1) Accurately ripped
09 [30d3599c|25e62d65] (0+1/1) Accurately ripped
10 [03cfe850|992c66e7] (0+1/1) Accurately ripped
11 [085c076a|4bf40a50] (0+1/1) Accurately ripped
12 [58110fef|36ba8fb9] (0+1/1) Accurately ripped

Track Peak [ CRC32 ] [W/O NULL] [ LOG ]
– 100,0 [DAB2CAEC] [368EB3EA] CRC32
01 100,0 [94F3967B] [C8180985]
02 100,0 [4B03B11F] [B7C80888]
03 100,0 [91E87092] [2AE286D2]
04 100,0 [CE6B6C17] [80F35626]
05 100,0 [A5DB3C66] [9B8131B0]
06 100,0 [B71F9D44] [7F5EF5F1]
07 100,0 [76FE0337] [4FF4CCF4]
08 100,0 [154B00DF] [A20936D1]
09 100,0 [0E6DD741] [899664BF]
10 100,0 [31508499] [0B5B2EF7]
11 100,0 [60F817C3] [96A36813]
12 100,0 [958706B9] [D22A3FBA]

Wild Rose - Four (2016) {Limited Edition}

Wild Rose - Four (2016) {Limited Edition}

See also:
Wild Rose – 4 (2016) {Japanese Edition}

All thanks go to kolushew

> Visit my blog <

Download:

Wild Rose – Four (2016) {Limited Edition} Download, Warez, DDL, Free, Full Album, Torrent, Legal.

Download


  • Recent Posts

  • Recent Tags