Wicked Minds – Visioni, Deliri E Illusioni (2011)

Download
Wicked Minds - Visioni, Deliri E Illusioni (2011)

Wicked Minds – Visioni, Deliri E Illusioni (2011)
EAC Rip | FLAC (image+.cue+log) – 555 MB | MP3 CBR 320 kbps (LAME 3.93) – 186 MB | Covers – 250 MB
Genre: Progressive Rock | RAR 3% Rec. | Label: Black Widow (BWRCD 136-2)

Wicked Minds are an Italian outfit that started in 1987 as a thrash metal band with guitarist Lucio Calegari, drummer Andrea Concarotti and bass player Enrico Garilli. After some years of searching for the right sound Wicked Minds became a kind of heavy retro rock band trying to recreate the glory days of guitar rock from the seventies. It’s obvious that their heroes are Deep Purple, Uriah Heep, Black Sabbath, and Led Zeppelin. You can regard Wicked Minds’ latest album "Visioni, Deliri E Illusioni" as a tribute to the Italian progressive rock scene of the seventies. Together they recorded twelve songs that originally were released by Italian bands in the golden age of progressive rock. In the seventies instruments like the Hammond organ, the Mellotron and the Moog-synthesizer were mainly responsible for the sound of most progressive rock bands. For that reason it was a delight to hear most of these instruments on this collection of songs. The sound of the seventies is insistently present throughout the album. Sometimes you really get the idea that you’re listening to an album recorded in that era.

Progarchives

Tracklist:
01. Caronte I (Trip)
02. L’Uomo (Osanna – feat. Lino Vairetti)
03. Un Posto (Balletto di Bronzo)
04. Dio del Silenzio (Delirium – feat. Martin Grice)
05. La Prima Goccia Bagna il Viso (New Trolls – feat. Sophya Baccini)
06. Figure di Cartone (Le Orme – feat. Aldo Tagliapietra)
07. Un’Isola /Un Illusione da Poco/ Clessidra (Nuova Idea)
08. Dentro Me (Dietro Noi Deserto – feat. Antonio Bartoccetti)
09. Io, La Strega (Circus 2000 – feat. Sophya Baccini)
10. Zarathustra (Museo Rosenbach – feat. Stefano "Lupo" Galifi)
11. Un Villaggio, un’Illusione (Quella Vecchia Locanda)
12. Farfalla senza Pois (Gleemen)
13. La Carrozza Di Hans/Impressioni Di Settembre (PFM)

Total time: 01:19:01

EAC log
Exact Audio Copy V1.0 beta 3 from 29. August 2011

Отчёт EAC об извлечении, выполненном 16. декабря 2011, 10:16

Wicked Minds / Visioni, Deliri E Illusioni

Дисковод: HL-DT-STDVDRAM GP08NU20 Adapter: 2 ID: 0

Режим чтения : Достоверность
Использование точного потока : Да
Отключение кэша аудио : Да
Использование указателей C2 : Нет

Коррекция смещения при чтении : 102
Способность читать области Lead-in и Lead-out : Нет
Заполнение пропущенных сэмплов тишиной : Да
Удаление блоков с тишиной в начале и конце : Нет
При вычислениях CRC использовались нулевые сэмплы : Да
Интерфейс : Встроенный Win32-интерфейс для Win NT/2000

Выходной формат : Внутренние WAV-операции
Формат сэмплов : 44.100 Гц; 16 бит; стерео

TOC извлечённого CD

Трек | Старт | Длительность | Начальный сектор | Конечный сектор
––––––––––––––––––––––––––––––––––-
1 | 0:00.00 | 5:52.44 | 0 | 26443
2 | 5:52.44 | 5:55.70 | 26444 | 53138
3 | 11:48.39 | 4:40.02 | 53139 | 74140
4 | 16:28.41 | 3:40.18 | 74141 | 90658
5 | 20:08.59 | 9:27.08 | 90659 | 133191
6 | 29:35.67 | 3:49.31 | 133192 | 150397
7 | 33:25.23 | 8:23.27 | 150398 | 188149
8 | 41:48.50 | 5:57.31 | 188150 | 214955
9 | 47:46.06 | 3:52.19 | 214956 | 232374
10 | 51:38.25 | 8:19.13 | 232375 | 269812
11 | 59:57.38 | 6:11.70 | 269813 | 297707
12 | 66:09.33 | 4:36.22 | 297708 | 318429
13 | 70:45.55 | 8:15.04 | 318430 | 355558

Характеристики диапазона извлечения и сообщения об ошибках

Выбранный диапазон

Имя файла C:UsersМаксMusic02 – Seeds201112 – DecemberWicked Minds – Visioni, Deliri E Illusioni.wav

Пиковый уровень 98.3 %
Скорость извлечения 2.2 X
Качество диапазона 99.9 %
CRC копии DD01E745
Копирование… OK

Ошибок не произошло

AccurateRip: сводка

Трек 1 : извлечено точно (доверие 1) [3E949E00] (AR v2)
Трек 2 : извлечено точно (доверие 1) [B6227ED6] (AR v2)
Трек 3 : извлечено точно (доверие 1) [F7E2C445] (AR v2)
Трек 4 : извлечено точно (доверие 1) [81FBF91A] (AR v2)
Трек 5 : извлечено точно (доверие 1) [0DAB3DCD] (AR v2)
Трек 6 : извлечено точно (доверие 1) [4D7B2132] (AR v2)
Трек 7 : извлечено точно (доверие 1) [D6E41123] (AR v2)
Трек 8 : извлечено точно (доверие 1) [AD01E7A6] (AR v2)
Трек 9 : извлечено точно (доверие 1) [E0C9FADB] (AR v2)
Трек 10 : извлечено точно (доверие 1) [58F7EF7E] (AR v2)
Трек 11 : извлечено точно (доверие 1) [90229AF0] (AR v2)
Трек 12 : извлечено точно (доверие 1) [62E10A21] (AR v2)
Трек 13 : извлечено точно (доверие 1) [3643280F] (AR v2)

Все треки извлечены точно

Конец отчёта

CUETools log
[CUETools log; Date: 08.10.2017 14:35:03; Version: 2.1.4]
[CTDB TOCID: CyQmnNArRNF220U6B.JleVziQao-] found.
Track | CTDB Status
1 | (2/2) Accurately ripped
2 | (2/2) Accurately ripped
3 | (2/2) Accurately ripped
4 | (2/2) Accurately ripped
5 | (2/2) Accurately ripped
6 | (2/2) Accurately ripped
7 | (2/2) Accurately ripped
8 | (2/2) Accurately ripped
9 | (2/2) Accurately ripped
10 | (2/2) Accurately ripped
11 | (2/2) Accurately ripped
12 | (2/2) Accurately ripped
13 | (2/2) Accurately ripped
[AccurateRip ID: 0024b264-0171cdf8-ae12840d] found.
Track [ CRC | V2 ] Status
01 [f5a351df|3e949e00] (0+4/4) Accurately ripped
02 [c3f17218|b6227ed6] (0+4/4) Accurately ripped
03 [79a32f10|f7e2c445] (0+4/4) Accurately ripped
04 [8395899a|81fbf91a] (0+4/4) Accurately ripped
05 [8a141d7a|0dab3dcd] (0+4/4) Accurately ripped
06 [084fdb6f|4d7b2132] (0+4/4) Accurately ripped
07 [0590eb3a|d6e41123] (0+4/4) Accurately ripped
08 [96026cb9|ad01e7a6] (0+5/5) Accurately ripped
09 [287a4660|e0c9fadb] (0+4/4) Accurately ripped
10 [373f9126|58f7ef7e] (0+4/4) Accurately ripped
11 [76023f5c|90229af0] (0+4/4) Accurately ripped
12 [2645f530|62e10a21] (0+4/4) Accurately ripped
13 [57c9b505|3643280f] (0+3/3) Accurately ripped

Track Peak [ CRC32 ] [W/O NULL] [ LOG ]
– 98,3 [DD01E745] [BF9E0583] CRC32
01 98,3 [D8E6ADA0] [8E3238F3]
02 98,3 [A0953634] [CABEAC7F]
03 98,3 [CD3F720D] [1D761E0F]
04 98,3 [D821D510] [5494B92D]
05 98,3 [B53699C1] [EBB46F35]
06 98,3 [F54E42B6] [8570FC75]
07 98,3 [F867887B] [4BFEAACE]
08 98,3 [95F9758D] [2AC075F8]
09 98,3 [804EE7F4] [D201E9FE]
10 98,3 [D5C958E2] [6475F22D]
11 98,3 [8E908FEF] [623E4B11]
12 98,3 [C4605105] [F242779B]
13 98,3 [3CF49BF2] [EB746C14]

Thanks to miklespr

Welcome to My Blog!

Wicked Minds – Visioni, Deliri E Illusioni (2011) Download, Warez, DDL, Free, Full Album, Torrent, Legal.

Download