Waylon Jennings – Are You Ready For The Country (1976) Reissue 2004

Download
Waylon Jennings - Are You Ready For The Country (1976) Reissue 2004

Waylon Jennings – Are You Ready For The Country (1976) Reissue 2004
EAC | FLAC | Image (Cue&Log) ~ 204 Mb | Mp3 (CBR320) ~ 84 Mb | Scans ~ 160 Mb | 00:36:51
Outlaw Country, Country Folk | Label: RCA Nashville, BMG Heritage | # 82876 59264 2

If the heavy-hitters of outlaw country were acting like rock stars during their mid-’70s peak, then perhaps it was inevitable that the outlaws would start singing rock songs – which is precisely what Waylon Jennings did on 1976’s Are You Ready for the Country. Although the title is taken from Neil Young’s song – which provides an absolutely storming opener for this ten-song record – there is a bit of a jibe to its sentiment as well, since Waylon not only sings Young, but also the Marshall Tucker Band and Dr. Hook, along with reviving Jimmy Webb’s "MacArthur Park." That selection of material indicates not just the increasing rock-isms of Waylon and the outlaws, it also indicates that Jennings’ focus was beginning to blur slightly as he lost the sense of purpose that propelled his records of the first half the ’70s, from The Taker/Tulsa to Dreaming My Dreams. Here, the music hasn’t really changed, but the flow is no longer seamless and the shifting tones can be a little jarring. Also, Jennings’ songwriting starts to slip a little bit here; none of his originals are bad, and "I’ll Go Back to Her" is quite good, but they’re all decidedly second tier. All things considered, though, most of the individual moments hold up quite well, with "Are You Ready for the Country" and a wonderful, surging take on Marshall Tucker’s "Can’t You See" ranking among Waylon’s best music of the era. There are other very good moments, such as the cracking "Jack a Diamonds," and the entire record is entertaining, but more for a collection of moments than a cohesive whole. That’s the first time since the late ’60s that one of Jennings’ albums felt like less than the sum of its parts, and if it didn’t necessarily mark the end of the era, it did mark the point when he started to ease back from his startling peak of creativity.

Review by Stephen Thomas Erlewine, Allmusic.com

Waylon Jennings at Allmusic
Waylon Jennings at Wiki

Tracklist:

01. Are You Ready For The Country (3:13)
02. Them Old Love Songs (3:13)
03. So Good Woman (2:03)
04. Jack-A-Diamonds (3:27)
05. Can’t You See (3:46)
06. MacArthur Park (Revisited) (6:39)
07. I’ll Go Back To Her (3:11)
08. A Couple More Years (4:12)
09. Old Friend (3:23)
10. Precious Memories (3:43)

EAC log
Exact Audio Copy V1.0 beta 6 from 9. April 2015

EAC extraction logfile from 29. September 2017, 2:38

Waylon Jennings / Are You Ready For The Country

Used drive : PLEXTOR DVDR PX-891SA Adapter: 0 ID: 2

Read mode : Secure
Utilize accurate stream : Yes
Defeat audio cache : Yes
Make use of C2 pointers : No

Read offset correction : 6
Overread into Lead-In and Lead-Out : No
Fill up missing offset samples with silence : Yes
Delete leading and trailing silent blocks : No
Null samples used in CRC calculations : Yes
Used interface : Installed external ASPI interface

Used output format : User Defined Encoder
Selected bitrate : 320 kBit/s
Quality : High
Add ID3 tag : No
Command line compressor : C:Program FilesExact Audio Copy 1.b6Exact Audio CopyFlacflac.exe
Additional command line options : -V -8 -T "Genre=%genre%" -T "Artist=%artist%" -T "Title=%title%" -T "Album=%albumtitle%" -T "Date=%year%" -T "Tracknumber=%tracknr%" -T "Comment=%comment%" %source%

TOC of the extracted CD

Track | Start | Length | Start sector | End sector
––––––––––––––––––––––––––––-
1 | 0:00.00 | 3:12.70 | 0 | 14469
2 | 3:12.70 | 3:13.22 | 14470 | 28966
3 | 6:26.17 | 2:03.33 | 28967 | 38224
4 | 8:29.50 | 3:27.02 | 38225 | 53751
5 | 11:56.52 | 3:46.20 | 53752 | 70721
6 | 15:42.72 | 6:39.15 | 70722 | 100661
7 | 22:22.12 | 3:10.70 | 100662 | 114981
8 | 25:33.07 | 4:11.70 | 114982 | 133876
9 | 29:45.02 | 3:23.08 | 133877 | 149109
10 | 33:08.10 | 3:42.52 | 149110 | 165811

Range status and errors

Selected range

Filename L:AudioSWFWaylon Jennings1976. Waylon Jennings – Are You Ready For The Country (2004 BMG Music, 82876 59264 2, USA)Waylon Jennings – Are You Ready For The Country.wav

Peak level 99.8 %
Extraction speed 2.7 X
Range quality 99.9 %
Test CRC E604694E
Copy CRC E604694E
Copy OK

No errors occurred

AccurateRip summary

Track 1 accurately ripped (confidence 2) [44F4C5C2] (AR v2)
Track 2 accurately ripped (confidence 2) [AE879737] (AR v2)
Track 3 accurately ripped (confidence 2) [014DC54E] (AR v2)
Track 4 accurately ripped (confidence 2) [F388ADB8] (AR v2)
Track 5 accurately ripped (confidence 2) [8677F2F4] (AR v2)
Track 6 accurately ripped (confidence 2) [068C47C9] (AR v2)
Track 7 accurately ripped (confidence 2) [C03D47BD] (AR v2)
Track 8 accurately ripped (confidence 2) [80A06461] (AR v2)
Track 9 accurately ripped (confidence 2) [F9FAB6E3] (AR v2)
Track 10 accurately ripped (confidence 2) [FCC8CDAC] (AR v2)

All tracks accurately ripped

End of status report

–– CUETools DB Plugin V2.1.6

[CTDB TOCID: UJ1s1j.smNfWxuN6k5.a_kf2SuA-] found
Submit result: UJ1s1j.smNfWxuN6k5.a_kf2SuA- has been confirmed
Track | CTDB Status
1 | (10/10) Accurately ripped
2 | (10/10) Accurately ripped
3 | (10/10) Accurately ripped
4 | (10/10) Accurately ripped
5 | (10/10) Accurately ripped
6 | (10/10) Accurately ripped
7 | (10/10) Accurately ripped
8 | (10/10) Accurately ripped
9 | (10/10) Accurately ripped
10 | (10/10) Accurately ripped

==== Log checksum B569C51EC16A55F0E82783F3264961DE3060BF91E292C4E08BD950866B23409B ====

AR log
[CUETools log; Date: 10.10.2017 0:45:44; Version: 2.1.4]
[CTDB TOCID: UJ1s1j.smNfWxuN6k5.a_kf2SuA-] found.
Track | CTDB Status
1 | (11/11) Accurately ripped
2 | (11/11) Accurately ripped
3 | (11/11) Accurately ripped
4 | (11/11) Accurately ripped
5 | (11/11) Accurately ripped
6 | (11/11) Accurately ripped
7 | (11/11) Accurately ripped
8 | (11/11) Accurately ripped
9 | (11/11) Accurately ripped
10 | (11/11) Accurately ripped
[AccurateRip ID: 000d48b3-006c6ec9-8f08a20a] found.
Track [ CRC | V2 ] Status
01 [4818397c|44f4c5c2] (00+02/13) Accurately ripped
02 [79ab9773|ae879737] (00+02/13) Accurately ripped
03 [5cf14dc9|014dc54e] (00+02/13) Accurately ripped
04 [a2458ad5|f388adb8] (00+02/13) Accurately ripped
05 [74e753af|8677f2f4] (00+02/13) Accurately ripped
06 [f14df77c|068c47c9] (00+02/13) Accurately ripped
07 [1c68703b|c03d47bd] (00+02/13) Accurately ripped
08 [cc23e503|80a06461] (00+02/13) Accurately ripped
09 [2a989c2c|f9fab6e3] (00+02/13) Accurately ripped
10 [aeb812a5|fcc8cdac] (00+02/13) Accurately ripped
Offsetted by -596:
01 [c97491f0] (00/13) No match (V2 was not tested)
02 [9be3a923] (00/13) No match (V2 was not tested)
03 [c01fdead] (00/13) No match (V2 was not tested)
04 [7f201ca1] (00/13) No match (V2 was not tested)
05 [b7b52317] (00/13) No match (V2 was not tested)
06 [92636e78] (00/13) No match (V2 was not tested)
07 [7092b1ff] (00/13) No match (V2 was not tested)
08 [41619be7] (00/13) No match (V2 was not tested)
09 [f7fef098] (00/13) No match (V2 was not tested)
10 [73f51591] (00/13) No match (V2 was not tested)
Offsetted by -578:
01 [4140d08e] (00/13) No match (V2 was not tested)
02 [719ef5eb] (00/13) No match (V2 was not tested)
03 [33aded33] (00/13) No match (V2 was not tested)
04 [efdd6063] (00/13) No match (V2 was not tested)
05 [19574c13] (00/13) No match (V2 was not tested)
06 [59fad642] (00/13) No match (V2 was not tested)
07 [2b064055] (00/13) No match (V2 was not tested)
08 [f5adeb6d] (00/13) No match (V2 was not tested)
09 [10b7fbca] (00/13) No match (V2 was not tested)
10 [a5d6e483] (00/13) No match (V2 was not tested)

Track Peak [ CRC32 ] [W/O NULL] [ LOG ]
– 99,8 [E604694E] [DB74BCAB] CRC32
01 99,8 [A746AFDD] [2B9BF6C0]
02 99,8 [8617CE74] [958D1FC8]
03 99,8 [5A3E94DD] [52C6F095]
04 99,8 [B81A5E60] [BA942DD1]
05 99,8 [D411FDD0] [9D01B857]
06 99,8 [60D033DF] [E25DEDF3]
07 93,3 [61151A5F] [7AAF75EE]
08 99,8 [21022819] [304A17F4]
09 99,2 [AF30B5E0] [1A73817D]
10 95,4 [EFF45480] [2F335543]

DR log
foobar2000 1.2 / Dynamic Range Meter 1.1.1
log date: 2017-10-10 00:38:55

––––––––––––––––––––––––––––––––––––––––
Analyzed: Waylon Jennings / Are You Ready For The Country
––––––––––––––––––––––––––––––––––––––––

DR Peak RMS Duration Track
––––––––––––––––––––––––––––––––––––––––
DR14 -0.01 dB -16.12 dB 3:13 01-Are You Ready For The Country
DR17 -0.01 dB -19.96 dB 3:13 02-Them Old Love Songs
DR16 -0.01 dB -19.91 dB 2:03 03-So Good Woman
DR16 -0.01 dB -17.95 dB 3:27 04-Jack-A-Diamonds
DR14 -0.01 dB -16.40 dB 3:46 05-Can’t You See
DR15 -0.01 dB -18.64 dB 6:39 06-MacArthur Park (Revisited)
DR16 -0.60 dB -19.52 dB 3:11 07-I’ll Go Back To Her
DR15 -0.01 dB -18.05 dB 4:12 08-A Couple More Years
DR16 -0.06 dB -17.28 dB 3:23 09-Old Friend
DR14 -0.41 dB -17.64 dB 3:43 10-Precious Memories
––––––––––––––––––––––––––––––––––––––––

Number of tracks: 10
Official DR value: DR15

Samplerate: 44100 Hz
Channels: 2
Bits per sample: 16
Bitrate: 775 kbps
Codec: FLAC
================================================================================

Waylon Jennings - Are You Ready For The Country (1976) Reissue 2004

Waylon Jennings - Are You Ready For The Country (1976) Reissue 2004

All thanks to original releaser – Swamp Fox

More interesting music in My Blog

Waylon Jennings – Are You Ready For The Country (1976) Reissue 2004 Download, Warez, DDL, Free, Full Album, Torrent, Legal.

Download