WaveLab 9 101- Absolute Beginners Guide (2016) | ViralVideoPk

Daily Dose of Free Downloads

WaveLab 9 101- Absolute Beginners Guide (2016)

Download

WaveLab 9 101- Absolute Beginners Guide (2016)

WaveLab 9 101- Absolute Beginners Guide (2016)
WEBRip | English | MP4 | 1280 x 720 | AVC ~164 kbps | 30 fps
AAC | 96 Kbps | 44.1 KHz | 2 channels | 02:06:18 | 281 MB
Genre: Video Tutorial / Sound Processing, Music Production, Sound Engineering

WaveLab 9 is an all-in-one, audio editing, processing, analyzing and mastering app. It has many sophisticated tools, and you really need to know your way around it to get the most out of it. That’s why we brought in WaveLab expert Matt Hepworth to create this Absolute Beginner’s Guide. Matt explains and explores the "where, why and how" of this multidimensional Steinberg program in this 30-tutorial course.

Matt starts off by explaining the GUI, the workspace, the various editing modes and the basics of WaveLab’s file organization. Once that all important housekeeping is out of the way, he plunges into WaveLab’s advanced Audio Editor. Next up is the Montage -this is where multiple audio files come together for processing and editing as you prepare to master. To complete this course there’s a final section on batch processing and a essential introduction to WaveLab’s Master Section.

By completing this course you get the knowledge you need to start editing, analyzing, processing and mastering your tracks in Steinberg’s WaveLab 9!

Content:

1Introduction (00:44)PREVIEW
2Assigning your Audio Interface (05:27)
3Light, Dark & Black Themes (01:36)
4Workspace Overview (06:20)
5The Three Editing Modes (03:49)PREVIEW
6The Ribbon (03:03)
7Projects & File Groups (05:55)
8The Power of Projects (03:34)
9Loading & Saving Files (05:06)
10Audio Editor Overview (05:29)
11Zooming functions (03:41)
12Making Selections (04:31)
13Edit Menu (06:51)
14Process Menu (04:02)
15Time Stretching (04:32)
16Analyze Menu (04:54)
17Using Markers (05:11)
18Rendering an Audio File (04:25)
19Adding Tracks (03:25)
20Clip Editing (04:43)
21Using Fades (05:39)
22Editing the Source (02:47)
23Rendering a Montage (03:08)
24Creating a Batch Processor (02:16)
25Adding Audio Files (01:38)
26Applying Processing (03:12)
27Running the Batch (06:34)
28Master Section Overview (01:47)PREVIEW
29Adding Plug-ins (07:40)
30Rendering (04:05)

also You can look my other last: Sound Processing-posts

MediaInfo:
General
Complete name : Ask Video – WaveLab 9 101_ Absolute Beginners Guide17. Using Markers.mp4
Format : MPEG-4
Format profile : Base Media / Version 2
Codec ID : mp42
File size : 9.92 MiB
Duration : 5mn 11s
Overall bit rate : 267 Kbps
Encoded date : UTC 2016-11-18 17:16:14
Tagged date : UTC 2016-11-19 01:16:15
Writing application : Sorenson Squeeze
Comment : Encoded by

Video
ID : 2
Format : AVC
Format/Info : Advanced Video Codec
Format profile : Main@L3.1
Format settings, CABAC : Yes
Format settings, ReFrames : 4 frames
Codec ID : avc1
Codec ID/Info : Advanced Video Coding
Duration : 5mn 11s
Bit rate : 164 Kbps
Width : 1 280 pixels
Height : 720 pixels
Display aspect ratio : 16:9
Frame rate mode : Constant
Frame rate : 30.000 fps
Color space : YUV
Chroma subsampling : 4:2:0
Bit depth : 8 bits
Scan type : Progressive
Bits/(Pixel*Frame) : 0.006
Stream size : 6.11 MiB (62%)
Writing library : x264 core 129
Encoding settings : cabac=1 / ref=3 / deblock=1:0:0 / analyse=0x1:0x111 / me=hex / subme=7 / psy=1 / psy_rd=1.00:0.00 / mixed_ref=1 / me_range=16 / chroma_me=1 / trellis=1 / 8x8dct=0 / cqm=0 / deadzone=21,11 / fast_pskip=1 / chroma_qp_offset=-2 / threads=18 / lookahead_threads=3 / sliced_threads=0 / nr=0 / decimate=1 / interlaced=0 / bluray_compat=0 / constrained_intra=0 / bframes=3 / b_pyramid=2 / b_adapt=1 / b_bias=0 / direct=1 / weightb=1 / open_gop=0 / weightp=2 / keyint=300 / keyint_min=30 / scenecut=45 / intra_refresh=0 / rc_lookahead=40 / rc=crf / mbtree=1 / crf=23.0 / qcomp=0.60 / qpmin=0 / qpmax=69 / qpstep=4 / ip_ratio=1.40 / aq=1:1.00
Encoded date : UTC 2016-11-18 17:16:14
Tagged date : UTC 2016-11-18 17:16:14

Audio
ID : 1
Format : AAC
Format/Info : Advanced Audio Codec
Format profile : LC
Codec ID : 40
Duration : 5mn 10s
Bit rate mode : Constant
Bit rate : 96.0 Kbps
Channel(s) : 2 channels
Channel positions : Front: L R
Sampling rate : 44.1 KHz
Compression mode : Lossy
Stream size : 3.56 MiB (36%)
Encoded date : UTC 2016-11-18 17:16:14
Tagged date : UTC 2016-11-18 17:16:14

Other #1
ID : 3
Type : Scene description
Format : System Core
Codec ID : 2
Duration : 5mn 11s
Encoded date : UTC 2016-11-18 17:16:14
Tagged date : UTC 2016-11-18 17:16:14

Other #2
ID : 4
Type : Object description
Format : System
Codec ID : 1
Duration : 5mn 11s
Encoded date : UTC 2016-11-18 17:16:14
Tagged date : UTC 2016-11-18 17:16:14

Screenshots

WaveLab 9 101- Absolute Beginners Guide (2016)

WaveLab 9 101- Absolute Beginners Guide (2016)

WaveLab 9 101- Absolute Beginners Guide (2016)

WaveLab 9 101- Absolute Beginners Guide (2016)

WaveLab 9 101- Absolute Beginners Guide (2016)

Exclusive eLearning Videos ParRus-blogadd to bookmarks

WaveLab 9 101- Absolute Beginners Guide (2016)

WaveLab 9 101- Absolute Beginners Guide (2016) Download, Warez, DDL, Free, Torrent, Legal.

Download


  • Recent Posts

  • Recent Tags