Warren Zevon – Transmission Impossible (2016) [Bootleg]

Download
Warren Zevon - Transmission Impossible (2016) [Bootleg]

Warren Zevon – Transmission Impossible (2016)
EAC Rip | FLAC (tracks+log+.cue) – 1,16 Gb | Scans – 6 Mb | 03:24:15
Rock, Folk Rock | Label: Eat To The Beat

3 classic Zevon broadcasts SAUSALITO 1978, BOSTON 1982, CLEVELAND 1992 ALL HOUSED IN ELEGANT 3CD BOX SET The perennial cult hero, Warren Zevon amassed and extraordinary body of work across his 30-plus year career, but remains a sadly underappreciated performer and composer of some of the best songs to have emerged during his working life. Tragically cut down in his prime by the ravishes of cancer, Zevon nevertheless left a recorded legacy which is still the subject of huge critical acclaim and cult status. This triple CD set collects together three fascinating radio broadcasts of live shows performed by Warren during his heyday, one each from the 1970s, the 1980s and the 1990s. Kicking off is a quite brilliant performance the great man gave at The Record Plant in Sausalito, CA, in 1978, shortly following the release of his acclaimed Excitable Boy album, which for many fans remains his finest record. Second up is Zevon s classic Boston gig in 1982, performed at the city s Metro Club hot on the heels of his The Envoy album, a record which did not perform well commercially, but which remains a favourite among fans. Finally, this collection features Warren s show from 1992 at the Empire Concert Club in Cleveland, Ohio, a stop on his promotional tour for the Mr. Bad Example album, for which he was backed by Canadian indie kids The Odds. With all shows featuring superb audio sound quality and the performances among Zevon s best ever, this delightful set will doubtless become an essential inclusion in every fan s collection.

Tracklist:
CD1: From an FM broadcast live at The Record Plant, Sausalito, C.A. 27th July 1978
1-1 Intro 0:15
1-2 Johnny Strikes Up The Band 3:01
1-3 Tenderness On The Block 4:09
1-4 Mohammed’s Radio 5:01
1-5 Excitable Boy 3:43
1-6 Werewolves Of London 5:16
1-7 Accidentally Like A Martyr 4:38
1-8 Introducing The Band 1:27
1-9 Roland The Headless Thompson Gunner 4:39
1-10 Poor Poor Pitiful Me 4:27
1-11 Lawyers, Guns And Money 4:55
1-12 I’ll Sleep When I’m Dead 4:45

CD2: Live broadcast from The Metro, Boston, USA by WBCN FM 29th September 1982
2-1 Johnny Strikes Up The Band 3:05
2-2 The Overdraft 3:18
2-3 Jeannie Needs A Shooter 4:05
2-4 Gorilla, You’re A Desperado 3:30
2-5 Roland The Headless Thompson Gunner 5:02
2-6 The Envoy 3:26
2-7 Charlie’s Medicine 4:33
2-8 Jungle Work 3:48
2-9 Play It All Night Long 3:08
2-10 Lawyers, Guns And Money 3:43
2-11 Bad Luck Streak In Dancing School 3:16
2-12 The Hula Hula Boys 3:53
2-13 Accidentally Like A Martyr 4:14
2-14 Poor, Poor Pitiful Me 1:38
2-15 Cadillac Ranch 3:09
2-16 Excitable Boy 4:08
2-17 Werewolves Of London 7:02
2-18 Carmelita 4:55
2-19 I’ll Sleep When I’m Dead 5:43

CD3: From A Live FM Broadcast At The Empire Concert Club. Cleveland, OH 5th January 1992
3-1 I’ll Sleep When I’m Dead 3:17
3-2 Play It All Night Long 6:50
3-3 Poor Poor Pitiful Me 6:47
3-4 Mr. Bad Example 3:54
3-5 Things To Do In Denver When You’re Dead 3:01
3-6 First We Take Manhattan 7:21
3-7 Detox Mansion 4:48
3-8 Boom Boom Mancini 6:27
3-9 Excitable Boy 3:50
3-10 Model Citizen 6:18
3-11 The Envoy 3:01
3-12 Jungle Work 5:47
3-13 Searching For A Heart 5:19
3-14 That’s Amore 1:03
3-15 Werewolves Of London 6:52
3-16 Into The Mystic 4:27
3-17 Lawyers, Guns And Money 3:18

EAC CD1
Exact Audio Copy V1.3 from 2. September 2016

EAC extraction logfile from 20. July 2017, 21:20

Warren Zevon / Accidentally On Purpose

Used drive : SONY DVD RW AD-7280S Adapter: 1 ID: 1

Read mode : Secure
Utilize accurate stream : Yes
Defeat audio cache : Yes
Make use of C2 pointers : No

Read offset correction : 48
Overread into Lead-In and Lead-Out : No
Fill up missing offset samples with silence : Yes
Delete leading and trailing silent blocks : No
Null samples used in CRC calculations : Yes
Used interface : Native Win32 interface for Win NT & 2000
Gap handling : Appended to previous track

Used output format : User Defined Encoder
Selected bitrate : 1024 kBit/s
Quality : High
Add ID3 tag : No
Command line compressor : C:Program Files (x86)Exact Audio CopyFLACFLAC.EXE
Additional command line options : -8 -e -p -V -T "ARTIST=%artist%" -T "TITLE=%title%" -T "ALBUM=%albumtitle%" -T "DATE=%year%" -T "TRACKNUMBER=%tracknr%" -T "GENRE=%genre%" -T "PERFORMER=%albuminterpret%" -T "COMPOSER=%composer%" %haslyrics%–tag-from-file=LYRICS="%lyricsfile%"%haslyrics% -T "ALBUMARTIST=%albumartist%" -T "DISCNUMBER=%cdnumber%" -T "TOTALDISCS=%totalcds%" -T "TOTALTRACKS=%numtracks%" -T "COMMENT=%comment%" %source% -o %dest%

TOC of the extracted CD

Track | Start | Length | Start sector | End sector
––––––––––––––––––––––––––––-
1 | 0:00.00 | 0:15.09 | 0 | 1133
2 | 0:15.09 | 3:01.35 | 1134 | 14743
3 | 3:16.44 | 4:09.24 | 14744 | 33442
4 | 7:25.68 | 5:00.58 | 33443 | 56000
5 | 12:26.51 | 3:43.36 | 56001 | 72761
6 | 16:10.12 | 5:15.50 | 72762 | 96436
7 | 21:25.62 | 4:37.39 | 96437 | 117250
8 | 26:03.26 | 1:27.36 | 117251 | 123811
9 | 27:30.62 | 4:38.53 | 123812 | 144714
10 | 32:09.40 | 4:26.61 | 144715 | 164725
11 | 36:36.26 | 4:55.35 | 164726 | 186885
12 | 41:31.61 | 4:45.14 | 186886 | 208274

Track 1

Filename G:__New_EAC ripsWarren Zevon – Accidentally on Purpose [boot] (2015) flac1 – Intro.wav

Pre-gap length 0:00:02.00

Peak level 71.4 %
Extraction speed 0.7 X
Track quality 100.0 %
Test CRC AD310D1A
Copy CRC AD310D1A
Track not present in AccurateRip database
Copy OK

Track 2

Filename G:__New_EAC ripsWarren Zevon – Accidentally on Purpose [boot] (2015) flac2 – Johnny Strikes Up The Band.wav

Peak level 87.8 %
Extraction speed 2.2 X
Track quality 100.0 %
Test CRC B427442A
Copy CRC B427442A
Track not present in AccurateRip database
Copy OK

Track 3

Filename G:__New_EAC ripsWarren Zevon – Accidentally on Purpose [boot] (2015) flac3 – Tenderness On The Block.wav

Peak level 70.0 %
Extraction speed 2.3 X
Track quality 99.9 %
Test CRC FD0E9578
Copy CRC FD0E9578
Track not present in AccurateRip database
Copy OK

Track 4

Filename G:__New_EAC ripsWarren Zevon – Accidentally on Purpose [boot] (2015) flac4 – Mohammed’s Radio.wav

Peak level 75.8 %
Extraction speed 2.6 X
Track quality 99.9 %
Test CRC D1A1D266
Copy CRC D1A1D266
Track not present in AccurateRip database
Copy OK

Track 5

Filename G:__New_EAC ripsWarren Zevon – Accidentally on Purpose [boot] (2015) flac5 – Excitable Boy.wav

Peak level 64.5 %
Extraction speed 3.0 X
Track quality 100.0 %
Test CRC 0B79ED2C
Copy CRC 0B79ED2C
Track not present in AccurateRip database
Copy OK

Track 6

Filename G:__New_EAC ripsWarren Zevon – Accidentally on Purpose [boot] (2015) flac6 – Werewolves Of London.wav

Peak level 63.2 %
Extraction speed 3.4 X
Track quality 100.0 %
Test CRC 5F48A56D
Copy CRC 5F48A56D
Track not present in AccurateRip database
Copy OK

Track 7

Filename G:__New_EAC ripsWarren Zevon – Accidentally on Purpose [boot] (2015) flac7 – Accidentally Like A Martyr.wav

Peak level 73.2 %
Extraction speed 3.2 X
Track quality 99.9 %
Test CRC FEA5936A
Copy CRC FEA5936A
Track not present in AccurateRip database
Copy OK

Track 8

Filename G:__New_EAC ripsWarren Zevon – Accidentally on Purpose [boot] (2015) flac8 – Introducing The Band.wav

Peak level 61.6 %
Extraction speed 2.9 X
Track quality 100.0 %
Test CRC FD0627DC
Copy CRC FD0627DC
Track not present in AccurateRip database
Copy OK

Track 9

Filename G:__New_EAC ripsWarren Zevon – Accidentally on Purpose [boot] (2015) flac9 – Roland The Headless Thompson Gunner.wav

Peak level 68.3 %
Extraction speed 3.9 X
Track quality 100.0 %
Test CRC DB45F176
Copy CRC DB45F176
Track not present in AccurateRip database
Copy OK

Track 10

Filename G:__New_EAC ripsWarren Zevon – Accidentally on Purpose [boot] (2015) flac10 – Poor Poor Pitiful Me.wav

Peak level 68.6 %
Extraction speed 4.0 X
Track quality 100.0 %
Test CRC 747BBC84
Copy CRC 747BBC84
Track not present in AccurateRip database
Copy OK

Track 11

Filename G:__New_EAC ripsWarren Zevon – Accidentally on Purpose [boot] (2015) flac11 – Lawyers, Guns And Money.wav

Peak level 74.1 %
Extraction speed 3.9 X
Track quality 99.9 %
Test CRC 92ABE277
Copy CRC 92ABE277
Track not present in AccurateRip database
Copy OK

Track 12

Filename G:__New_EAC ripsWarren Zevon – Accidentally on Purpose [boot] (2015) flac12 – I’ll Sleep When I’m Dead.wav

Peak level 73.7 %
Extraction speed 4.0 X
Track quality 99.9 %
Test CRC 8640B176
Copy CRC 8640B176
Track not present in AccurateRip database
Copy OK

None of the tracks are present in the AccurateRip database

No errors occurred

End of status report

–– CUETools DB Plugin V2.1.6

[CTDB TOCID: bd5hLg61iM7auyjD_0ZtBje0ykI-] found
Submit result: bd5hLg61iM7auyjD_0ZtBje0ykI- has been confirmed
Track | CTDB Status
1 | (3/3) Accurately ripped
2 | (3/3) Accurately ripped
3 | (3/3) Accurately ripped
4 | (3/3) Accurately ripped
5 | (3/3) Accurately ripped
6 | (3/3) Accurately ripped
7 | (3/3) Accurately ripped
8 | (3/3) Accurately ripped
9 | (3/3) Accurately ripped
10 | (3/3) Accurately ripped
11 | (3/3) Accurately ripped
12 | (3/3) Accurately ripped

==== Log checksum 68CE46598EA45376E7A32F012796D5FA6CE0EAB6C823C2565B64E2C3AD20A9A4 ====

EAC CD2
Exact Audio Copy V1.3 from 2. September 2016

EAC extraction logfile from 5. August 2017, 18:14

Warren Zevon / Headless In Boston – 1982 Live Radio Broadcast

Used drive : SONY DVD RW AD-7280S Adapter: 1 ID: 1

Read mode : Secure
Utilize accurate stream : Yes
Defeat audio cache : Yes
Make use of C2 pointers : No

Read offset correction : 48
Overread into Lead-In and Lead-Out : No
Fill up missing offset samples with silence : Yes
Delete leading and trailing silent blocks : No
Null samples used in CRC calculations : Yes
Used interface : Native Win32 interface for Win NT & 2000
Gap handling : Appended to previous track

Used output format : User Defined Encoder
Selected bitrate : 1024 kBit/s
Quality : High
Add ID3 tag : No
Command line compressor : C:Program Files (x86)Exact Audio CopyFLACFLAC.EXE
Additional command line options : -8 -e -p -V -T "ARTIST=%artist%" -T "TITLE=%title%" -T "ALBUM=%albumtitle%" -T "DATE=%year%" -T "TRACKNUMBER=%tracknr%" -T "GENRE=%genre%" -T "PERFORMER=%albuminterpret%" -T "COMPOSER=%composer%" %haslyrics%–tag-from-file=LYRICS="%lyricsfile%"%haslyrics% -T "ALBUMARTIST=%albumartist%" -T "DISCNUMBER=%cdnumber%" -T "TOTALDISCS=%totalcds%" -T "TOTALTRACKS=%numtracks%" -T "COMMENT=%comment%" %source% -o %dest%

TOC of the extracted CD

Track | Start | Length | Start sector | End sector
––––––––––––––––––––––––––––-
1 | 0:00.00 | 3:05.32 | 0 | 13906
2 | 3:05.32 | 3:18.36 | 13907 | 28792
3 | 6:23.68 | 4:05.30 | 28793 | 47197
4 | 10:29.23 | 3:30.02 | 47198 | 62949
5 | 13:59.25 | 5:01.71 | 62950 | 85595
6 | 19:01.21 | 3:26.31 | 85596 | 101076
7 | 22:27.52 | 4:33.14 | 101077 | 121565
8 | 27:00.66 | 3:48.35 | 121566 | 138700
9 | 30:49.26 | 3:07.58 | 138701 | 152783
10 | 33:57.09 | 3:42.43 | 152784 | 169476
11 | 37:39.52 | 3:16.15 | 169477 | 184191
12 | 40:55.67 | 3:53.12 | 184192 | 201678
13 | 44:49.04 | 4:14.06 | 201679 | 220734
14 | 49:03.10 | 1:38.04 | 220735 | 228088
15 | 50:41.14 | 3:08.71 | 228089 | 242259
16 | 53:50.10 | 4:07.62 | 242260 | 260846
17 | 57:57.72 | 7:01.73 | 260847 | 292494
18 | 64:59.70 | 4:55.27 | 292495 | 314646
19 | 69:55.22 | 5:42.53 | 314647 | 340349

Track 1

Filename G:__New_EAC ripsWarren Zevon – Headless in Boston 1982 [boot] (2013) flac1 – Johnny Strikes Up The Band.wav

Pre-gap length 0:00:02.00

Peak level 90.0 %
Extraction speed 4.5 X
Track quality 100.0 %
Test CRC C2FD759B
Copy CRC C2FD759B
Cannot be verified as accurate (confidence 6) [9FE7130B], AccurateRip returned [55DE3C2F] (AR v2)
Copy OK

Track 2

Filename G:__New_EAC ripsWarren Zevon – Headless in Boston 1982 [boot] (2013) flac2 – The Overdraft.wav

Peak level 90.0 %
Extraction speed 4.9 X
Track quality 100.0 %
Test CRC 436392B3
Copy CRC 436392B3
Cannot be verified as accurate (confidence 6) [4C47BCEE], AccurateRip returned [9BFEF5F1] (AR v2)
Copy OK

Track 3

Filename G:__New_EAC ripsWarren Zevon – Headless in Boston 1982 [boot] (2013) flac3 – Jeannie Needs A Shooter.wav

Peak level 90.0 %
Extraction speed 5.5 X
Track quality 100.0 %
Test CRC 56484C50
Copy CRC 56484C50
Cannot be verified as accurate (confidence 6) [4D5F0B9F], AccurateRip returned [D3E52E06] (AR v2)
Copy OK

Track 4

Filename G:__New_EAC ripsWarren Zevon – Headless in Boston 1982 [boot] (2013) flac4 – Gorilla, Your’re A Desperado.wav

Peak level 90.0 %
Extraction speed 5.7 X
Track quality 100.0 %
Test CRC 367DBA59
Copy CRC 367DBA59
Cannot be verified as accurate (confidence 6) [69211B78], AccurateRip returned [14FA286D] (AR v2)
Copy OK

Track 5

Filename G:__New_EAC ripsWarren Zevon – Headless in Boston 1982 [boot] (2013) flac5 – Roland The Headless Thompson Gunner.wav

Peak level 90.0 %
Extraction speed 6.4 X
Track quality 100.0 %
Test CRC D7CB7983
Copy CRC D7CB7983
Cannot be verified as accurate (confidence 6) [6243ABF0], AccurateRip returned [0383E8F7] (AR v2)
Copy OK

Track 6

Filename G:__New_EAC ripsWarren Zevon – Headless in Boston 1982 [boot] (2013) flac6 – The Envoy.wav

Peak level 90.0 %
Extraction speed 6.5 X
Track quality 100.0 %
Test CRC C8EC6457
Copy CRC C8EC6457
Cannot be verified as accurate (confidence 6) [0344865B], AccurateRip returned [0B6976D2] (AR v2)
Copy OK

Track 7

Filename G:__New_EAC ripsWarren Zevon – Headless in Boston 1982 [boot] (2013) flac7 – Charlie’s Medicine.wav

Peak level 90.0 %
Extraction speed 5.1 X
Track quality 99.9 %
Test CRC 450A3D37
Copy CRC 450A3D37
Cannot be verified as accurate (confidence 6) [29FCA8EA], AccurateRip returned [7D973738] (AR v2)
Copy OK

Track 8

Filename G:__New_EAC ripsWarren Zevon – Headless in Boston 1982 [boot] (2013) flac8 – Jungle Work.wav

Peak level 90.0 %
Extraction speed 7.2 X
Track quality 100.0 %
Test CRC 59BBB4C8
Copy CRC 59BBB4C8
Cannot be verified as accurate (confidence 6) [4BFBA0E1], AccurateRip returned [F2311F4F] (AR v2)
Copy OK

Track 9

Filename G:__New_EAC ripsWarren Zevon – Headless in Boston 1982 [boot] (2013) flac9 – Play It All Night Long.wav

Peak level 90.0 %
Extraction speed 7.2 X
Track quality 100.0 %
Test CRC 9E251DFF
Copy CRC 9E251DFF
Cannot be verified as accurate (confidence 6) [5464848C], AccurateRip returned [131BB90B] (AR v2)
Copy OK

Track 10

Filename G:__New_EAC ripsWarren Zevon – Headless in Boston 1982 [boot] (2013) flac10 – Lawyers Guns And Money.wav

Peak level 90.0 %
Extraction speed 7.6 X
Track quality 100.0 %
Test CRC 487E282A
Copy CRC 487E282A
Cannot be verified as accurate (confidence 6) [F530F2D8], AccurateRip returned [6E38EEB3] (AR v2)
Copy OK

Track 11

Filename G:__New_EAC ripsWarren Zevon – Headless in Boston 1982 [boot] (2013) flac11 – Bad Luck Streak In Dancing School.wav

Peak level 90.0 %
Extraction speed 5.1 X
Track quality 99.9 %
Test CRC 0151C2E2
Copy CRC 0151C2E2
Cannot be verified as accurate (confidence 6) [E2D590D3], AccurateRip returned [EBC61AC3] (AR v2)
Copy OK

Track 12

Filename G:__New_EAC ripsWarren Zevon – Headless in Boston 1982 [boot] (2013) flac12 – The Hula Hula Boys.wav

Peak level 90.0 %
Extraction speed 8.1 X
Track quality 100.0 %
Test CRC 87BA121E
Copy CRC 87BA121E
Cannot be verified as accurate (confidence 6) [DB5D4494], AccurateRip returned [6E1FEC08] (AR v2)
Copy OK

Track 13

Filename G:__New_EAC ripsWarren Zevon – Headless in Boston 1982 [boot] (2013) flac13 – Accidentlly Like A Martyr.wav

Peak level 90.0 %
Extraction speed 8.5 X
Track quality 100.0 %
Test CRC 1D9BCE8F
Copy CRC 1D9BCE8F
Cannot be verified as accurate (confidence 6) [28A5E49D], AccurateRip returned [D1A642B7] (AR v2)
Copy OK

Track 14

Filename G:__New_EAC ripsWarren Zevon – Headless in Boston 1982 [boot] (2013) flac14 – Poor, Poor Pitiful Me.wav

Peak level 90.0 %
Extraction speed 7.2 X
Track quality 100.0 %
Test CRC E946EC61
Copy CRC E946EC61
Cannot be verified as accurate (confidence 6) [1AC339D5], AccurateRip returned [7FFE46DD] (AR v2)
Copy OK

Track 15

Filename G:__New_EAC ripsWarren Zevon – Headless in Boston 1982 [boot] (2013) flac15 – Cadillac Ranch.wav

Peak level 90.0 %
Extraction speed 8.4 X
Track quality 100.0 %
Test CRC C70A52D6
Copy CRC C70A52D6
Cannot be verified as accurate (confidence 6) [F0333B28], AccurateRip returned [7FDA6C53] (AR v2)
Copy OK

Track 16

Filename G:__New_EAC ripsWarren Zevon – Headless in Boston 1982 [boot] (2013) flac16 – Excitable Boy.wav

Peak level 90.0 %
Extraction speed 9.0 X
Track quality 100.0 %
Test CRC 76002B2D
Copy CRC 76002B2D
Cannot be verified as accurate (confidence 6) [3F98A1CF], AccurateRip returned [C679BC17] (AR v2)
Copy OK

Track 17

Filename G:__New_EAC ripsWarren Zevon – Headless in Boston 1982 [boot] (2013) flac17 – Werewolves Of London.wav

Peak level 90.0 %
Extraction speed 7.8 X
Track quality 99.9 %
Test CRC 112FFE02
Copy CRC 112FFE02
Cannot be verified as accurate (confidence 6) [CAA6A872], AccurateRip returned [0EF1F597] (AR v2)
Copy OK

Track 18

Filename G:__New_EAC ripsWarren Zevon – Headless in Boston 1982 [boot] (2013) flac18 – Carmelita.wav

Peak level 90.0 %
Extraction speed 9.7 X
Track quality 100.0 %
Test CRC ED2825AC
Copy CRC ED2825AC
Cannot be verified as accurate (confidence 6) [ACBE038B], AccurateRip returned [B0CC41D6] (AR v2)
Copy OK

Track 19

Filename G:__New_EAC ripsWarren Zevon – Headless in Boston 1982 [boot] (2013) flac19 – I’ll Sleep When I’m Dead.wav

Peak level 92.1 %
Extraction speed 10.3 X
Track quality 100.0 %
Test CRC D1B5256B
Copy CRC D1B5256B
Cannot be verified as accurate (confidence 6) [A849A56C], AccurateRip returned [9B744A7E] (AR v2)
Copy OK

No tracks could be verified as accurate
You may have a different pressing from the one(s) in the database

No errors occurred

End of status report

–– CUETools DB Plugin V2.1.6

[CTDB TOCID: KdONMqdIhY_cUGiebgmkE6gPy4w-] found
Submit result: KdONMqdIhY_cUGiebgmkE6gPy4w- has been confirmed
Track | CTDB Status
1 | (11/11) Accurately ripped
2 | (11/11) Accurately ripped
3 | (11/11) Accurately ripped
4 | (11/11) Accurately ripped
5 | (11/11) Accurately ripped
6 | (11/11) Accurately ripped
7 | (11/11) Accurately ripped
8 | (11/11) Accurately ripped
9 | (11/11) Accurately ripped
10 | (11/11) Accurately ripped
11 | (11/11) Accurately ripped
12 | (11/11) Accurately ripped
13 | (11/11) Accurately ripped
14 | (11/11) Accurately ripped
15 | (11/11) Accurately ripped
16 | (11/11) Accurately ripped
17 | (11/11) Accurately ripped
18 | (11/11) Accurately ripped
19 | (11/11) Accurately ripped

==== Log checksum 02A7A21563868239D359F9A0C75B316A05C586A4CD28C2501537DDA58BACEB08 ====

EAC CD3
Exact Audio Copy V1.3 from 2. September 2016

EAC extraction logfile from 21. July 2017, 18:48

Warren Zevon / Things to Do in Cleveland

Used drive : SONY DVD RW AD-7280S Adapter: 1 ID: 1

Read mode : Secure
Utilize accurate stream : Yes
Defeat audio cache : Yes
Make use of C2 pointers : No

Read offset correction : 48
Overread into Lead-In and Lead-Out : No
Fill up missing offset samples with silence : Yes
Delete leading and trailing silent blocks : No
Null samples used in CRC calculations : Yes
Used interface : Native Win32 interface for Win NT & 2000
Gap handling : Appended to previous track

Used output format : User Defined Encoder
Selected bitrate : 1024 kBit/s
Quality : High
Add ID3 tag : No
Command line compressor : C:Program Files (x86)Exact Audio CopyFLACFLAC.EXE
Additional command line options : -8 -e -p -V -T "ARTIST=%artist%" -T "TITLE=%title%" -T "ALBUM=%albumtitle%" -T "DATE=%year%" -T "TRACKNUMBER=%tracknr%" -T "GENRE=%genre%" -T "PERFORMER=%albuminterpret%" -T "COMPOSER=%composer%" %haslyrics%–tag-from-file=LYRICS="%lyricsfile%"%haslyrics% -T "ALBUMARTIST=%albumartist%" -T "DISCNUMBER=%cdnumber%" -T "TOTALDISCS=%totalcds%" -T "TOTALTRACKS=%numtracks%" -T "COMMENT=%comment%" %source% -o %dest%

TOC of the extracted CD

Track | Start | Length | Start sector | End sector
––––––––––––––––––––––––––––-
1 | 0:00.00 | 3:17.10 | 0 | 14784
2 | 3:17.10 | 6:49.58 | 14785 | 45517
3 | 10:06.68 | 6:46.68 | 45518 | 76035
4 | 16:53.61 | 3:54.02 | 76036 | 93587
5 | 20:47.63 | 3:00.55 | 93588 | 107142
6 | 23:48.43 | 7:21.12 | 107143 | 140229
7 | 31:09.55 | 4:48.20 | 140230 | 161849
8 | 35:58.00 | 6:26.58 | 161850 | 190857
9 | 42:24.58 | 3:50.15 | 190858 | 208122
10 | 46:14.73 | 6:17.49 | 208123 | 236446
11 | 52:32.47 | 3:00.73 | 236447 | 250019
12 | 55:33.45 | 5:47.23 | 250020 | 276067
13 | 61:20.68 | 5:18.56 | 276068 | 299973
14 | 66:39.49 | 1:03.36 | 299974 | 304734
15 | 67:43.10 | 6:52.21 | 304735 | 335655
16 | 74:35.31 | 4:26.46 | 335656 | 355651
17 | 79:02.02 | 3:17.73 | 355652 | 370499

Track 1

Filename G:__New_EAC ripsWarren Zevon – Things to Do in Cleveland 1992 [boot] (2016) flac1 – I’ll Sleep When I’m Dead.wav

Pre-gap length 0:00:02.00

Peak level 92.4 %
Extraction speed 2.5 X
Track quality 100.0 %
Test CRC DF4861B6
Copy CRC DF4861B6
Track not present in AccurateRip database
Copy OK

Track 2

Filename G:__New_EAC ripsWarren Zevon – Things to Do in Cleveland 1992 [boot] (2016) flac2 – Play It All Night Long.wav

Peak level 92.3 %
Extraction speed 3.0 X
Track quality 100.0 %
Test CRC 2C3EFF22
Copy CRC 2C3EFF22
Track not present in AccurateRip database
Copy OK

Track 3

Filename G:__New_EAC ripsWarren Zevon – Things to Do in Cleveland 1992 [boot] (2016) flac3 – Poor Poor Pitiful Me.wav

Peak level 91.9 %
Extraction speed 3.4 X
Track quality 100.0 %
Test CRC 393A5BA9
Copy CRC 393A5BA9
Track not present in AccurateRip database
Copy OK

Track 4

Filename G:__New_EAC ripsWarren Zevon – Things to Do in Cleveland 1992 [boot] (2016) flac4 – Mr. Bad Example.wav

Peak level 92.3 %
Extraction speed 3.0 X
Track quality 99.9 %
Test CRC 032A3FAF
Copy CRC 032A3FAF
Track not present in AccurateRip database
Copy OK

Track 5

Filename G:__New_EAC ripsWarren Zevon – Things to Do in Cleveland 1992 [boot] (2016) flac5 – Things to Do in Denver When You’re Dead.wav

Peak level 91.9 %
Extraction speed 3.5 X
Track quality 100.0 %
Test CRC 32C23C4B
Copy CRC 32C23C4B
Track not present in AccurateRip database
Copy OK

Track 6

Filename G:__New_EAC ripsWarren Zevon – Things to Do in Cleveland 1992 [boot] (2016) flac6 – First We Take Manhattan.wav

Peak level 92.5 %
Extraction speed 4.1 X
Track quality 100.0 %
Test CRC 0BC45341
Copy CRC 0BC45341
Track not present in AccurateRip database
Copy OK

Track 7

Filename G:__New_EAC ripsWarren Zevon – Things to Do in Cleveland 1992 [boot] (2016) flac7 – Detox Mansion.wav

Peak level 92.4 %
Extraction speed 4.2 X
Track quality 100.0 %
Test CRC F9242954
Copy CRC F9242954
Track not present in AccurateRip database
Copy OK

Track 8

Filename G:__New_EAC ripsWarren Zevon – Things to Do in Cleveland 1992 [boot] (2016) flac8 – Boom Boom Mancini.wav

Peak level 93.5 %
Extraction speed 4.2 X
Track quality 99.9 %
Test CRC 949601C8
Copy CRC 949601C8
Track not present in AccurateRip database
Copy OK

Track 9

Filename G:__New_EAC ripsWarren Zevon – Things to Do in Cleveland 1992 [boot] (2016) flac9 – Excitable Boy.wav

Peak level 92.4 %
Extraction speed 4.5 X
Track quality 100.0 %
Test CRC D646267B
Copy CRC D646267B
Track not present in AccurateRip database
Copy OK

Track 10

Filename G:__New_EAC ripsWarren Zevon – Things to Do in Cleveland 1992 [boot] (2016) flac10 – Model Citizen.wav

Peak level 91.9 %
Extraction speed 4.9 X
Track quality 100.0 %
Test CRC BF77CA06
Copy CRC BF77CA06
Track not present in AccurateRip database
Copy OK

Track 11

Filename G:__New_EAC ripsWarren Zevon – Things to Do in Cleveland 1992 [boot] (2016) flac11 – The Envoy.wav

Peak level 92.3 %
Extraction speed 4.6 X
Track quality 100.0 %
Test CRC B6E1CA6E
Copy CRC B6E1CA6E
Track not present in AccurateRip database
Copy OK

Track 12

Filename G:__New_EAC ripsWarren Zevon – Things to Do in Cleveland 1992 [boot] (2016) flac12 – Jungle Work.wav

Peak level 92.4 %
Extraction speed 5.2 X
Track quality 100.0 %
Test CRC 78B6F9B0
Copy CRC 78B6F9B0
Track not present in AccurateRip database
Copy OK

Track 13

Filename G:__New_EAC ripsWarren Zevon – Things to Do in Cleveland 1992 [boot] (2016) flac13 – Searching for a Heart.wav

Peak level 92.1 %
Extraction speed 5.3 X
Track quality 100.0 %
Test CRC 1D0AD1DD
Copy CRC 1D0AD1DD
Track not present in AccurateRip database
Copy OK

Track 14

Filename G:__New_EAC ripsWarren Zevon – Things to Do in Cleveland 1992 [boot] (2016) flac14 – That’s Amore.wav

Peak level 92.1 %
Extraction speed 3.8 X
Track quality 100.0 %
Test CRC BBF5F1D8
Copy CRC BBF5F1D8
Track not present in AccurateRip database
Copy OK

Track 15

Filename G:__New_EAC ripsWarren Zevon – Things to Do in Cleveland 1992 [boot] (2016) flac15 – Werewolves of London.wav

Peak level 92.2 %
Extraction speed 5.6 X
Track quality 100.0 %
Test CRC A85F9818
Copy CRC A85F9818
Track not present in AccurateRip database
Copy OK

Track 16

Filename G:__New_EAC ripsWarren Zevon – Things to Do in Cleveland 1992 [boot] (2016) flac16 – Into the Mystic.wav

Peak level 92.3 %
Extraction speed 5.6 X
Track quality 100.0 %
Test CRC 9348DA0B
Copy CRC 9348DA0B
Track not present in AccurateRip database
Copy OK

Track 17

Filename G:__New_EAC ripsWarren Zevon – Things to Do in Cleveland 1992 [boot] (2016) flac17 – Lawyers, Guns and Money.wav

Peak level 92.4 %
Extraction speed 5.5 X
Track quality 100.0 %
Test CRC EB1FD59C
Copy CRC EB1FD59C
Track not present in AccurateRip database
Copy OK

None of the tracks are present in the AccurateRip database

No errors occurred

End of status report

–– CUETools DB Plugin V2.1.6

[CTDB TOCID: wRbkY1JsIdtb9HezwNp1m6v_d04-] disk not present in database
Submit result: wRbkY1JsIdtb9HezwNp1m6v_d04- has been uploaded

==== Log checksum D967A9A66184A02BA0E61AF8F5AFA0CDFE6092C86E4368D54B6683E0F1DC4831 ====

Warren Zevon - Transmission Impossible (2016) [Bootleg]

Thanks to the Original ripper OhReally !

Warren Zevon – Transmission Impossible (2016) [Bootleg] Download, Warez, DDL, Free, Full Album, Torrent, Legal.

Download