Wade Legge Trio – Wade Legge Trio (2016) {Fresh Sound FSR-CD 894 rec 1953-55}

Download
Wade Legge Trio - Wade Legge Trio (2016) {Fresh Sound FSR-CD 894 rec 1953-55}

Wade Legge Trio – Wade Legge Trio (2016) {Fresh Sound FSR-CD 894 rec 1953-55}
EAC rip (secure mode) | FLAC (tracks)+CUE+LOG -> 370 Mb | MP3 @320 -> 186 Mb
Full Artwork @ 600 dpi (jpg) -> 212 Mb | 5% repair rar | 24bit remaster
© 1953-55, 2016 Vogue / Fresh Sound Records | FSR-CD 894
Jazz / Bop / Hard Bop / Piano

The Fresh Sound label is one of the major reissue record companies, also releasing new music on their Fresh Sound New Talent subsidiary. Fresh Sound, under the direction of the tireless Jordi Pujol, has repackaged and reissued a great deal of very valuable jazz from the 1950s and early 1960s. In addition to the major names, some of their most intriguing sets focus on obscure figures from jazz history whose music has been out-of-print for decades.

Wade Legge (1934-63) had a brief life and a briefer career but he was a fine bop-based pianist with his own chord voicings and sound. He is best-known for being Dizzy Gillespie’s pianist during 1952-54, touring Europe with the great trumpeter. Legge also made recordings with Pete Brown, Lenny Hambro, Jimmy Cleveland, Milt Jackson, Sonny Rollins, Charles Mingus, Gigi Gryce, Jackie McLean and Shafi Hadi during 1954-57 and the Lionel Hampton big band in 1959. But for unknown reasons in 1959 he retired from actively playing music and, when he passed away in 1963, Wade Legge was just 29.

Legge’s Fresh Sound release has his only sessions as a leader (12 titles with bassist Lou Hackney and drummer Al Jones from Gillespie’s quintet), a song by the same trio with singer Joe Carroll and two of the four numbers that they recorded with baritonist Lars Gullin making the group a quartet. In addition, Legge is featured on four numbers with a quartet led by vibraphonist Joe Roland and on three songs with a quintet headed by drummer Bill Bradley Jr. that also includes trumpeter Phil Sunkel and tenor-saxophonist J.R. Monterose. The swinging music, dating from 1953-55, fits securely into the hard bop scene of the era and shows that Wade Legge was an unheralded talent.

Wade Legge Trio - Wade Legge Trio (2016) {Fresh Sound FSR-CD 894 rec 1953-55}

Wade Legge (1934-1963) was still under 20 when he recorded his only trio sessions, but by then he had been Dizzy Gillespie’s pianist since September 1952. The recordings took place in Stockholm and Paris in February 1953, while Gillespie’s quintet was on tour in Europe. Like other young pianists then, he espoused the Bud Powell idiom, but, while paying considerable attention to his own playing, he also devoted time to composing. Here he is solidly backed by Dizzy’s regulars, bassist Lou Hackney and drummer Al Jones. That same February the trio also recorded with the great Swedish baritone Lars Gullin, and with Dizzy’s full ensemble minus the trumpeter, showcasing vocalist Joe Carroll and baritone sax Bill Graham. In these early sessions, young Legge showed great potential as a talented, promising and inventively lyrical player.

After his time with Gillespie, Legge settled in New York City to freelance. The remaining sides in this collection attest to Legge’s skill as a pianist while he developed his own voice, but also display his gifts as an imaginative composer in sessions with vibist Joe Roland and drummer Will Bradley Jr.

During his brief career he appeared on more than 50 recordings, showing himself an expert mixer of styles and moods. After retiring to Buffalo in 1959, he died in 1963 at the early age of 29.

Wade Legge Trio - Wade Legge Trio (2016) {Fresh Sound FSR-CD 894 rec 1953-55}

tracklist & personnel:
01. Play, Legge, Play (Traditional) 3:13
02. Flabbee-Do (Legge) 3:33
03. Bagdad Express (Legge) 4:07
04. I Only Have Eyes for You (Warren-Dubin) 3:17
05. Perdido (Tizol) 3:05
06. Dream a Little Dream of Me (Schwartz) 3:14
07. Wade Leg’s Blues (Legge) 3:40
08. A Swedish Folksong (Dear Old Stockholm) (Traditional) 3:09
09. Dance of the Infidels (Powell) 3:12
10. Aren’t You Glad You’re You (Burke-Van Heusen) 3:13
11. These Foolish Things (Marvell-Strachey-Link) 2:50
12. Why Don’t You Believe Me (Douglas-Laney) 2:48
13. Sweet Sue, Just You (Harris-Young) 2:38
14. All the Things You Are (Kern-Hammerstein II) 3:32
15. The Squirrel (Dameron) 3:09
16. Gene’s Stew (Legge) 5:22 *
17. Spice (Legge) 4:24 *
18. Music House (Legge) 4:35 *
19. Joyce’s Choice (Legge) 4:22 *
20. Spice (Legge) 2:38 *
21. Bradley’s Beans (Legge) 3:18 *
22. Sugar Hips (Legge) 3:21 *

(*) Bonus tracks

Sources:
Tracks #1 & 2, from the 78 rpm Modern Music M17
Tracks # 3 & 4, from the 78 rpm Modern Music M18
Tracks #5-12, from the 10-inch LP “Wade Legge Trio” (Vogue LD 133)
Track #13, from the 78rpm Vogue V.3307
Tracks #14 & 15, from the 10" “Joe Roland Quintet” (Savoy MG 15034)
Tracks #16-22, from the 12" “Junior Bradley & His Group -The House of Bradley”
(Epic LN-3199)

Personnel on #1-15:
Wade Legge, piano; Lou Hackney, bass; Al Jones, drums. Guests: Joe Carroll, vocals on #13; Bill Graham, baritone sax on #13; Lars Gullin, baritone sax on #14 & 15.
Tracks #1-4, recorded in Stockholm, February 10, 1953
Tracks #5-12, recorded in Paris, February 27, 1953
Track #13, recorded in Paris, February 28, 1953
Tracks #14-15, recorded in Stockholm, February 3, 1953

Personnel on #16-19:
Joe Roland, vibes; Wade Legge, piano; Dante Martucci, bass; Ron Jefferson, drums.
Recorded in New York, October 17, 1954

Personnel on #20-22:
Phil Sunkel, trumpet; Jr. Monterose, tenor sax; Wade Legge, piano; Doug Watkins, bass; Bill Bradley Jr., drums.
Recorded in New York, February 25, 1955

Hi-Fi / Mono · 24 Bit Digitally Remastered

EAC log
Exact Audio Copy V1.1 from 23. June 2015

EAC extraction logfile from 30. January 2017, 21:09

Wade Legge Trio / Wade Legge Trio

Used drive : TSSTcorpCDDVDW SE-208DB Adapter: 1 ID: 1

Read mode : Secure
Utilize accurate stream : Yes
Defeat audio cache : Yes
Make use of C2 pointers : No

Read offset correction : 6
Overread into Lead-In and Lead-Out : No
Fill up missing offset samples with silence : Yes
Delete leading and trailing silent blocks : No
Null samples used in CRC calculations : Yes
Used interface : Native Win32 interface for Win NT & 2000
Gap handling : Appended to previous track

Used output format : User Defined Encoder
Selected bitrate : 1024 kBit/s
Quality : High
Add ID3 tag : No
Command line compressor : C:Program Files (x86)FLAC Frontendtoolsflac.exe
Additional command line options : -8 -V -T "ARTIST=%artist%" -T "TITLE=%title%" -T "ALBUM=%albumtitle%" -T "DATE=%year%" -T "TRACKNUMBER=%tracknr%" -T "TOTALTRACKS=%numtracks%" -T "GENRE=%genre%" -T "ALBUMARTIST=%albumartist%" -T "ALBUM ARTIST=%albumartist%" -T "COMMENT=EAC Secure Mode, Test & Copy, AccurateRip, FLAC -8" %source%

TOC of the extracted CD

Track | Start | Length | Start sector | End sector
––––––––––––––––––––––––––––-
1 | 0:00.00 | 3:16.12 | 0 | 14711
2 | 3:16.12 | 3:35.63 | 14712 | 30899
3 | 6:52.00 | 4:09.71 | 30900 | 49645
4 | 11:01.71 | 3:19.47 | 49646 | 64617
5 | 14:21.43 | 3:08.25 | 64618 | 78742
6 | 17:29.68 | 3:16.39 | 78743 | 93481
7 | 20:46.32 | 3:43.40 | 93482 | 110246
8 | 24:29.72 | 3:11.27 | 110247 | 124598
9 | 27:41.24 | 3:15.38 | 124599 | 139261
10 | 30:56.62 | 3:15.43 | 139262 | 153929
11 | 34:12.30 | 2:51.58 | 153930 | 166812
12 | 37:04.13 | 2:51.06 | 166813 | 179643
13 | 39:55.19 | 2:41.22 | 179644 | 191740
14 | 42:36.41 | 3:34.50 | 191741 | 207840
15 | 46:11.16 | 3:11.38 | 207841 | 222203
16 | 49:22.54 | 5:23.31 | 222204 | 246459
17 | 54:46.10 | 4:25.64 | 246460 | 266398
18 | 59:11.74 | 4:37.66 | 266399 | 287239
19 | 63:49.65 | 4:24.34 | 287240 | 307073
20 | 68:14.24 | 2:40.60 | 307074 | 319133
21 | 70:55.09 | 3:20.02 | 319134 | 334135
22 | 74:15.11 | 3:24.04 | 334136 | 349439

Track 1

Filename D:_EACWade Legge Trio – Wade Legge Trio (2016) [FLAC] {Fresh Sound FSR-CD 894 rec 1953-55}1 – Play, Legge, Play.wav

Pre-gap length 0:00:02.00

Peak level 98.7 %
Extraction speed 1.2 X
Track quality 100.0 %
Test CRC 900112CE
Copy CRC 900112CE
Track not present in AccurateRip database
Copy OK

Track 2

Filename D:_EACWade Legge Trio – Wade Legge Trio (2016) [FLAC] {Fresh Sound FSR-CD 894 rec 1953-55}2 – Flabbee-Do.wav

Peak level 98.8 %
Extraction speed 1.4 X
Track quality 100.0 %
Test CRC D2B1A7C1
Copy CRC D2B1A7C1
Track not present in AccurateRip database
Copy OK

Track 3

Filename D:_EACWade Legge Trio – Wade Legge Trio (2016) [FLAC] {Fresh Sound FSR-CD 894 rec 1953-55}3 – Bagdad Express.wav

Peak level 97.6 %
Extraction speed 1.5 X
Track quality 100.0 %
Test CRC C9A3690B
Copy CRC C9A3690B
Track not present in AccurateRip database
Copy OK

Track 4

Filename D:_EACWade Legge Trio – Wade Legge Trio (2016) [FLAC] {Fresh Sound FSR-CD 894 rec 1953-55}4 – I Only Have Eyes For You.wav

Peak level 95.5 %
Extraction speed 1.5 X
Track quality 100.0 %
Test CRC 438A80F5
Copy CRC 438A80F5
Track not present in AccurateRip database
Copy OK

Track 5

Filename D:_EACWade Legge Trio – Wade Legge Trio (2016) [FLAC] {Fresh Sound FSR-CD 894 rec 1953-55}5 – Perdido.wav

Peak level 97.7 %
Extraction speed 1.6 X
Track quality 100.0 %
Test CRC 00EB4B67
Copy CRC 00EB4B67
Track not present in AccurateRip database
Copy OK

Track 6

Filename D:_EACWade Legge Trio – Wade Legge Trio (2016) [FLAC] {Fresh Sound FSR-CD 894 rec 1953-55}6 – Dream A Little Dream Of Me.wav

Peak level 97.7 %
Extraction speed 1.5 X
Track quality 99.9 %
Test CRC 53903B54
Copy CRC 53903B54
Track not present in AccurateRip database
Copy OK

Track 7

Filename D:_EACWade Legge Trio – Wade Legge Trio (2016) [FLAC] {Fresh Sound FSR-CD 894 rec 1953-55}7 – Wade Leg’s Blues.wav

Peak level 97.8 %
Extraction speed 1.8 X
Track quality 100.0 %
Test CRC B1956FCC
Copy CRC B1956FCC
Track not present in AccurateRip database
Copy OK

Track 8

Filename D:_EACWade Legge Trio – Wade Legge Trio (2016) [FLAC] {Fresh Sound FSR-CD 894 rec 1953-55}8 – A Swedish Folksong (Dear Old Stockholm).wav

Peak level 97.7 %
Extraction speed 1.8 X
Track quality 100.0 %
Test CRC E5B8C829
Copy CRC E5B8C829
Track not present in AccurateRip database
Copy OK

Track 9

Filename D:_EACWade Legge Trio – Wade Legge Trio (2016) [FLAC] {Fresh Sound FSR-CD 894 rec 1953-55}9 – Dance Of The Infidels.wav

Peak level 97.7 %
Extraction speed 1.6 X
Track quality 99.9 %
Test CRC D742C7F0
Copy CRC D742C7F0
Track not present in AccurateRip database
Copy OK

Track 10

Filename D:_EACWade Legge Trio – Wade Legge Trio (2016) [FLAC] {Fresh Sound FSR-CD 894 rec 1953-55}10 – Aren’t You Glad You’re You.wav

Peak level 95.4 %
Extraction speed 2.0 X
Track quality 100.0 %
Test CRC 6CEB2DF1
Copy CRC 6CEB2DF1
Track not present in AccurateRip database
Copy OK

Track 11

Filename D:_EACWade Legge Trio – Wade Legge Trio (2016) [FLAC] {Fresh Sound FSR-CD 894 rec 1953-55}11 – These Foolish Things.wav

Peak level 94.3 %
Extraction speed 2.0 X
Track quality 100.0 %
Test CRC E55B2E72
Copy CRC E55B2E72
Track not present in AccurateRip database
Copy OK

Track 12

Filename D:_EACWade Legge Trio – Wade Legge Trio (2016) [FLAC] {Fresh Sound FSR-CD 894 rec 1953-55}12 – Why Don’t You Believe Me.wav

Peak level 94.3 %
Extraction speed 2.0 X
Track quality 100.0 %
Test CRC 4F118417
Copy CRC 4F118417
Track not present in AccurateRip database
Copy OK

Track 13

Filename D:_EACWade Legge Trio – Wade Legge Trio (2016) [FLAC] {Fresh Sound FSR-CD 894 rec 1953-55}13 – Sweet Sue, Just You.wav

Peak level 98.3 %
Extraction speed 2.1 X
Track quality 100.0 %
Test CRC A97974AC
Copy CRC A97974AC
Track not present in AccurateRip database
Copy OK

Track 14

Filename D:_EACWade Legge Trio – Wade Legge Trio (2016) [FLAC] {Fresh Sound FSR-CD 894 rec 1953-55}14 – All The Things You Are.wav

Peak level 98.8 %
Extraction speed 2.2 X
Track quality 100.0 %
Test CRC 14E80B7D
Copy CRC 14E80B7D
Track not present in AccurateRip database
Copy OK

Track 15

Filename D:_EACWade Legge Trio – Wade Legge Trio (2016) [FLAC] {Fresh Sound FSR-CD 894 rec 1953-55}15 – The Squirrel.wav

Peak level 98.8 %
Extraction speed 2.3 X
Track quality 100.0 %
Test CRC 2BC026EF
Copy CRC 2BC026EF
Track not present in AccurateRip database
Copy OK

Track 16

Filename D:_EACWade Legge Trio – Wade Legge Trio (2016) [FLAC] {Fresh Sound FSR-CD 894 rec 1953-55}16 – Gene’s Stew (bonus track).wav

Peak level 97.6 %
Extraction speed 2.5 X
Track quality 100.0 %
Test CRC 4335AB14
Copy CRC 4335AB14
Track not present in AccurateRip database
Copy OK

Track 17

Filename D:_EACWade Legge Trio – Wade Legge Trio (2016) [FLAC] {Fresh Sound FSR-CD 894 rec 1953-55}17 – Spice (bonus track).wav

Peak level 97.7 %
Extraction speed 2.5 X
Track quality 100.0 %
Test CRC A4939761
Copy CRC A4939761
Track not present in AccurateRip database
Copy OK

Track 18

Filename D:_EACWade Legge Trio – Wade Legge Trio (2016) [FLAC] {Fresh Sound FSR-CD 894 rec 1953-55}18 – Music House (bonus track).wav

Peak level 92.4 %
Extraction speed 2.3 X
Track quality 99.9 %
Test CRC 733C43DF
Copy CRC 733C43DF
Track not present in AccurateRip database
Copy OK

Track 19

Filename D:_EACWade Legge Trio – Wade Legge Trio (2016) [FLAC] {Fresh Sound FSR-CD 894 rec 1953-55}19 – Joyce’s Choice (bonus track).wav

Peak level 92.4 %
Extraction speed 2.7 X
Track quality 100.0 %
Test CRC 304351F3
Copy CRC 304351F3
Track not present in AccurateRip database
Copy OK

Track 20

Filename D:_EACWade Legge Trio – Wade Legge Trio (2016) [FLAC] {Fresh Sound FSR-CD 894 rec 1953-55}20 – Spice (bonus track).wav

Peak level 98.4 %
Extraction speed 2.5 X
Track quality 100.0 %
Test CRC D206E5D8
Copy CRC D206E5D8
Track not present in AccurateRip database
Copy OK

Track 21

Filename D:_EACWade Legge Trio – Wade Legge Trio (2016) [FLAC] {Fresh Sound FSR-CD 894 rec 1953-55}21 – Bradley’s Beans (bonus track).wav

Peak level 94.8 %
Extraction speed 2.6 X
Track quality 100.0 %
Test CRC 8A2CCC0F
Copy CRC 8A2CCC0F
Track not present in AccurateRip database
Copy OK

Track 22

Filename D:_EACWade Legge Trio – Wade Legge Trio (2016) [FLAC] {Fresh Sound FSR-CD 894 rec 1953-55}22 – Sugar Hips (bonus track).wav

Peak level 94.8 %
Extraction speed 2.7 X
Track quality 100.0 %
Test CRC A1A95EB1
Copy CRC A1A95EB1
Track not present in AccurateRip database
Copy OK

None of the tracks are present in the AccurateRip database

No errors occurred

End of status report

==== Log checksum 4400A304900D95F24857E60DBBC00551523A27AE2E8D01FFD617F6EB016C9246 ====

Wade Legge Trio - Wade Legge Trio (2016) {Fresh Sound FSR-CD 894 rec 1953-55}

Wade Legge Trio - Wade Legge Trio (2016) {Fresh Sound FSR-CD 894 rec 1953-55}

thanks to Mal for help…

===

Wade Legge Trio – Wade Legge Trio (2016) {Fresh Sound FSR-CD 894 rec 1953-55} Download, Warez, DDL, Free, Full Album, Torrent, Legal.

Download