Voces8, The Senesino Players, Barnaby Smith – J.S. Bach: Motets (2010)

Download
Voces8, The Senesino Players, Barnaby Smith - J.S. Bach: Motets (2010)

Voces8, The Senesino Players, Barnaby Smith – J.S. Bach: Motets (2010)
EAC | FLAC (image+.cue, log) | Covers + Digital Booklet | 58:31 | 299 MB
Genre: Classical, Choral | Label: Signum Records | Catalog: 213

The young British crossover a cappella octet Voces8 sounds a bit like the King’s Singers and has been advised by its members. These are light, fleet, clear performances, not usually terms associated with Bach’s six motets. Even if Bach’s contrapuntally weighty and theologically hardcore motets are an odd choice of repertoire for such an ensemble, it’s fair to say that fans of the King’s Singers will enjoy checking out Voces8. It’s a bit of a misnomer for Voces8 to emphasize its status as an a cappella group in connection with this recording, for the motets are accompanied by an organ and a small group of strings. This is the fashion, however, and to go with the cutting-edge graphic design, Voces8 adopts another current trend simply by singing the motets with a small ensemble instead of a choir. The jury is very much out on this, for evidence that Bach’s choral music was sometimes performed this way doesn’t equal evidence that, in a time of scant material resources incomprehensible to modern performers, these were ideal performances. The chief musical argument in favor of small-group performances is that they enable a kind of madrigalian expressiveness, and here Voces8 achieves mixed results. At times (sample the opening of Jesu, meine Freude, track 4) the quick tempos lead them into mannered singing. But in general there’s a commitment here toward putting the meaning of the texts across, and this is ultimately what distinguishes a good Bach vocal performance from a rote one. This commitment is reflected in the translations of the motet texts into English in the booklet – not just parallel, but line by line, which is a practice more booklet editors ought to follow. This certainly doesn’t close any books on Bach’s motets, but it’s an intriguing and distinctive recording.

AllMusic

Voces8, The Senesino Players, Barnaby Smith - J.S. Bach: Motets (2010)

Track List:

Johann Sebastian Bach

[1] Singet dem Herrn ein neues Lied, BWV 225
[2] F├╝rchte dich nicht, ich bin bei dir, BWV 228
[3] Lobet den Herrn, alle Heiden, BWV 230
[4] Jesu, meine Freude, BWV 227
[5] Komm, Jesu, komm, BWV 229
[6] Der Geist hilft unser Schwachheit auf, BWV 226

Performers:
Voces8
The Senesino Players
Directed by Barnaby Smith

EAC Log
Exact Audio Copy V1.1 from 23. June 2015

EAC extraction logfile from 21. December 2015, 2:11

Voces8, The Senesino Players, Barnaby Smith / Bach – Motets

Used drive : HL-DT-STDVDRAM GU70N Adapter: 1 ID: 0

Read mode : Secure
Utilize accurate stream : Yes
Defeat audio cache : Yes
Make use of C2 pointers : No

Read offset correction : 48
Overread into Lead-In and Lead-Out : No
Fill up missing offset samples with silence : Yes
Delete leading and trailing silent blocks : No
Null samples used in CRC calculations : Yes
Used interface : Native Win32 interface for Win NT & 2000

Used output format : User Defined Encoder
Selected bitrate : 128 kBit/s
Quality : High
Add ID3 tag : No
Command line compressor : C:Program Files (x86)Exact Audio CopyFlacflac.exe
Additional command line options : -V -8 -T "Date=%year%" -T "Genre=%genre%" %source%

TOC of the extracted CD

Track | Start | Length | Start sector | End sector
––––––––––––––––––––––––––––-
1 | 0:00.00 | 11:45.17 | 0 | 52891
2 | 11:45.17 | 7:27.41 | 52892 | 86457
3 | 19:12.58 | 6:07.00 | 86458 | 113982
4 | 25:19.58 | 18:23.40 | 113983 | 196747
5 | 43:43.23 | 7:30.50 | 196748 | 230547
6 | 51:13.73 | 7:15.19 | 230548 | 263191

Range status and errors

Selected range

Filename C:tempBach – Motets – Voces8Bach – Motets.wav

Peak level 99.2 %
Extraction speed 2.0 X
Range quality 99.9 %
Test CRC E6293BCB
Copy CRC E6293BCB
Copy OK

No errors occurred

AccurateRip summary

Track 1 accurately ripped (confidence 3) [DB642464] (AR v2)
Track 2 accurately ripped (confidence 3) [68320B27] (AR v2)
Track 3 accurately ripped (confidence 3) [BD20929F] (AR v2)
Track 4 accurately ripped (confidence 3) [889184CB] (AR v2)
Track 5 accurately ripped (confidence 3) [727C01DA] (AR v2)
Track 6 accurately ripped (confidence 3) [2B938373] (AR v2)

All tracks accurately ripped

End of status report

==== Log checksum 70D1DFA1BDF48E52B288E541F11FED61D53CA042502805F576F8E1F4EF42A5C3 ====

CUETools Log
[CUETools log; Date: 19.12.2016 18:22:29; Version: 2.1.5]
[CTDB TOCID: LrwurVDuAjpuUPo5KM01o2bLraI-] found.
Track | CTDB Status
1 | (2/2) Accurately ripped
2 | (2/2) Accurately ripped
3 | (2/2) Accurately ripped
4 | (2/2) Accurately ripped
5 | (2/2) Accurately ripped
6 | (2/2) Accurately ripped
[AccurateRip ID: 000e66cd-004cc23f-420db506] found.
Track [ CRC | V2 ] Status
01 [5821e9d4|db642464] (0+3/3) Accurately ripped
02 [d7d40a9e|68320b27] (0+3/3) Accurately ripped
03 [e648bffe|bd20929f] (0+3/3) Accurately ripped
04 [3487ba0b|889184cb] (0+3/3) Accurately ripped
05 [99d4863f|727c01da] (0+3/3) Accurately ripped
06 [92c8027d|2b938373] (0+3/3) Accurately ripped

Track Peak [ CRC32 ] [W/O NULL] [ LOG ]
– 99,2 [E6293BCB] [AA8429B8] CRC32
01 85,3 [27B45142] [A37F853B]
02 99,2 [A886E04A] [8FA2DAF4]
03 74,2 [29DC876A] [368C647F]
04 85,3 [F95DDE7D] [50851CD0]
05 76,5 [09E4DD9A] [B6C738E4]
06 72,7 [7480439B] [EBDCEC27]

Thanks to the Original ripper A-Z!

Download:

Voces8, The Senesino Players, Barnaby Smith – J.S. Bach: Motets (2010) Download, Warez, DDL, Free, Full Album, Torrent, Legal.

Download