Vladimir Ashkenazy, Itzhak Perlman, Lynn Harrell – Beethoven: Piano Trios, Vol.1 (2003) (Repost) | ViralVideoPk

Daily Dose of Free Downloads

Vladimir Ashkenazy, Itzhak Perlman, Lynn Harrell – Beethoven: Piano Trios, Vol.1 (2003) (Repost)

Download

Vladimir Ashkenazy, Itzhak Perlman, Lynn Harrell - Beethoven: Piano Trios, Vol.1 (2003) (Repost)

Vladimir Ashkenazy, Itzhak Perlman, Lynn Harrell – BeethovenЖ Piano Trios, Vol.1 (2003)
EAC | FLAC (image+.cue, log) | Covers Included | 02:11:50 | 529 MB
Genre: Classical | Label: EMI classics | Catalog: 7243585493

If these performances of Beethoven’s earlier Piano Trios by Itzhak Perlman, Vladimir Ashkenazy, and Lynn Harrell are suave and sophisticated with a soupçon of sentimentality, well, that’s what modern performance practice was like in the ’80s. And if that sounds like an appealing manner in which to perform Beethoven’s earlier Piano Trios, this is the recording to hear. Perlman, Ashkenazy, and Harrell lean into Beethoven’s music, singing everything grandly, sounding everything gloriously, and souping everything up completely. One might argue that Beethoven’s Piano Trios, Op. 1, are too Viennese High Classical to respond well to their approach, that the works seem more maimed and mauled then persuasively performed, but one cannot deny that Perlman, Ashkenazy, and Harrell put every iota of their expressivity and virtuosity into their overpowering performances. EMI’s early digital sound has been pleasantly remastered for this CD reissue.

AllMusic

Vladimir Ashkenazy, Itzhak Perlman, Lynn Harrell - Beethoven: Piano Trios, Vol.1 (2003) (Repost)

Track List:

CD 1:
Piano Trio Es-dur op.1 No 1
1. Allegro (09:58)
2. Adagio Cantabile (09:09)
3. Allegro Assai (05:13)
4. Finale: Presto (07:44)
Piano Trio G-dur op.1 No 2
5. Adagio, Allegro Vivace (09:55)
6. Largo Con Espressione (11:26)
7. Scherzo: Allegro (03:43)
8. Finale: Presto (05:40)

EAC Log
Exact Audio Copy V0.99 prebeta 1 from 25. May 2007

EAC extraction logfile from 11. September 2009, 23:47

Vladimir Ashkenazy, Itzhak Perlman, Lynn Harrell / Beethoven: Piano Trios, Vol. 1 [Disc 1]

Used drive : Optiarc DVD RW AD-5200A Adapter: 0 ID: 0

Read mode : Secure
Utilize accurate stream : Yes
Defeat audio cache : Yes
Make use of C2 pointers : No

Read offset correction : 48
Overread into Lead-In and Lead-Out : No
Fill up missing offset samples with silence : Yes
Delete leading and trailing silent blocks : No
Used interface : Installed external ASPI interface

Used output format : User Defined Encoder
Selected bitrate : 128 kBit/s
Quality : High
Add ID3 tag : No
Command line compressor : C:Program FilesFLACflac.exe
Additional command line options : -8 -V -T "ARTIST=%a" -T "TITLE=%t" -T "ALBUM=%g" -T "DATE=%y" -T "TRACKNUMBER=%n" -T "GENRE=%m" -T "COMMENT=EAC FLAC -8" %s

TOC of the extracted CD

Track | Start | Length | Start sector | End sector
––––––––––––––––––––––––––––-
1 | 0:00.00 | 10:01.37 | 0 | 45111
2 | 10:01.37 | 9:12.58 | 45112 | 86569
3 | 19:14.20 | 5:15.67 | 86570 | 110261
4 | 24:30.12 | 7:50.18 | 110262 | 145529
5 | 32:20.30 | 9:59.20 | 145530 | 190474
6 | 42:19.50 | 11:29.47 | 190475 | 242196
7 | 53:49.22 | 3:46.25 | 242197 | 259171
8 | 57:35.47 | 5:40.30 | 259172 | 284701

Range status and errors

Selected range

Filename F:Documents and SettingsМоя музыкаBeethoven – Piano triosVladimir Ashkenazy, Itzhak Perlman, Lynn Harrell – Beethoven Piano Trios, Vol. 1 [Disc 1].wav

Peak level 98.9 %
Range quality 100.0 %
Test CRC DBA290EA
Copy CRC DBA290EA
Copy OK

No errors occurred

End of status report

CUETools Log
[CUETools log; Date: 31.12.2016 12:19:40; Version: 2.1.5]
[CTDB TOCID: x9DU3yHQjTCi2QUp5bEFr66mVag-] found.
Track | CTDB Status
1 | (35/35) Accurately ripped
2 | (35/35) Accurately ripped
3 | (35/35) Accurately ripped
4 | (35/35) Accurately ripped
5 | (34/35) Accurately ripped
6 | (35/35) Accurately ripped
7 | (35/35) Accurately ripped
8 | (35/35) Accurately ripped
[AccurateRip ID: 0014d034-0089372c-5e0ed408] found.
Track [ CRC | V2 ] Status
01 [a4d21f6a|33bbe5b5] (19+13/45) Accurately ripped
02 [90707a31|036e00cc] (19+13/45) Accurately ripped
03 [1de41403|3f679907] (18+13/44) Accurately ripped
04 [029bb54c|34316371] (18+13/44) Accurately ripped
05 [14c9a030|26562c5d] (19+13/44) Accurately ripped
06 [e61fcb3f|418337e0] (18+13/44) Accurately ripped
07 [8ea75510|ea3516ab] (18+13/44) Accurately ripped
08 [fdd6187a|abb3e26d] (18+13/44) Accurately ripped
Offsetted by -6:
01 [0968cea2] (05/45) Accurately ripped
02 [dcab268b] (05/45) Accurately ripped
03 [927fc31d] (05/44) Accurately ripped
04 [ffd3da06] (05/44) Accurately ripped
05 [29a0acce] (04/44) Accurately ripped
06 [b16b19a1] (05/44) Accurately ripped
07 [9844439a] (05/44) Accurately ripped
08 [5f643dd8] (05/44) Accurately ripped

Track Peak [ CRC32 ] [W/O NULL] [ LOG ]
– 98,9 [DBA290EA] [34781D65] CRC32
01 98,8 [871A6B0B] [82FF1C04]
02 75,4 [446E94CC] [57897AB1]
03 90,4 [57B4705A] [4378864D]
04 98,9 [375A1670] [5A208640]
05 96,7 [730B53A9] [636876BD]
06 69,8 [08558CD4] [B72ABA27]
07 82,9 [F3DD37C6] [30CA35AE]
08 98,8 [5E42CF88] [F82FE773]

CD 2:
Piano Trio C-dur op.1 No 3
1. Allegro Con Brio (07:15)
2. Andante Cantabile Con Variazioni (07:28)
3. Menuetto (03:53)
4. Finale: Prestissimo (07:28)
5. Piano Trio B-dur WoO 39 (05:27)
Piano Trio G-dur op.121a "Kakadu Variations"
6. Introduzione: Adagio Assai (05:31)
7. Tema (00:40)
8. Var. 1 (00:41)
9. Var. 2 ((00:40)
10. Var. 3 (00:47)
11. Var. 4 (00:41)
12. Var. 5 (00:43)
13. Var. 6 (00:40)
14. Var. 7 (00:53)
15. Var. 8 (00:41)
16. Var. 9 (02:12)
17. Var. 10 (03:47)
Piano Trio B-dur op.11
18. Allegro Con Brio (06:43)
19. Adagio (04:54)
20. Allegretto (07:07)

EAC Log
Exact Audio Copy V0.99 prebeta 1 from 25. May 2007

EAC extraction logfile from 12. September 2009, 0:33

Vladimir Ashkenazy, Itzhak Perlman, Lynn Harrell / Beethoven: Piano Trios, Vol. 1 [Disc 2]

Used drive : Optiarc DVD RW AD-5200A Adapter: 0 ID: 0

Read mode : Secure
Utilize accurate stream : Yes
Defeat audio cache : Yes
Make use of C2 pointers : No

Read offset correction : 48
Overread into Lead-In and Lead-Out : No
Fill up missing offset samples with silence : Yes
Delete leading and trailing silent blocks : No
Used interface : Installed external ASPI interface

Used output format : User Defined Encoder
Selected bitrate : 128 kBit/s
Quality : High
Add ID3 tag : No
Command line compressor : C:Program FilesFLACflac.exe
Additional command line options : -8 -V -T "ARTIST=%a" -T "TITLE=%t" -T "ALBUM=%g" -T "DATE=%y" -T "TRACKNUMBER=%n" -T "GENRE=%m" -T "COMMENT=EAC FLAC -8" %s

TOC of the extracted CD

Track | Start | Length | Start sector | End sector
––––––––––––––––––––––––––––-
1 | 0:00.00 | 7:17.30 | 0 | 32804
2 | 7:17.30 | 7:31.07 | 32805 | 66636
3 | 14:48.37 | 3:55.48 | 66637 | 84309
4 | 18:44.10 | 7:33.57 | 84310 | 118341
5 | 26:17.67 | 5:32.10 | 118342 | 143251
6 | 31:50.02 | 5:31.23 | 143252 | 168099
7 | 37:21.25 | 0:40.60 | 168100 | 171159
8 | 38:02.10 | 0:41.25 | 171160 | 174259
9 | 38:43.35 | 0:40.60 | 174260 | 177319
10 | 39:24.20 | 0:47.45 | 177320 | 180889
11 | 40:11.65 | 0:41.52 | 180890 | 184016
12 | 40:53.42 | 0:43.50 | 184017 | 187291
13 | 41:37.17 | 0:40.20 | 187292 | 190311
14 | 42:17.37 | 0:53.45 | 190312 | 194331
15 | 43:11.07 | 0:41.45 | 194332 | 197451
16 | 43:52.52 | 2:12.60 | 197452 | 207411
17 | 46:05.37 | 3:52.00 | 207412 | 224811
18 | 49:57.37 | 6:46.38 | 224812 | 255299
19 | 56:44.00 | 4:56.65 | 255300 | 277564
20 | 61:40.65 | 7:07.05 | 277565 | 309594

Range status and errors

Selected range

Filename F:Documents and SettingsМоя музыкаBeethoven – Piano triosVladimir Ashkenazy, Itzhak Perlman, Lynn Harrell – Beethoven Piano Trios, Vol. 1 [Disc 2].wav

Peak level 98.8 %
Range quality 100.0 %
Test CRC CF54F0A3
Copy CRC CF54F0A3
Copy OK

No errors occurred

End of status report

CUETools Log
[CUETools log; Date: 31.12.2016 12:20:24; Version: 2.1.5]
[CTDB TOCID: XT0OzwWdpv28FnhsOpeLhRqZ.m4-] found.
Track | CTDB Status
1 | (31/31) Accurately ripped
2 | (31/31) Accurately ripped
3 | (31/31) Accurately ripped
4 | (31/31) Accurately ripped
5 | (31/31) Accurately ripped
6 | (31/31) Accurately ripped
7 | (31/31) Accurately ripped
8 | (31/31) Accurately ripped
9 | (31/31) Accurately ripped
10 | (31/31) Accurately ripped
11 | (31/31) Accurately ripped
12 | (31/31) Accurately ripped
13 | (31/31) Accurately ripped
14 | (31/31) Accurately ripped
15 | (31/31) Accurately ripped
16 | (31/31) Accurately ripped
17 | (31/31) Accurately ripped
18 | (31/31) Accurately ripped
19 | (31/31) Accurately ripped
20 | (31/31) Accurately ripped
[AccurateRip ID: 0036184d-02d933bd-3c101f14] found.
Track [ CRC | V2 ] Status
01 [ff1e0c4b|7227abcd] (15+14/42) Accurately ripped
02 [2d1f21e8|ca8ff949] (14+14/41) Accurately ripped
03 [6f29ca4f|e07431c0] (14+13/40) Accurately ripped
04 [e10c2a29|f24c559b] (14+13/40) Accurately ripped
05 [fdc84af3|2c2b8899] (16+14/43) Accurately ripped
06 [8c79139f|f7b4a682] (16+14/43) Accurately ripped
07 [03f3ee49|3e5807a2] (16+14/43) Accurately ripped
08 [ee6b7db9|2bc1b0b2] (16+14/43) Accurately ripped
09 [9cb70e81|f682234c] (16+14/43) Accurately ripped
10 [77ceadeb|776af4b4] (16+14/43) Accurately ripped
11 [02a04305|7e5c5c5c] (16+14/43) Accurately ripped
12 [bea0f808|53b58454] (16+14/43) Accurately ripped
13 [740c5184|aa8d9378] (16+14/43) Accurately ripped
14 [91010db9|2527e652] (16+14/43) Accurately ripped
15 [a337c47e|a643aafd] (16+14/43) Accurately ripped
16 [4ad46218|6f98e275] (16+14/43) Accurately ripped
17 [8e921d5c|13694c32] (16+14/43) Accurately ripped
18 [fc837776|2953e4a9] (16+14/43) Accurately ripped
19 [19b0b819|bac342e5] (16+14/43) Accurately ripped
20 [44cfa4c1|1f13518f] (16+15/44) Accurately ripped
Offsetted by -6:
01 [b8b0a6c7] (05/42) Accurately ripped
02 [f5780174] (05/41) Accurately ripped
03 [4171b75b] (05/40) Accurately ripped
04 [a8407cb7] (05/40) Accurately ripped
05 [8908752f] (05/43) Accurately ripped
06 [3eaffcfe] (05/43) Accurately ripped
07 [0781fedb] (05/43) Accurately ripped
08 [e84e1772] (05/43) Accurately ripped
09 [fa73a001] (05/43) Accurately ripped
10 [f40fedce] (05/43) Accurately ripped
11 [09306340] (05/43) Accurately ripped
12 [59ea1910] (05/43) Accurately ripped
13 [b0920911] (05/43) Accurately ripped
14 [cdfa1180] (05/43) Accurately ripped
15 [c89db51f] (05/43) Accurately ripped
16 [39026b22] (05/43) Accurately ripped
17 [530031b5] (05/43) Accurately ripped
18 [c530d7c6] (05/43) Accurately ripped
19 [94beed9d] (05/43) Accurately ripped
20 [e61da19d] (05/44) Accurately ripped

Track Peak [ CRC32 ] [W/O NULL] [ LOG ]
– 98,8 [CF54F0A3] [811D4397] CRC32
01 98,8 [19FF4468] [A01C3F77]
02 50,1 [775E3629] [E8111861]
03 79,0 [4A833323] [F318493F]
04 90,0 [F824F630] [B70314D1]
05 39,9 [069844CD] [5E2D810B]
06 57,6 [835905FC] [7BB8811B]
07 36,2 [B7D41C54] [02F84FC3]
08 27,1 [8777D707] [DA19F1D2]
09 25,1 [F7B2E26B] [9F518AEF]
10 27,7 [63F21F58] [2E264B1B]
11 48,8 [5B011B51] [77B33878]
12 36,1 [6433F67F] [3E8CE223]
13 46,6 [71EA19E7] [62C0D9E9]
14 19,1 [D5CFAAD5] [28944938]
15 28,7 [BC05B847] [925CA4B6]
16 28,2 [5D1D3261] [0230D8E4]
17 85,6 [1E2631A2] [753E8650]
18 81,5 [08CEF3B1] [7BF38B32]
19 36,9 [CF706CAF] [4038706C]
20 67,2 [CBC95896] [5F2DF4C8]

Performers:
Itzhak Perlman (violin)
Vladimir Ashkenazy (piano)
Lynn Harrell (cello)

Thanks to the Original ripper Keikobad!

Download:

Vladimir Ashkenazy, Itzhak Perlman, Lynn Harrell – Beethoven: Piano Trios, Vol.1 (2003) (Repost) Download, Warez, DDL, Free, Full Album, Torrent, Legal.

Download


  • Recent Posts

  • Recent Tags