Vladimir Ashkenazy, Bernard Haitink – Rachmaninov: Piano Concerto No.1, Rhapsody on a Theme of Paganini (1987) (Repost)

Download
Vladimir Ashkenazy, Bernard Haitink - Rachmaninov: Piano Concerto No.1, Rhapsody on a Theme of Paganini (1987) (Repost)

Vladimir Ashkenazy, Bernard Haitink – Rachmaninov: Piano Concerto No.1, Rhapsody on a Theme of Paganini (1987)
EAC | FLAC (image+.cue, log) | Covers Included | 52:13 | 193 MB
Genre: Classical | Label: Decca | Catalog: 417 613-2

Rachmaninov’s opus 1, his first piano concerto, deserves to be heard more often. The opening bars have that heroic sound that raises the hair on the back of the neck. Indeed those first moments rank alongside those of the Grieg and Tchaikovsky piano concertos for their ability to thrill.
Ashkenazy’s breathtaking playing on a superb piano is matched by that of the Concertgebouw Orchestra under Haitink’s direction. Decca’s legendary recording techniques provide a breadth and depth to the sound that can be appreciated even at MP3 quality. With a good CD player and headphones the sound opens even more and is stunning both in its richness and clarity. All departments of the orchestra sound wonderful. Listen to the concerto’s final movement for the delightful triangle. The detail is magnificent and it’s as if one is standing with Bernard Haitink on his podium, totally immersed in this glorious music!
The Rhapsody on a Theme of Paganini with the Philharmonia orchestra again under Bernard Haitink is performed and recorded at the same high standard as the concerto.

AllMusic

Vladimir Ashkenazy, Bernard Haitink - Rachmaninov: Piano Concerto No.1, Rhapsody on a Theme of Paganini (1987) (Repost)

Track List:

Piano Concerto No. 1:
01. I Vivace [13:10]
02. II Andante [6:44]
03. III Allegro vivace [8:11]

Vladimir Ashkenazy – piano
Concertgebouw Orchestra of Amsterdam
Bernard Haitink, conductor

04. Rhapsody on a Theme of Paganini [24:07]

Vladimir Ashkenazy – piano
Philharmonia Orchestra
Bernard Haitink, conductor

EAC Log
Exact Audio Copy V0.99 prebeta 5 from 4. May 2009

EAC extraction logfile from 15. December 2009, 1:25

Rachmaninov / Piano Concerto No. 1 / Rhapsody on a Theme of Paganini (feat. piano: Vladimir Ashkenazy, conductor: Bernard Haitink)

Used drive : Optiarc DVD RW AD-7201S Adapter: 1 ID: 0

Read mode : Secure
Utilize accurate stream : Yes
Defeat audio cache : Yes
Make use of C2 pointers : No

Read offset correction : 48
Overread into Lead-In and Lead-Out : No
Fill up missing offset samples with silence : Yes
Delete leading and trailing silent blocks : No
Null samples used in CRC calculations : Yes
Used interface : Installed external ASPI interface
Gap handling : Appended to previous track

Used output format : User Defined Encoder
Selected bitrate : 128 kBit/s
Quality : High
Add ID3 tag : No
Command line compressor : C:Program FilesExact Audio CopyFlacflac.exe
Additional command line options : -V -8 -T "artist=%a" -T "title=%t" -T "album=%g" -T "date=%y" -T "tracknumber=%n" -T "genre=%m" %s

TOC of the extracted CD

Track | Start | Length | Start sector | End sector
––––––––––––––––––––––––––––-
1 | 0:00.32 | 13:10.35 | 32 | 59316
2 | 13:10.67 | 6:43.65 | 59317 | 89606
3 | 19:54.57 | 8:11.23 | 89607 | 126454
4 | 28:06.05 | 24:07.15 | 126455 | 234994

Track 1

Filename C:eac-spulRachmaninov – 1987 – Piano Concerto No. 1 , Rhapsody on a Theme of Paganini (feat. piano- Vladimir Ashkenazy, conductor- Bernard Haitink) [FLAC]1 – Piano Concerto No. 1 in F-sharp minor, Op. 1- I. Vivace.wav

Pre-gap length 0:00:02.42

Peak level 97.0 %
Track quality 100.0 %
Test CRC 8EEE7A50
Copy CRC 8EEE7A50
Accurately ripped (confidence 27) [F614A53D]
Copy OK

Track 2

Filename C:eac-spulRachmaninov – 1987 – Piano Concerto No. 1 , Rhapsody on a Theme of Paganini (feat. piano- Vladimir Ashkenazy, conductor- Bernard Haitink) [FLAC]2 – Piano Concerto No. 1 in F-sharp minor, Op. 1- II. Andante.wav

Pre-gap length 0:00:02.56

Peak level 53.8 %
Track quality 100.0 %
Test CRC FE2E14E0
Copy CRC FE2E14E0
Accurately ripped (confidence 27) [CB210E9C]
Copy OK

Track 3

Filename C:eac-spulRachmaninov – 1987 – Piano Concerto No. 1 , Rhapsody on a Theme of Paganini (feat. piano- Vladimir Ashkenazy, conductor- Bernard Haitink) [FLAC]3 – Piano Concerto No. 1 in F-sharp minor, Op. 1- III. Allegro vivace.wav

Peak level 98.0 %
Track quality 100.0 %
Test CRC 052C06EC
Copy CRC 052C06EC
Accurately ripped (confidence 27) [02248FDA]
Copy OK

Track 4

Filename C:eac-spulRachmaninov – 1987 – Piano Concerto No. 1 , Rhapsody on a Theme of Paganini (feat. piano- Vladimir Ashkenazy, conductor- Bernard Haitink) [FLAC]4 – Rhapsody on a Theme by Paganini, Op. 43.wav

Pre-gap length 0:00:02.66

Peak level 98.2 %
Track quality 100.0 %
Test CRC 90528BA1
Copy CRC 90528BA1
Accurately ripped (confidence 25) [53A29214]
Copy OK

All tracks accurately ripped

No errors occurred

End of status report

CUETools Log
[CUETools log; Date: 25.07.2017 11:43:35; Version: 2.1.5]
Pregap length 00:00:32.
[CTDB TOCID: q0yiMPV8kziB_2eDmCrXQGjr6ko-] found.
Track | CTDB Status
1 | (65/67) Accurately ripped
2 | (66/67) Accurately ripped
3 | (67/67) Accurately ripped
4 | (67/67) Accurately ripped
[AccurateRip ID: 0007c9c6-001f8f3a-3c0c3d04] found.
Track [ CRC | V2 ] Status
01 [f614a53d|8444180b] (045+042/154) Accurately ripped
02 [cb210e9c|9f0a84bd] (045+044/156) Accurately ripped
03 [02248fda|c8d41892] (045+045/156) Accurately ripped
04 [53a29214|4be5ad01] (043+043/153) Accurately ripped
Offsetted by -287:
01 [ccd63b9c] (002/154) Accurately ripped
02 [3dbb35ce] (002/156) Accurately ripped
03 [8e2c1662] (002/156) Accurately ripped
04 [c4306fa8] (002/153) Accurately ripped
Offsetted by 46:
01 [520b0a88] (003/154) Accurately ripped
02 [7935a4f3] (003/156) Accurately ripped
03 [d7e385c2] (003/156) Accurately ripped
04 [20976dac] (004/153) Accurately ripped
Offsetted by 710:
01 [5a9e98ea] (002/154) Accurately ripped
02 [fb0fd0b6] (002/156) Accurately ripped
03 [7435e5d1] (002/156) Accurately ripped
04 [1344818c] (002/153) Accurately ripped
Offsetted by 1374:
01 [6cbd702c] (010/154) Accurately ripped
02 [5d6ef42e] (010/156) Accurately ripped
03 [375ce143] (011/156) Accurately ripped
04 [05f1956c] (011/153) Accurately ripped
Offsetted by 1859:
01 [d58734e4] (005/154) Accurately ripped
02 [98874c67] (005/156) Accurately ripped
03 [732326a3] (005/156) Accurately ripped
04 [341d7f50] (005/153) Accurately ripped

Track Peak [ CRC32 ] [W/O NULL] [ LOG ]
– 98,2 [3471AE9C] [7DB0A0B1]
01 97,0 [8EEE7A50] [BF03CBBD] CRC32
02 53,8 [FE2E14E0] [C2E00F34] CRC32
03 98,0 [052C06EC] [1945F6D6] CRC32
04 98,2 [90528BA1] [7ECCF905] CRC32

Vladimir Ashkenazy, Bernard Haitink - Rachmaninov: Piano Concerto No.1, Rhapsody on a Theme of Paganini (1987) (Repost)

Thanks to the Original ripper (unknown)!

Download:

Vladimir Ashkenazy, Bernard Haitink – Rachmaninov: Piano Concerto No.1, Rhapsody on a Theme of Paganini (1987) (Repost) Download, Warez, DDL, Free, Full Album, Torrent, Legal.

Download