Virgil Gonsalves and Steve White – Jazz In Hollywood (1954) {Nocturne OJCCD-1889-2 rel 1997}

Download
Virgil Gonsalves and Steve White - Jazz In Hollywood (1954) {Nocturne OJCCD-1889-2 rel 1997}

Virgil Gonsalves and Steve White – Jazz In Hollywood (1954) {Nocturne OJCCD-1889-2 rel 1997}
EAC rip (secure mode) | FLAC (tracks)+CUE+LOG -> 145 Mb | MP3 @320 -> 97 Mb
Full Artwork @ 300 dpi (jpg) -> 20 Mb | 5% repair rar
© 1954, 1997 Nocturne Records / Fantasy / OJC | OJCCD-1889-2
Jazz / Cool / Bop / West Coast Jazz / Saxophone

The two obscure sets reissued on this single CD from Original Jazz Classics were originally released as 10" LPs by the Nocturne label. The first six numbers are West Coast cool jazz by a sextet featuring baritonist Virgil Gonsalves, valve trombonist Bob Enevoldsen, and tenor saxophonist Buddy Wise. These concise renditions of five standards and the obscure "Bounce" find the musicians in excellent form, making the most of each note. The second half of the CD is an unrelated quartet date by the eccentric tenor saxophonist Steve White, who is joined by pianist Jimmie Rowles, bassist Harry Babasin, and drummer Roy Harte; trombonist Herbie Harper is a big asset on "Topsy." White’s sound was quite influenced by Lester Young, while his odd singing (heard on "My New Jet Plane") is certainly unique. An interesting if not essential reissue.

Numerous jazz labels comprised the Fantasy family and its Original Jazz Classics series. The majority of OJC reissues were originally from Prestige, Riverside and Contemporary, but there were also smaller labels like Period and Nocturne. Here we get two 10"s from the latter California based label, both recorded in 1954 by Virgil Gonsalves and Steve White respectively. Gonsalves was a West Coast baritone sax player, and his session of six standards with a solid sextet – Bob Enevoldsen on valve trombone, Buddy Wise on tenor sax (only player I’d never heard of on this disc), Lou Levy on piano, Harry Babasin on bass and Larry Bunker on drums – is thoroughly enjoyable, if not spectacular. On the other hand, the Steve White session is horrible. The players are good enough – Babasin again with Jimmy Rowles on piano and Roy Harte on drums, with trombonist Herbie Harper making it a quintet on one track, "Topsy" – but White can’t decide whether to focus on his skillful tenor sax playing, or his annoying Bob Dorough-style vocals, on novelty tracks like "My New Jet Plane." Four stars for Gonsalves, but White only gets two – so three overall for what is ultimately an underwhelming disc.

Personnel:
Virgil Gonsalves Sextet (1-6):

Virgil Gonsalves – baritone saxophone
Bob Enevoldsen – valva trombone
Buddy Wise – tenor saxophone
Lou Levy – piano
Harry Babasin – bass
Larry Bunker – drums

Steve White Quartet/Quintet (7-12):
Steve White – tenor saxophone, vocal
Herbie Harper – trombone (7 only)
Jimmy Rowles – piano
Harry Babasin – bass
Roy Harte – drums

Track Listings
1. Bounce
2. Out Of Nowhere
3. Too Marvelous For Words
4. It Might As Well Be Spring
5. Yesterdays
6. Love Me Or Leave Me
7. Topsy
8. Crazy Rhythm
9. ‘Tis Autumn
10. Body And Soul
11. Tea For Two
12. My New Jet Plane

EAC log
Exact Audio Copy V1.0 beta 1 from 15. November 2010

EAC extraction logfile from 28. June 2012, 13:21

Various Artists / Virgil Gonsalves / Steve White: Jazz In Hollywood

Used drive : Optiarc DVD RW AD-7710H Adapter: 1 ID: 0

Read mode : Secure
Utilize accurate stream : Yes
Defeat audio cache : Yes
Make use of C2 pointers : No

Read offset correction : 48
Overread into Lead-In and Lead-Out : No
Fill up missing offset samples with silence : Yes
Delete leading and trailing silent blocks : No
Null samples used in CRC calculations : Yes
Used interface : Native Win32 interface for Win NT & 2000
Gap handling : Appended to previous track

Used output format : User Defined Encoder
Selected bitrate : 896 kBit/s
Quality : High
Add ID3 tag : No
Command line compressor : C:Program FilesExact Audio CopyFLACFLAC.EXE
Additional command line options : -8 -V -T "ARTIST=%a" -T "TITLE=%t" -T "ALBUM=%g" -T "DATE=%y" -T "TRACKNUMBER=%n" -T "GENRE=%m" -T "COMMENT=%e" %j–picture="%i"%j %s -o %d

TOC of the extracted CD

Track | Start | Length | Start sector | End sector
––––––––––––––––––––––––––––-
1 | 0:00.00 | 3:17.47 | 0 | 14821
2 | 3:17.47 | 2:30.05 | 14822 | 26076
3 | 5:47.52 | 4:06.40 | 26077 | 44566
4 | 9:54.17 | 3:56.58 | 44567 | 62324
5 | 13:51.00 | 3:26.47 | 62325 | 77821
6 | 17:17.47 | 2:32.60 | 77822 | 89281
7 | 19:50.32 | 6:53.15 | 89282 | 120271
8 | 26:43.47 | 5:50.63 | 120272 | 146584
9 | 32:34.35 | 2:22.47 | 146585 | 157281
10 | 34:57.07 | 2:27.55 | 157282 | 168361
11 | 37:24.62 | 3:24.45 | 168362 | 183706
12 | 40:49.32 | 4:24.33 | 183707 | 203539

Track 1

Filename C:MY RIPS1_Virgil Gonsalves Sextet – Bounce.wav

Pre-gap length 0:00:02.00

Peak level 82.1 %
Extraction speed 2.7 X
Track quality 100.0 %
Test CRC 5989569C
Copy CRC 5989569C
Track not present in AccurateRip database
Copy OK

Track 2

Filename C:MY RIPS2_Virgil Gonsalves Sextet – Out Of Nowhere.wav

Pre-gap length 0:00:02.02

Peak level 69.3 %
Extraction speed 2.1 X
Track quality 99.9 %
Test CRC 3831A7AB
Copy CRC 3831A7AB
Track not present in AccurateRip database
Copy OK

Track 3

Filename C:MY RIPS3_Virgil Gonsalves Sextet – Too Marvelous For Words.wav

Pre-gap length 0:00:02.10

Peak level 82.3 %
Extraction speed 3.2 X
Track quality 100.0 %
Test CRC 427B4657
Copy CRC 427B4657
Track not present in AccurateRip database
Copy OK

Track 4

Filename C:MY RIPS4_Virgil Gonsalves Sextet – It Might As Well Be Spring.wav

Pre-gap length 0:00:03.37

Peak level 86.3 %
Extraction speed 2.9 X
Track quality 99.9 %
Test CRC 7B80A2FE
Copy CRC 7B80A2FE
Track not present in AccurateRip database
Copy OK

Track 5

Filename C:MY RIPS5_Virgil Gonsalves Sextet – Yesterdays.wav

Pre-gap length 0:00:02.50

Peak level 87.3 %
Extraction speed 3.6 X
Track quality 100.0 %
Test CRC 4B0A3608
Copy CRC 4B0A3608
Track not present in AccurateRip database
Copy OK

Track 6

Filename C:MY RIPS6_Virgil Gonsalves Sextet – Love Me Or Leave Me.wav

Pre-gap length 0:00:03.35

Peak level 89.1 %
Extraction speed 3.6 X
Track quality 100.0 %
Test CRC DDA68505
Copy CRC DDA68505
Track not present in AccurateRip database
Copy OK

Track 7

Filename C:MY RIPS7_Stever White Quartet,Quintet – Topsy.wav

Pre-gap length 0:00:03.02

Peak level 100.0 %
Extraction speed 4.4 X
Track quality 100.0 %
Test CRC 68AABAA4
Copy CRC 68AABAA4
Track not present in AccurateRip database
Copy OK

Track 8

Filename C:MY RIPS8_Stever White Quartet,Quintet – Crazy Rhythm.wav

Pre-gap length 0:00:02.32

Peak level 100.0 %
Extraction speed 4.6 X
Track quality 100.0 %
Test CRC 7658F8B3
Copy CRC 7658F8B3
Track not present in AccurateRip database
Copy OK

Track 9

Filename C:MY RIPS9_Stever White Quartet,Quintet – ‘Tis Autumn.wav

Pre-gap length 0:00:03.35

Peak level 89.7 %
Extraction speed 4.3 X
Track quality 100.0 %
Test CRC DED7FAAB
Copy CRC DED7FAAB
Track not present in AccurateRip database
Copy OK

Track 10

Filename C:MY RIPS10_Stever White Quartet,Quintet – Body and Soul.wav

Pre-gap length 0:00:02.70

Peak level 91.2 %
Extraction speed 3.3 X
Track quality 99.9 %
Test CRC 3983858A
Copy CRC 3983858A
Track not present in AccurateRip database
Copy OK

Track 11

Filename C:MY RIPS11_Stever White Quartet,Quintet – Tea For Two.wav

Pre-gap length 0:00:03.17

Peak level 96.9 %
Extraction speed 4.8 X
Track quality 100.0 %
Test CRC A81C7E89
Copy CRC A81C7E89
Track not present in AccurateRip database
Copy OK

Track 12

Filename C:MY RIPS12_Stever White Quartet,Quintet – My New Jet Plane.wav

Pre-gap length 0:00:02.65

Peak level 91.3 %
Extraction speed 5.1 X
Track quality 100.0 %
Test CRC 4A5DCAE1
Copy CRC 4A5DCAE1
Track not present in AccurateRip database
Copy OK

None of the tracks are present in the AccurateRip database

No errors occurred

End of status report

==== Log checksum BB5509190499ABF4393395958045B66F9EE1C027B6CC334B92089F2D7EA483C2 ====

Virgil Gonsalves and Steve White - Jazz In Hollywood (1954) {Nocturne OJCCD-1889-2 rel 1997}

Virgil Gonsalves and Steve White - Jazz In Hollywood (1954) {Nocturne OJCCD-1889-2 rel 1997}

===

Virgil Gonsalves and Steve White – Jazz In Hollywood (1954) {Nocturne OJCCD-1889-2 rel 1997} Download, Warez, DDL, Free, Full Album, Torrent, Legal.

Download