Vinegar Joe – Vinegar Joe (1972) Remastered Reissue 2008 | ViralVideoPk

Daily Dose of Free Downloads

Vinegar Joe – Vinegar Joe (1972) Remastered Reissue 2008

Download

Vinegar Joe - Vinegar Joe (1972) Remastered Reissue 2008

Vinegar Joe – Vinegar Joe (1972) Remastered Reissue 2008
EAC | FLAC | Image (Cue&Log) ~ 358 Mb (incl 5%) | Mp3 (CBR320) ~ 135 Mb (incl 5%) | Scans ~ 70 Mb
Genre: Classic Rock, Boogie Rock, Blues Rock | Label: Lemon Recordings | # CD LEM 108 | Time: 00:56:04

2008 digitally remastered edition of the self titles album from this British outfit featuring one bonus track: ‘Speed Queen Of Ventura’. Vinegar Joe were fronted by the vocal talents of Robert Palmer and Elkie Brooks, who formed the band after the demise of the experimental Jazz rockists, Dada. The album was originally released in 1972 on Island Records. The CD booklet features sleeve notes and UK discography, including images of the three albums that the band released before their split in 1973.

Vinegar Joe might very easily have been Island Records’ answer to the Allman Bros. or Wet Willie. A sextet formed out of a busted big-band rock outfit called Dada, they were brought together at the suggestion of Island founder Chris Blackwell. Elkie Brooks (vocals), Robert Palmer (vocals, guitar), Pete Gage (guitars, piano), and Steve York (bass, harmonica), were at the core of the group, with Tim Hinkley and then Mike Deacon on keyboards, and Conrad Isadore and Keef Hartley, and then John Woods and Pete Gavin on drums–the band cut three albums for between 1971 and 1973. Their live shows were well reviewed and attracted significant audiences in England, but this was never reflected in their record sales. They split up in 1973, with Robert Palmer becoming an international star as a pop-rock blue-eyed soul singer and Elkie Brooks a success as an MOR singer with Pete Gage as her arranger.

Bruce Eder, Allmusic.com

Vinegar Joe - Vinegar Joe (1972) Remastered Reissue 2008

Vinegar Joe at Wiki

Tracklist:

01. Rusty Red Armour 4:58
02. Early Monday Morning 4:44
03. Ride Me Easy Rider 5:45
04. Circles 4:05
05. Leg Up 4:54
06. See The World (Through My Eyes) 6:15
07. Never Met A Dog 6:30
08. Avinu Malkenu 3:25
09. Gettin’ Out 5:10
10. Live A Little, Get Somewhere 5:21
Bonus Track:
11. Speed Queen Of Ventura 4:11

EAC log
Exact Audio Copy V1.0 beta 1 from 15. November 2010

EAC extraction logfile from 9. January 2013, 16:32

Vinegar Joe / Vinegar Joe

Used drive : Optiarc DVD RW AD-7263S Adapter: 3 ID: 0

Read mode : Secure
Utilize accurate stream : Yes
Defeat audio cache : Yes
Make use of C2 pointers : No

Read offset correction : 48
Overread into Lead-In and Lead-Out : No
Fill up missing offset samples with silence : Yes
Delete leading and trailing silent blocks : No
Null samples used in CRC calculations : Yes
Used interface : Installed external ASPI interface

Used output format : User Defined Encoder
Selected bitrate : 32 kBit/s
Quality : High
Add ID3 tag : No
Command line compressor : C:Program FilesExact Audio CopyFlacflac.exe
Additional command line options : -T "DATE=%y" -T "GENRE=%m" -8 -V %s

TOC of the extracted CD

Track | Start | Length | Start sector | End sector
––––––––––––––––––––––––––––-
1 | 0:00.00 | 5:07.36 | 0 | 23060
2 | 5:07.36 | 4:46.50 | 23061 | 44560
3 | 9:54.11 | 5:49.35 | 44561 | 70770
4 | 15:43.46 | 4:07.15 | 70771 | 89310
5 | 19:50.61 | 4:59.40 | 89311 | 111775
6 | 24:50.26 | 6:21.53 | 111776 | 140403
7 | 31:12.04 | 6:34.37 | 140404 | 169990
8 | 37:46.41 | 3:29.28 | 169991 | 185693
9 | 41:15.69 | 5:09.42 | 185694 | 208910
10 | 46:25.36 | 5:27.21 | 208911 | 233456
11 | 51:52.57 | 4:11.33 | 233457 | 252314

Range status and errors

Selected range

Filename C:Documents and SettingsmaximМои документыVinegar Joe – Vinegar Joe.wav

Peak level 100.0 %
Extraction speed 0.3 X
Range quality 100.0 %
Test CRC 3B674E56
Copy CRC 3B674E56
Copy OK

No errors occurred

AccurateRip summary

Track 1 cannot be verified as accurate (confidence 2) [2EE75639], AccurateRip returned [F33B3235]
Track 2 cannot be verified as accurate (confidence 2) [ADB4409A], AccurateRip returned [9F884A46]
Track 3 cannot be verified as accurate (confidence 2) [79B5FBEC], AccurateRip returned [C5DD52F6]
Track 4 cannot be verified as accurate (confidence 2) [135452B5], AccurateRip returned [DCDF7101]
Track 5 cannot be verified as accurate (confidence 2) [12347BEC], AccurateRip returned [70BDD2C8]
Track 6 cannot be verified as accurate (confidence 2) [EF4DD501], AccurateRip returned [677DBFED]
Track 7 cannot be verified as accurate (confidence 2) [C0B3720D], AccurateRip returned [01FCF01B]
Track 8 cannot be verified as accurate (confidence 2) [D6A6AF7A], AccurateRip returned [141C4CC6]
Track 9 cannot be verified as accurate (confidence 2) [942ACC42], AccurateRip returned [3AA3B026]
Track 10 cannot be verified as accurate (confidence 2) [CDB8A10D], AccurateRip returned [A0AA4CEB]
Track 11 cannot be verified as accurate (confidence 2) [7D1FAED7], AccurateRip returned [570FCC13]

No tracks could be verified as accurate
You may have a different pressing from the one(s) in the database

End of status report

==== Log checksum 38A25BBD443D78DA30C243FE9F7C4A76482B82485C1DF87F235E6841413BA3B1 ====

AR log
[CUETools log; Date: 22.12.2016 0:23:49; Version: 2.1.4]
[CTDB TOCID: UJI3ZTeH7WsJZ.GISFja3IZzBCk-] found.
Track | CTDB Status
1 | (6/6) Accurately ripped
2 | (6/6) Accurately ripped
3 | (6/6) Accurately ripped
4 | (6/6) Accurately ripped
5 | (6/6) Accurately ripped
6 | (6/6) Accurately ripped
7 | (6/6) Accurately ripped
8 | (6/6) Accurately ripped
9 | (6/6) Accurately ripped
10 | (6/6) Accurately ripped
11 | (6/6) Accurately ripped
[AccurateRip ID: 0017598c-00ca9f2c-ac0d240b] found.
Track [ CRC | V2 ] Status
01 [2ee75639|cfb650d3] (0+6/8) Accurately ripped
02 [adb4409a|036eb3d4] (0+6/8) Accurately ripped
03 [79b5fbec|90276a00] (0+6/8) Accurately ripped
04 [135452b5|40514b1d] (0+6/8) Accurately ripped
05 [12347bec|9908deb1] (0+6/8) Accurately ripped
06 [ef4dd501|7013a4cc] (0+6/8) Accurately ripped
07 [c0b3720d|b9924e3e] (0+6/8) Accurately ripped
08 [d6a6af7a|c7b699b3] (0+6/8) Accurately ripped
09 [942acc42|0e20624f] (0+6/8) Accurately ripped
10 [cdb8a10d|64e81998] (0+6/8) Accurately ripped
11 [7d1faed7|f072070b] (0+6/8) Accurately ripped
Offsetted by -42:
01 [f33b3235] (2/8) Accurately ripped
02 [9f884a46] (2/8) Accurately ripped
03 [c5dd52f6] (2/8) Accurately ripped
04 [dcdf7101] (2/8) Accurately ripped
05 [70bdd2c8] (2/8) Accurately ripped
06 [677dbfed] (2/8) Accurately ripped
07 [01fcf01b] (2/8) Accurately ripped
08 [141c4cc6] (2/8) Accurately ripped
09 [3aa3b026] (2/8) Accurately ripped
10 [a0aa4ceb] (2/8) Accurately ripped
11 [570fcc13] (2/8) Accurately ripped

Track Peak [ CRC32 ] [W/O NULL] [ LOG ]
– 99,9 [3B674E56] [EB1A1CAE] CRC32
01 97,8 [A0814111] [823756D6]
02 97,7 [094CAC49] [06916A89]
03 97,7 [AE032F48] [07178CC4]
04 97,7 [66495109] [E6E7214D]
05 97,7 [F0625B9B] [8D16D372]
06 97,7 [F89D1DCC] [8115D51A]
07 97,7 [18F77DF9] [0DE886D5]
08 97,7 [354B2A0D] [E70A3B49]
09 97,7 [04516498] [C0BEF511]
10 97,7 [75210E43] [7EF3DA5A]
11 99,9 [52E1C72A] [56D50497]

DR log
foobar2000 1.2 / Dynamic Range Meter 1.1.1
log date: 2016-12-22 00:35:14

––––––––––––––––––––––––––––––––––––––––
Analyzed: Vinegar Joe / Vinegar Joe
––––––––––––––––––––––––––––––––––––––––

DR Peak RMS Duration Track
––––––––––––––––––––––––––––––––––––––––
DR8 -0.19 dB -9.88 dB 5:07 01-Rusty Red Armour
DR7 -0.19 dB -10.10 dB 4:47 02-Early Monday Morning
DR8 -0.20 dB -11.20 dB 5:49 03-Ride Me Easy Rider
DR7 -0.20 dB -10.84 dB 4:07 04-Circles
DR9 -0.20 dB -11.50 dB 5:00 05-Leg Up
DR9 -0.20 dB -11.78 dB 6:22 06-See The World (Through My Eyes)
DR7 -0.19 dB -9.62 dB 6:34 07-Never Met A Dog (That Took To Me)
DR7 -0.19 dB -11.47 dB 3:29 08-Avinu Malkenu
DR7 -0.19 dB -9.82 dB 5:10 09-Gettin Out
DR9 -0.20 dB -12.70 dB 5:27 10-Live A Little Get Somewhere
DR10 0.00 dB -11.98 dB 4:11 11-Speed Queen Of Ventura
––––––––––––––––––––––––––––––––––––––––

Number of tracks: 11
Official DR value: DR8

Samplerate: 44100 Hz
Channels: 2
Bits per sample: 16
Bitrate: 850 kbps
Codec: FLAC
================================================================================

Vinegar Joe - Vinegar Joe (1972) Remastered Reissue 2008

Vinegar Joe - Vinegar Joe (1972) Remastered Reissue 2008

All thanks to original releaser – maxim69m

More interesting music in My Blog

Vinegar Joe – Vinegar Joe (1972) Remastered Reissue 2008 Download, Warez, DDL, Free, Full Album, Torrent, Legal.

Download


  • Recent Posts

  • Recent Tags