Vialka – Tonight I Show You Fuck (2002)

Download
Vialka - Tonight I Show You Fuck (2002)

Vialka – Tonight I Show You Fuck (2002)
EAC | Flac(Image) + Cue + Log & MP3 CBR 320Kbps
Regency Recordings | ~ 140 or 58 Mb | Scans(png) -> 26 Mb
Avant-Prog / Art-Punk

Vialka is a French avant-progressive band in the Rock in Opposition vein. Their music is a great mixture of genres and influences such as folk, rock, punk (in their musical "attitude", mostly) and Balkan music, notably. Formed in 2002, Vialka consists of Marylise Frecheville and Éric Boros.

Boros first learned trumpet in school, before self-teaching guitar, improvisation and composition too. Since then, he has become a great guitarist and singer, doing mostly dissonant vocals. He released lots of solo albums under different names, but predominantly Hermit. Of course, some solo albums were under his real name.
Éric Boros recorded albums with Jason Flower in a band named Third World Planet, also known as TWP. He was also involved in Waste Matrix, Subgenius and Dementia.

Marylise Frecheville is an academically-trained pianist and dancer. At the age of three, she was already giving live dance and drama performances. She started to play drums in a garage band, as a teen and later learned percussions at the Victoria Conservatory of Music. She released one solo album and two others with a band named Allun.

Vialka has a lot to offer with its music. It blends energy with humour and has a refined musical language. They released four albums, one split with Kruzenshtern I Parohod and two videos, all of great quality. They collaborated with influent artists such as Damo Suzuki and Jacopo Adreini and founded their own label, VIA. For lovers of craziness and rewarding music, this band is highly suggested.

~ progarchives

Vialka - Tonight I Show You Fuck (2002)

Vialka at Progarchives | Vialka at Discogs | Vialka at Allmusic | Vialka HomePage

***********

Vialka – Tonight I Show You Fuck (2002):

Vialka - Tonight I Show You Fuck (2002)

Tracklist:

1 Every Problem
2 La Proprete
3 You Knew…
4 Polski Ogorki
5 Baby Baby
6 Thessaloniki
7 Darger
8 The Vialka Marching Band

EAC Log
Exact Audio Copy V1.2 from 12. August 2016

EAC extraction logfile from 5. December 2016, 13:02

Vialka / Tonight I Show You Fuck

Used drive : PIONEER DVD-RW DVR-220RS Adapter: 1 ID: 1

Read mode : Secure
Utilize accurate stream : Yes
Defeat audio cache : Yes
Make use of C2 pointers : No

Read offset correction : 6
Overread into Lead-In and Lead-Out : No
Fill up missing offset samples with silence : Yes
Delete leading and trailing silent blocks : No
Null samples used in CRC calculations : Yes
Used interface : Native Win32 interface for Win NT & 2000

Used output format : User Defined Encoder
Selected bitrate : 768 kBit/s
Quality : High
Add ID3 tag : No
Command line compressor : C:Program Files (x86)Exact Audio CopyWavpackwavpack.exe
Additional command line options : -hm %source% %dest%

TOC of the extracted CD

Track | Start | Length | Start sector | End sector
––––––––––––––––––––––––––––-
1 | 0:00.00 | 2:17.69 | 0 | 10343
2 | 2:17.69 | 3:47.27 | 10344 | 27395
3 | 6:05.21 | 2:08.23 | 27396 | 37018
4 | 8:13.44 | 5:32.01 | 37019 | 61919
5 | 13:45.45 | 3:01.40 | 61920 | 75534
6 | 16:47.10 | 1:53.67 | 75535 | 84076
7 | 18:41.02 | 2:33.15 | 84077 | 95566
8 | 21:14.17 | 3:11.33 | 95567 | 109924

Range status and errors

Selected range

Filename C:_NL+__CDVialka – Tonight I Show You Fuck.wav

Peak level 96.5 %
Extraction speed 6.5 X
Range quality 100.0 %
Test CRC B9C2EAE1
Copy CRC B9C2EAE1
Copy OK

No errors occurred

AccurateRip summary

Track 1 not present in database
Track 2 not present in database
Track 3 not present in database
Track 4 not present in database
Track 5 not present in database
Track 6 not present in database
Track 7 not present in database
Track 8 not present in database

None of the tracks are present in the AccurateRip database

End of status report

–– CUETools DB Plugin V2.1.6

[CTDB TOCID: 6.hdMsuaI95Mx6ZyxRFLsJIgrJs-] disk not present in database
Submit result: 6.hdMsuaI95Mx6ZyxRFLsJIgrJs- has been uploaded

==== Log checksum 3D37511AB9357F2A6ABD30C930CE0EDFD8C30EDF94F1D01C4185B52B1EF84A49 ====

DR Log
foobar2000 1.2.9 / Dynamic Range Meter 1.1.1
log date: 2017-07-25 06:44:15

––––––––––––––––––––––––––––––––––––––––
Analyzed: Vialka / Tonight I Show You Fuck
––––––––––––––––––––––––––––––––––––––––

DR Peak RMS Duration Track
––––––––––––––––––––––––––––––––––––––––
DR7 -0.30 dB -9.60 dB 2:18 01-Every Problem
DR6 -0.30 dB -7.53 dB 3:47 02-La Proprete
DR7 -0.30 dB -9.52 dB 2:08 03-You Knew…
DR9 -0.30 dB -11.10 dB 5:32 04-Polski Ogorki
DR8 -0.30 dB -9.69 dB 3:02 05-Baby Don’t
DR7 -0.30 dB -9.92 dB 1:54 06-Thessaloniki
DR7 -0.30 dB -8.77 dB 2:33 07-Darger
DR7 -0.30 dB -9.69 dB 3:11 08-The Vialka Marching Band
––––––––––––––––––––––––––––––––––––––––

Number of tracks: 8
Official DR value: DR7

Samplerate: 44100 Hz
Channels: 2
Bits per sample: 16
Bitrate: 773 kbps
Codec: FLAC

CUETools Log
[CUETools log; Date: 25.07.2017 6:43:59; Version: 2.1.4]
[CTDB TOCID: 6.hdMsuaI95Mx6ZyxRFLsJIgrJs-] found.
Track | CTDB Status
1 | (1/1) Accurately ripped
2 | (1/1) Accurately ripped
3 | (1/1) Accurately ripped
4 | (1/1) Accurately ripped
5 | (1/1) Accurately ripped
6 | (1/1) Accurately ripped
7 | (1/1) Accurately ripped
8 | (1/1) Accurately ripped
[AccurateRip ID: 0007a817-00333603-6305b908] disk not present in database.

Track Peak [ CRC32 ] [W/O NULL] [ LOG ]
– 96,5 [B9C2EAE1] [0761E19D] CRC32
01 96,5 [B6636BE1] [12960406]
02 96,5 [4D520D88] [CBE7791D]
03 96,5 [ECD27B3E] [5E60E1F1]
04 96,5 [78173922] [996C9A35]
05 96,5 [DFBAC8A9] [ED5D2C4F]
06 96,5 [2293DC5F] [1BD403EA]
07 96,5 [2D8689D5] [76D7F017]
08 96,5 [4BE2546F] [39A427CA]

Vialka - Tonight I Show You Fuck (2002)

All thanks go to tatuk

Vialka: 4CD Collection (2005 – 2014)
Vialka – Everywhere and Nowhere (2004) DVD

Download Vialka – Tonight I Show You Fuck (2002):

Vialka – Tonight I Show You Fuck (2002) Download, Warez, DDL, Free, Full Album, Torrent, Legal.

Download