Vasen – Vasen Street (2009) {NorthSide NSD6096}

Download
Vasen - Vasen Street (2009) {NorthSide NSD6096}

Väsen – Väsen Street (2009) {NorthSide NSD6096}
EAC rip (secure mode) | FLAC (tracks)+CUE+LOG -> 366 Mb | MP3 @320 -> 128 Mb
Full Artwork @ 600 dpi (jpg) -> 91 Mb | 5% repair rar
© 2009 NorthSide / Vasen and East Side | NSD6096
Folk / Nordic Folk / World Music / Sweden / Acoustic

Sweden’s leading acoustic trio mark their 20th year together with a studio recording of new tunes. The band and its mostly original repertoire are already legendary among string players all over the world, and Väsen Street will only further their status with its brilliant ensemble interplay and brain-sticking melodies.

Väsen (Sw. Essence) is a unique group, contemporary musicians with thorough commitment to the authentic traditions and styles of Swedish folk music but with the technical skills on their instruments to impress and satisfy classical music "snobs’ like me. At the heart of the ensemble is Olov Johansson’s "nykelharpa", a fiddle fretted with keys by the left hand while the right hand wields a short slack bow. The instrument can produce any of several drone pitches, with an effect that may remind some first-time listeners of Irish or Scottish music. The other instruments you’ll hear from the trio are a viola and a twelve-string guitar; this is plainly not a standard folk instrumentation, but it’s one that provides immense possibilities of tone color and rhythmic accentuation.

Swedish folk music has an ancient penchant for minor keys, as you’ll hear on almost every track of this CD. People tell me that it sounds melancholy; they often presume that it reflects the ‘dark’ temperament of Swedish culture as portrayed by Ingmar Bergman. Welllll… Bergman was gloomy, it’s true, but most of Väsen’s music is dance based, and if ever you go upcountry in the summer in Sweden, where people have their "stugas" (summer huts), and see the folk dancing, you’ll come away with a different sense of Swedish joy. Minor is our major.

Vasen - Vasen Street (2009) {NorthSide NSD6096}

Väsen is:
Olov Johansson
Roger Tallroth
Mikael Marin

Track List:
1. Rob’s Polska (Olov Johansson)
2. Skräplandschottis (Mikael Marin)
3. Botanisten (The Botanist) (Mikael Marin)
4. Gubben Wester (Roger Tallroth)
5. Polska till Wik (Leonard Larsson)
6. Garageschottis (Mikael Marin)
7. The Late Waltz (Roger Tallroth)
8. Asko Pasko Polska (Olov Johansson)
9. Väsen Street (Olov Johansson)
10. Absolute Swedish (featuring Mike Marshall & Darol Anger) (Roger Tallroth)
11. Mördar Cajsas Polska (Olov Johansson)
12. Hagsätra Brudmarsch (Olov Johansson)
13. Lille Skutt (trad. Byss-Calle)
14. Tunggus och Lintas(Mikael Marin)
15. Eklunda Polska nr 3 (Leonard Larsson, or Viksta-Lasse )
16. Yoko (Mikael Marin)

EAC log
Exact Audio Copy V1.0 beta 3 from 29. August 2011

EAC extraction logfile from 24. June 2013, 18:10

Vasen / Vasen Street

Used drive : Optiarc DVD RW AD-5280S Adapter: 4 ID: 0

Read mode : Secure
Utilize accurate stream : Yes
Defeat audio cache : Yes
Make use of C2 pointers : No

Read offset correction : 48
Overread into Lead-In and Lead-Out : No
Fill up missing offset samples with silence : Yes
Delete leading and trailing silent blocks : No
Null samples used in CRC calculations : Yes
Used interface : Native Win32 interface for Win NT & 2000
Gap handling : Appended to previous track

Used output format : User Defined Encoder
Selected bitrate : 768 kBit/s
Quality : High
Add ID3 tag : No
Command line compressor : C:Program FilesExact Audio CopyFLACFLAC.EXE
Additional command line options : -8 -V -T "ARTIST=%artist%" -T "TITLE=%title%" -T "ALBUM=%albumtitle%" -T "DATE=%year%" -T "TRACKNUMBER=%tracknr%" -T "TOTALTRACKS=%numtracks%" -T "GENRE=%genre%" -T "ALBUMARTIST=%albumartist%" -T "ALBUM ARTIST=%albumartist%" -T "COMMENT=EAC Secure Mode, Test & Copy, AccurateRip, FLAC -8" %source%

TOC of the extracted CD

Track | Start | Length | Start sector | End sector
––––––––––––––––––––––––––––-
1 | 0:00.00 | 3:24.56 | 0 | 15355
2 | 3:24.56 | 2:40.52 | 15356 | 27407
3 | 6:05.33 | 3:42.37 | 27408 | 44094
4 | 9:47.70 | 3:32.44 | 44095 | 60038
5 | 13:20.39 | 3:22.15 | 60039 | 75203
6 | 16:42.54 | 3:17.43 | 75204 | 90021
7 | 20:00.22 | 3:34.14 | 90022 | 106085
8 | 23:34.36 | 2:58.59 | 106086 | 119494
9 | 26:33.20 | 3:19.46 | 119495 | 134465
10 | 29:52.66 | 6:00.57 | 134466 | 161522
11 | 35:53.48 | 2:42.45 | 161523 | 173717
12 | 38:36.18 | 2:57.01 | 173718 | 186993
13 | 41:33.19 | 2:39.62 | 186994 | 198980
14 | 44:13.06 | 3:32.14 | 198981 | 214894
15 | 47:45.20 | 2:38.50 | 214895 | 226794
16 | 50:23.70 | 5:02.55 | 226795 | 249499

Track 1

Filename F:Vasen – Vasen Street (2009) [FLAC] {NorthSide NSD6096}1 – Rob’s Polska.wav

Pre-gap length 0:00:02.00

Peak level 96.6 %
Extraction speed 2.3 X
Track quality 100.0 %
Test CRC 33F2C6C3
Copy CRC 33F2C6C3
Track not present in AccurateRip database
Copy OK

Track 2

Filename F:Vasen – Vasen Street (2009) [FLAC] {NorthSide NSD6096}2 – Skraplandschottis.wav

Peak level 96.6 %
Extraction speed 2.0 X
Track quality 99.9 %
Test CRC 009406D9
Copy CRC 009406D9
Track not present in AccurateRip database
Copy OK

Track 3

Filename F:Vasen – Vasen Street (2009) [FLAC] {NorthSide NSD6096}3 – Botanisten.wav

Peak level 96.6 %
Extraction speed 2.7 X
Track quality 100.0 %
Test CRC 592347CE
Copy CRC 592347CE
Track not present in AccurateRip database
Copy OK

Track 4

Filename F:Vasen – Vasen Street (2009) [FLAC] {NorthSide NSD6096}4 – Gubben Wester.wav

Peak level 96.6 %
Extraction speed 2.9 X
Track quality 100.0 %
Test CRC ECB53E64
Copy CRC ECB53E64
Track not present in AccurateRip database
Copy OK

Track 5

Filename F:Vasen – Vasen Street (2009) [FLAC] {NorthSide NSD6096}5 – Polska till Wik.wav

Peak level 96.6 %
Extraction speed 2.7 X
Track quality 99.9 %
Test CRC 28B290BD
Copy CRC 28B290BD
Track not present in AccurateRip database
Copy OK

Track 6

Filename F:Vasen – Vasen Street (2009) [FLAC] {NorthSide NSD6096}6 – Garageschottis.wav

Peak level 96.6 %
Extraction speed 3.2 X
Track quality 100.0 %
Test CRC 753FBCA4
Copy CRC 753FBCA4
Track not present in AccurateRip database
Copy OK

Track 7

Filename F:Vasen – Vasen Street (2009) [FLAC] {NorthSide NSD6096}7 – The Late Waltz.wav

Peak level 96.6 %
Extraction speed 3.4 X
Track quality 100.0 %
Test CRC B5F32193
Copy CRC B5F32193
Track not present in AccurateRip database
Copy OK

Track 8

Filename F:Vasen – Vasen Street (2009) [FLAC] {NorthSide NSD6096}8 – Asko Pasko Polska.wav

Peak level 96.6 %
Extraction speed 3.5 X
Track quality 100.0 %
Test CRC 687635D1
Copy CRC 687635D1
Track not present in AccurateRip database
Copy OK

Track 9

Filename F:Vasen – Vasen Street (2009) [FLAC] {NorthSide NSD6096}9 – Vasen Street.wav

Peak level 96.6 %
Extraction speed 3.7 X
Track quality 100.0 %
Test CRC B49EFEAF
Copy CRC B49EFEAF
Track not present in AccurateRip database
Copy OK

Track 10

Filename F:Vasen – Vasen Street (2009) [FLAC] {NorthSide NSD6096}10 – Absolute Swedish.wav

Peak level 96.6 %
Extraction speed 4.2 X
Track quality 100.0 %
Test CRC 79D4ECAD
Copy CRC 79D4ECAD
Track not present in AccurateRip database
Copy OK

Track 11

Filename F:Vasen – Vasen Street (2009) [FLAC] {NorthSide NSD6096}11 – Mordar-Cajsas Polska.wav

Peak level 96.6 %
Extraction speed 3.9 X
Track quality 100.0 %
Test CRC 5198C4AE
Copy CRC 5198C4AE
Track not present in AccurateRip database
Copy OK

Track 12

Filename F:Vasen – Vasen Street (2009) [FLAC] {NorthSide NSD6096}12 – Hagsatra Brudmarsch.wav

Peak level 96.6 %
Extraction speed 4.1 X
Track quality 100.0 %
Test CRC 13AB286E
Copy CRC 13AB286E
Track not present in AccurateRip database
Copy OK

Track 13

Filename F:Vasen – Vasen Street (2009) [FLAC] {NorthSide NSD6096}13 – Lille Skutt.wav

Peak level 96.6 %
Extraction speed 4.1 X
Track quality 100.0 %
Test CRC 59A25E90
Copy CRC 59A25E90
Track not present in AccurateRip database
Copy OK

Track 14

Filename F:Vasen – Vasen Street (2009) [FLAC] {NorthSide NSD6096}14 – Tunggus Lintas.wav

Peak level 96.6 %
Extraction speed 4.4 X
Track quality 100.0 %
Test CRC 45DBB963
Copy CRC 45DBB963
Track not present in AccurateRip database
Copy OK

Track 15

Filename F:Vasen – Vasen Street (2009) [FLAC] {NorthSide NSD6096}15 – Eklunda Polska nr 3.wav

Peak level 96.6 %
Extraction speed 3.7 X
Track quality 99.9 %
Test CRC A5C5EF1C
Copy CRC A5C5EF1C
Track not present in AccurateRip database
Copy OK

Track 16

Filename F:Vasen – Vasen Street (2009) [FLAC] {NorthSide NSD6096}16 – Yoko.wav

Peak level 96.6 %
Extraction speed 4.8 X
Track quality 100.0 %
Test CRC C41CCE04
Copy CRC C41CCE04
Track not present in AccurateRip database
Copy OK

None of the tracks are present in the AccurateRip database

No errors occurred

End of status report

==== Log checksum 25457D7441C2832928F4D65671B988537A2ADDB8BB69BA85EED0C7F5BAD02574 ====

Vasen - Vasen Street (2009) {NorthSide NSD6096}

Vasen - Vasen Street (2009) {NorthSide NSD6096}

see more Nordic Folk…

NEXT -> more Nordic Folk music on the way…

===

Vasen – Vasen Street (2009) {NorthSide NSD6096} Download, Warez, DDL, Free, Full Album, Torrent, Legal.

Download