Various Artists – The Golden Age Of American Popular Music – More Country Hits (2016) {Ace Records CDCHD 1469 rec 1955-63} | ViralVideoPk

Daily Dose of Free Downloads

Various Artists – The Golden Age Of American Popular Music – More Country Hits (2016) {Ace Records CDCHD 1469 rec 1955-63}

Download

Various Artists - The Golden Age Of American Popular Music - More Country Hits (2016) {Ace Records CDCHD 1469 rec 1955-63}

Various Artists – The Golden Age Of American Popular Music – More Country Hits (2016) {Ace Records CDCHD 1469 rec 1955-63}
EAC rip (secure mode) | FLAC (tracks)+CUE+LOG -> 347 Mb | MP3 @320 -> 167 Mb
Full Artwork @ 300 dpi (jpg) -> 91 Mb | 5% repair rar
© 1955-63, 2016 Ace Records | CDCHD 1469
Country / Classic Country / Country Folk

Ace’s flagship “Golden Age” series continues to be among our best selling and most highly respected releases. After a short hiatus, we’re pleased to announce this new volume featuring 28 country recordings that made the Billboard Hot 100 between 1955 and 1963. As “More Country Hits” is in the “Golden Age Of American Popular Music” series, the content is more melodic overall than a “Golden Age Of American Rock’n’Roll” edition might be. Nevertheless, there’s a generous helping of up-tempo hillbilly and borderline rockabilly among the straight-ahead country to give listeners a bit of light and shade. As usual, the CD comes with a generously illustrated and copiously annotated booklet.

Various Artists - The Golden Age Of American Popular Music - More Country Hits (2016) {Ace Records CDCHD 1469 rec 1955-63}

The tracks transport us to a time when State Fairs were more likely to be on a country performer’s itinerary than stadiums, and superstardom meant you stayed for an extra hour or two after your show to sign autographs, rather than successfully market your own fragrance range. A promotional campaign might have meant a solitary trade ad in the back of Billboard, while radio airplay was the main way of getting your music heard, rather than streaming. These singles became hits because they sold in their thousands, hundreds of thousands, and occasionally millions. That’s what it took to get a record into the national charts in the ultra-competitive 50s and 60s.

Just about every big-selling country artist of the era is included. We’ve tried not to always go for an obvious hit, but there’s music here that will be remembered fondly by anyone who was around when these were new records. Many featured tracks have since come to be regarded as genre classics. If you can’t remember Ferlin Husky’s ‘The Waltz You Saved For Me’ too clearly, tracks such as Marty Robbins’ original of ‘Singing The Blues’, Johnny Horton’s ‘North To Alaska’ or Jim Reeves’ groundbreaking ‘Four Walls’ will surely not have slipped your mind.

Various Artists - The Golden Age Of American Popular Music - More Country Hits (2016) {Ace Records CDCHD 1469 rec 1955-63}

tracklist & personnel:
01 – Jim Reeves – Four Walls
02 – Eddy Arnold – Chip Off The Old Block
03 – Hank Locklin – Send Me The Pillow You Dream On
04 – Johnny Horton – North To Alaska
05 – Johnny Cash – I Got Stripes
06 – Faron Young – Back Track
07 – Patti Page – Go On Home
08 – Don Gibson – Blue Blue Day
09 – Carl Perkins – Boppin’ The Blues
10 – George Jones – Who Shot Sam
11 – Leroy Van Dyke – The Auctioneer
12 – Stonewall Jackson – Mary Don’t You Weep
13 – Bonnie Guitar – Dark Moon
14 – Hank Snow – Rockin’ Rollin’ Ocean
15 – Ray Price – My Shoes Keep Walking Back To You
16 – Sonny James – Jenny Lou
17 – Claude King – Big River, Big Man
18 – Skeeter Davis – I’m Saving My Love
19 – Hawkshaw Hawkins – Soldier’s Joy
20 – Bobby Bare – 500 Miles Away From Home
21 – Tex Ritter – I Dreamed Of A Hillbilly Heaven
22 – Dave Dudley – Cowboy Boots
23 – Bill Anderson – 8 X 10
24 – Jimmy Dean – Little Black Book
25 – Carl Smith – Your Name Is Beautiful
26 – Jerry Lee Lewis – I’ll Make It All Up To You
27 – Ferlin Husky – The Waltz You Saved For Me
28 – Marty Robbins – Singing The Blues

EAC log
Exact Audio Copy V1.0 beta 6 from 9. April 2015

EAC extraction logfile from 13. May 2016, 20:57

Various Artists / The Golden Age Of American Popular Music: More Country Hits

Used drive : TSSTcorpCDDVDW SH-224BB Adapter: 1 ID: 0

Read mode : Secure
Utilize accurate stream : Yes
Defeat audio cache : Yes
Make use of C2 pointers : No

Read offset correction : 6
Overread into Lead-In and Lead-Out : No
Fill up missing offset samples with silence : Yes
Delete leading and trailing silent blocks : No
Null samples used in CRC calculations : Yes
Used interface : Native Win32 interface for Win NT & 2000
Gap handling : Appended to previous track

Used output format : User Defined Encoder
Selected bitrate : 768 kBit/s
Quality : High
Add ID3 tag : No
Command line compressor : C:Program Files (x86)Exact Audio CopyFlacflac.exe
Additional command line options : -8 -V -T "ARTIST=%artist%" -T "TITLE=%title%" -T "ALBUM=%albumtitle%" -T "DATE=%year%" -T "TRACKNUMBER=%tracknr%" -T "TOTALTRACKS=%numtracks%" -T "GENRE=%genre%" -T "ALBUMARTIST=%albumartist%" -T "ALBUM ARTIST=%albumartist%" -T "COMMENT=EAC Secure Mode, Test & Copy, AccurateRip, FLAC -8" %source%

TOC of the extracted CD

Track | Start | Length | Start sector | End sector
––––––––––––––––––––––––––––-
1 | 0:00.00 | 2:51.18 | 0 | 12842
2 | 2:51.18 | 2:09.72 | 12843 | 22589
3 | 5:01.15 | 2:31.18 | 22590 | 33932
4 | 7:32.33 | 2:50.09 | 33933 | 46691
5 | 10:22.42 | 2:06.11 | 46692 | 56152
6 | 12:28.53 | 2:05.43 | 56153 | 65570
7 | 14:34.21 | 2:33.06 | 65571 | 77051
8 | 17:07.27 | 1:55.65 | 77052 | 85741
9 | 19:03.17 | 2:51.17 | 85742 | 98583
10 | 21:54.34 | 2:23.37 | 98584 | 109345
11 | 24:17.71 | 2:54.72 | 109346 | 122467
12 | 27:12.68 | 2:29.28 | 122468 | 133670
13 | 29:42.21 | 2:42.68 | 133671 | 145888
14 | 32:25.14 | 2:33.10 | 145889 | 157373
15 | 34:58.24 | 2:36.10 | 157374 | 169083
16 | 37:34.34 | 2:33.19 | 169084 | 180577
17 | 40:07.53 | 2:28.26 | 180578 | 191703
18 | 42:36.04 | 2:01.72 | 191704 | 200850
19 | 44:38.01 | 2:23.26 | 200851 | 211601
20 | 47:01.27 | 2:43.26 | 211602 | 223852
21 | 49:44.53 | 3:11.51 | 223853 | 238228
22 | 52:56.29 | 2:14.15 | 238229 | 248293
23 | 55:10.44 | 2:51.49 | 248294 | 261167
24 | 58:02.18 | 2:26.74 | 261168 | 272191
25 | 60:29.17 | 2:42.20 | 272192 | 284361
26 | 63:11.37 | 3:06.59 | 284362 | 298370
27 | 66:18.21 | 3:03.09 | 298371 | 312104
28 | 69:21.30 | 2:27.40 | 312105 | 323169

Track 1

Filename C:RipsVarious Artists – The Golden Age Of American Popular Music More Country Hits (2016) [FLAC]1 – Jim Reeves – Four Walls.wav

Pre-gap length 0:00:02.00

Peak level 96.1 %
Extraction speed 1.6 X
Track quality 100.0 %
Test CRC F15A600A
Copy CRC F15A600A
Track not present in AccurateRip database
Copy OK

Track 2

Filename C:RipsVarious Artists – The Golden Age Of American Popular Music More Country Hits (2016) [FLAC]2 – Eddy Arnold – Chip Off The Old Block.wav

Pre-gap length 0:00:01.54

Peak level 96.1 %
Extraction speed 1.6 X
Track quality 100.0 %
Test CRC 2CA0D146
Copy CRC 2CA0D146
Track not present in AccurateRip database
Copy OK

Track 3

Filename C:RipsVarious Artists – The Golden Age Of American Popular Music More Country Hits (2016) [FLAC]3 – Hank Locklin – Send Me The Pillow You Dream On.wav

Pre-gap length 0:00:01.01

Peak level 95.5 %
Extraction speed 1.8 X
Track quality 100.0 %
Test CRC 689079A7
Copy CRC 689079A7
Track not present in AccurateRip database
Copy OK

Track 4

Filename C:RipsVarious Artists – The Golden Age Of American Popular Music More Country Hits (2016) [FLAC]4 – Johnny Horton – North To Alaska.wav

Pre-gap length 0:00:02.67

Peak level 95.8 %
Extraction speed 1.9 X
Track quality 100.0 %
Test CRC 10ED67C9
Copy CRC 10ED67C9
Track not present in AccurateRip database
Copy OK

Track 5

Filename C:RipsVarious Artists – The Golden Age Of American Popular Music More Country Hits (2016) [FLAC]5 – Johnny Cash – I Got Stripes.wav

Pre-gap length 0:00:01.72

Peak level 96.2 %
Extraction speed 1.5 X
Track quality 99.9 %
Test CRC 44C3EBA1
Copy CRC 44C3EBA1
Track not present in AccurateRip database
Copy OK

Track 6

Filename C:RipsVarious Artists – The Golden Age Of American Popular Music More Country Hits (2016) [FLAC]6 – Faron Young – Back Track.wav

Pre-gap length 0:00:02.50

Peak level 95.1 %
Extraction speed 2.0 X
Track quality 100.0 %
Test CRC A91CA700
Copy CRC A91CA700
Track not present in AccurateRip database
Copy OK

Track 7

Filename C:RipsVarious Artists – The Golden Age Of American Popular Music More Country Hits (2016) [FLAC]7 – Patti Page – Go On Home.wav

Pre-gap length 0:00:02.26

Peak level 86.7 %
Extraction speed 1.7 X
Track quality 99.9 %
Test CRC B412F7D5
Copy CRC B412F7D5
Track not present in AccurateRip database
Copy OK

Track 8

Filename C:RipsVarious Artists – The Golden Age Of American Popular Music More Country Hits (2016) [FLAC]8 – Don Gibson – Blue Blue Day.wav

Pre-gap length 0:00:02.52

Peak level 96.1 %
Extraction speed 1.5 X
Track quality 99.9 %
Test CRC CDCE976A
Copy CRC CDCE976A
Track not present in AccurateRip database
Copy OK

Track 9

Filename C:RipsVarious Artists – The Golden Age Of American Popular Music More Country Hits (2016) [FLAC]9 – Carl Perkins – Boppin’ The Blues.wav

Pre-gap length 0:00:02.36

Peak level 96.2 %
Extraction speed 2.3 X
Track quality 100.0 %
Test CRC 8A30B922
Copy CRC 8A30B922
Track not present in AccurateRip database
Copy OK

Track 10

Filename C:RipsVarious Artists – The Golden Age Of American Popular Music More Country Hits (2016) [FLAC]10 – George Jones – Who Shot Sam.wav

Pre-gap length 0:00:02.45

Peak level 93.2 %
Extraction speed 2.3 X
Track quality 100.0 %
Test CRC 08D37EFD
Copy CRC 08D37EFD
Track not present in AccurateRip database
Copy OK

Track 11

Filename C:RipsVarious Artists – The Golden Age Of American Popular Music More Country Hits (2016) [FLAC]11 – Leroy Van Dyke – The Auctioneer.wav

Pre-gap length 0:00:02.48

Peak level 96.1 %
Extraction speed 1.9 X
Track quality 99.9 %
Test CRC 1E0A9909
Copy CRC 1E0A9909
Track not present in AccurateRip database
Copy OK

Track 12

Filename C:RipsVarious Artists – The Golden Age Of American Popular Music More Country Hits (2016) [FLAC]12 – Stonewall Jackson – Mary Don’t You Weep.wav

Pre-gap length 0:00:02.50

Peak level 91.6 %
Extraction speed 1.8 X
Track quality 99.9 %
Test CRC 846EDF9F
Copy CRC 846EDF9F
Track not present in AccurateRip database
Copy OK

Track 13

Filename C:RipsVarious Artists – The Golden Age Of American Popular Music More Country Hits (2016) [FLAC]13 – Bonnie Guitar – Dark Moon.wav

Pre-gap length 0:00:02.46

Peak level 94.4 %
Extraction speed 2.6 X
Track quality 100.0 %
Test CRC 295B3B39
Copy CRC 295B3B39
Track not present in AccurateRip database
Copy OK

Track 14

Filename C:RipsVarious Artists – The Golden Age Of American Popular Music More Country Hits (2016) [FLAC]14 – Hank Snow – Rockin’ Rollin’ Ocean.wav

Pre-gap length 0:00:02.51

Peak level 90.8 %
Extraction speed 2.6 X
Track quality 100.0 %
Test CRC 9DD47F66
Copy CRC 9DD47F66
Track not present in AccurateRip database
Copy OK

Track 15

Filename C:RipsVarious Artists – The Golden Age Of American Popular Music More Country Hits (2016) [FLAC]15 – Ray Price – My Shoes Keep Walking Back To You.wav

Pre-gap length 0:00:02.27

Peak level 96.2 %
Extraction speed 2.7 X
Track quality 100.0 %
Test CRC 5258E94C
Copy CRC 5258E94C
Track not present in AccurateRip database
Copy OK

Track 16

Filename C:RipsVarious Artists – The Golden Age Of American Popular Music More Country Hits (2016) [FLAC]16 – Sonny James – Jenny Lou.wav

Pre-gap length 0:00:02.23

Peak level 90.6 %
Extraction speed 2.7 X
Track quality 100.0 %
Test CRC 37F8C962
Copy CRC 37F8C962
Track not present in AccurateRip database
Copy OK

Track 17

Filename C:RipsVarious Artists – The Golden Age Of American Popular Music More Country Hits (2016) [FLAC]17 – Claude King – Big River, Big Man.wav

Pre-gap length 0:00:02.38

Peak level 96.2 %
Extraction speed 2.8 X
Track quality 100.0 %
Test CRC CCB7C9BB
Copy CRC CCB7C9BB
Track not present in AccurateRip database
Copy OK

Track 18

Filename C:RipsVarious Artists – The Golden Age Of American Popular Music More Country Hits (2016) [FLAC]18 – Skeeter Davis – I’m Saving My Love.wav

Pre-gap length 0:00:01.64

Peak level 68.3 %
Extraction speed 2.7 X
Track quality 100.0 %
Test CRC 10BBB34F
Copy CRC 10BBB34F
Track not present in AccurateRip database
Copy OK

Track 19

Filename C:RipsVarious Artists – The Golden Age Of American Popular Music More Country Hits (2016) [FLAC]19 – Hawkshaw Hawkins – Soldier’s Joy.wav

Pre-gap length 0:00:02.43

Peak level 96.2 %
Extraction speed 2.8 X
Track quality 100.0 %
Test CRC 579DD539
Copy CRC 579DD539
Track not present in AccurateRip database
Copy OK

Track 20

Filename C:RipsVarious Artists – The Golden Age Of American Popular Music More Country Hits (2016) [FLAC]20 – Bobby Bare – 500 Miles Away From Home.wav

Pre-gap length 0:00:03.05

Peak level 95.9 %
Extraction speed 1.7 X
Track quality 99.9 %
Test CRC 99B99D67
Copy CRC 99B99D67
Track not present in AccurateRip database
Copy OK

Track 21

Filename C:RipsVarious Artists – The Golden Age Of American Popular Music More Country Hits (2016) [FLAC]21 – Tex Ritter – I Dreamed Of A Hillbilly Heaven.wav

Pre-gap length 0:00:02.41

Peak level 95.9 %
Extraction speed 2.1 X
Track quality 100.0 %
Test CRC 7E508B81
Copy CRC 7E508B81
Track not present in AccurateRip database
Copy OK

Track 22

Filename C:RipsVarious Artists – The Golden Age Of American Popular Music More Country Hits (2016) [FLAC]22 – Dave Dudley – Cowboy Boots.wav

Pre-gap length 0:00:03.00

Peak level 93.8 %
Extraction speed 3.0 X
Track quality 100.0 %
Test CRC 74E77DA1
Copy CRC 74E77DA1
Track not present in AccurateRip database
Copy OK

Track 23

Filename C:RipsVarious Artists – The Golden Age Of American Popular Music More Country Hits (2016) [FLAC]23 – Bill Anderson – 8 X 10.wav

Pre-gap length 0:00:03.32

Peak level 95.2 %
Extraction speed 2.2 X
Track quality 99.9 %
Test CRC 135B5F69
Copy CRC 135B5F69
Track not present in AccurateRip database
Copy OK

Track 24

Filename C:RipsVarious Artists – The Golden Age Of American Popular Music More Country Hits (2016) [FLAC]24 – Jimmy Dean – Little Black Book.wav

Pre-gap length 0:00:03.11

Peak level 96.3 %
Extraction speed 3.1 X
Track quality 100.0 %
Test CRC A5D7872C
Copy CRC A5D7872C
Track not present in AccurateRip database
Copy OK

Track 25

Filename C:RipsVarious Artists – The Golden Age Of American Popular Music More Country Hits (2016) [FLAC]25 – Carl Smith – Your Name Is Beautiful.wav

Pre-gap length 0:00:02.46

Peak level 96.2 %
Extraction speed 3.3 X
Track quality 100.0 %
Test CRC 6F6AFE9D
Copy CRC 6F6AFE9D
Track not present in AccurateRip database
Copy OK

Track 26

Filename C:RipsVarious Artists – The Golden Age Of American Popular Music More Country Hits (2016) [FLAC]26 – Jerry Lee Lewis – I’ll Make It All Up To You.wav

Pre-gap length 0:00:02.52

Peak level 90.8 %
Extraction speed 3.4 X
Track quality 100.0 %
Test CRC 6B98907D
Copy CRC 6B98907D
Track not present in AccurateRip database
Copy OK

Track 27

Filename C:RipsVarious Artists – The Golden Age Of American Popular Music More Country Hits (2016) [FLAC]27 – Ferlin Husky – The Waltz You Saved For Me.wav

Pre-gap length 0:00:02.71

Peak level 88.8 %
Extraction speed 2.4 X
Track quality 100.0 %
Test CRC 7936CB80
Copy CRC 7936CB80
Track not present in AccurateRip database
Copy OK

Track 28

Filename C:RipsVarious Artists – The Golden Age Of American Popular Music More Country Hits (2016) [FLAC]28 – Marty Robbins – Singing The Blues.wav

Pre-gap length 0:00:02.06

Peak level 96.1 %
Extraction speed 1.0 X
Track quality 100.0 %
Test CRC A5597599
Copy CRC A5597599
Track not present in AccurateRip database
Copy OK

None of the tracks are present in the AccurateRip database

No errors occurred

End of status report

–– CUETools DB Plugin V2.1.6

[CTDB TOCID: 3XfwhgPkeo3YqUKZlFg9G2VaE3I-] disk not present in database
Submit result: 3XfwhgPkeo3YqUKZlFg9G2VaE3I- has been uploaded

==== Log checksum C308BA2ECDC687EA22EEA9F82F3E78DE249AD30A9391E2313AD8C9A4D360E46D ====

Various Artists - The Golden Age Of American Popular Music - More Country Hits (2016) {Ace Records CDCHD 1469 rec 1955-63}

Various Artists - The Golden Age Of American Popular Music - More Country Hits (2016) {Ace Records CDCHD 1469 rec 1955-63}

All thanks goes to the original releaser!

NEXT -> VA – The Golden Age Of American Popular Music – The Country Hits (2008) {Ace Records}

===

Various Artists – The Golden Age Of American Popular Music – More Country Hits (2016) {Ace Records CDCHD 1469 rec 1955-63} Download, Warez, DDL, Free, Full Album, Torrent, Legal.

Download


  • Recent Posts

  • Recent Tags