Various Artists – Ska Box Anthology (2001)

Download
Various Artists - Ska Box Anthology (2001)

Various Artists – Ska Box Anthology (2001)
EAC | Flac(Image) + Cue + Log & MP3 CBR 320Kbps
3CD | Big Eye Music, BIG 4010-2 | ~ 744 or 266 Mb | Scans(jpg) -> 15 Mb
Ska, Reggae, Rocksteady

The budget-minded three-disc box set Ska Box Anthology is something of a hodgepodge, freely mixing Jamaican ska, British Two-Tone ska revival, and modernized ’80s dancehall reggae without much rhyme or reason. There is some excellent music here, but there are much better (and more focused) compilations devoted to both Jamaican and British ska, meaning that the Ska Box Anthology won’t be necessary for very many listeners.

by Steve Huey, allmusic

Various Artists – Ska Box Anthology (2001):

Various Artists - Ska Box Anthology (2001)

Tracklist CD1:

1. On My Radio – The Selecter
2. Fatty Fatty – Bad Manners
3. Big Six – Judge Dread
4. Gangsters – The Specials
5. Free Yourself – The Untouchables
6. Mr. Chatterbox – Bob Marley, The Wailers
7. One Step Beyond – Inspector 7
8. Get Over Losing You – The Heptones
9. The One – Duck Soup
10. Bed and Breakfastman – Stiff Breeze
11. Madness – Dr. Ring Ding, The Senior All Stars
12. Some Like It Hot – Dennis Brown

Converted to Image (CUETools 2.1.4)

EAC Log
Exact Audio Copy V0.99 prebeta 3 from 28. July 2007

EAC extraction logfile from 16. March 2009, 18:46

Various / Ska Box Anthology Disc 1

Used drive : Optiarc DVD RW AD-7170A Adapter: 2 ID: 2

Read mode : Secure
Utilize accurate stream : Yes
Defeat audio cache : Yes
Make use of C2 pointers : No

Read offset correction : 48
Overread into Lead-In and Lead-Out : No
Fill up missing offset samples with silence : Yes
Delete leading and trailing silent blocks : No
Null samples used in CRC calculations : Yes
Used interface : Native Win32 interface for Win NT & 2000
Gap handling : Appended to previous track

Used output format : User Defined Encoder
Selected bitrate : 320 kBit/s
Quality : High
Add ID3 tag : No
Command line compressor : C:Program FilesFLACflac.exe
Additional command line options : -V -8 -T "artist=%a" -T "title=%t" -T "album=%g" -T "date=%y" -T "tracknumber=%n" -T "genre=%m" %s

TOC of the extracted CD

Track | Start | Length | Start sector | End sector
––––––––––––––––––––––––––––-
1 | 0:00.00 | 3:26.42 | 0 | 15491
2 | 3:26.42 | 2:41.34 | 15492 | 27600
3 | 6:08.01 | 2:44.28 | 27601 | 39928
4 | 8:52.29 | 3:16.25 | 39929 | 54653
5 | 12:08.54 | 3:47.62 | 54654 | 71740
6 | 15:56.41 | 2:25.41 | 71741 | 82656
7 | 18:22.07 | 2:03.22 | 82657 | 91903
8 | 20:25.29 | 3:04.48 | 91904 | 105751
9 | 23:30.02 | 2:46.01 | 105752 | 118202
10 | 26:16.03 | 2:12.69 | 118203 | 128171
11 | 28:28.72 | 3:48.42 | 128172 | 145313
12 | 32:17.39 | 2:57.60 | 145314 | 158648

Track 1

Filename M:Music_EAC RipsSka Box Anthology Disc 1 – 20011 – The Selecter – On My Radio.wav

Pre-gap length 0:00:02.00

Peak level 97.5 %
Track quality 99.9 %
Test CRC 3C1A6246
Copy CRC 3C1A6246
Track not present in AccurateRip database
Copy OK

Track 2

Filename M:Music_EAC RipsSka Box Anthology Disc 1 – 20012 – Bad Manners – Fatty Fatty.wav

Peak level 89.4 %
Track quality 100.0 %
Test CRC CA8002EE
Copy CRC CA8002EE
Track not present in AccurateRip database
Copy OK

Track 3

Filename M:Music_EAC RipsSka Box Anthology Disc 1 – 20013 – Judge Dread – Big Six.wav

Peak level 93.5 %
Track quality 99.9 %
Test CRC A43CD0EE
Copy CRC A43CD0EE
Track not present in AccurateRip database
Copy OK

Track 4

Filename M:Music_EAC RipsSka Box Anthology Disc 1 – 20014 – The Specials – Gangsters.wav

Peak level 99.9 %
Track quality 100.0 %
Test CRC 796E1C01
Copy CRC 796E1C01
Track not present in AccurateRip database
Copy OK

Track 5

Filename M:Music_EAC RipsSka Box Anthology Disc 1 – 20015 – The Untouchables – Free Yourself.wav

Peak level 89.7 %
Track quality 100.0 %
Test CRC 8FCF49E4
Copy CRC 8FCF49E4
Track not present in AccurateRip database
Copy OK

Track 6

Filename M:Music_EAC RipsSka Box Anthology Disc 1 – 20016 – Bob Marley & The Wailers – Mr. Chatterbox.wav

Peak level 99.7 %
Track quality 100.0 %
Test CRC 48DB705C
Copy CRC 48DB705C
Track not present in AccurateRip database
Copy OK

Track 7

Filename M:Music_EAC RipsSka Box Anthology Disc 1 – 20017 – Inspector 7 – One Step Beyond.wav

Peak level 99.7 %
Track quality 100.0 %
Test CRC 5F311585
Copy CRC 5F311585
Track not present in AccurateRip database
Copy OK

Track 8

Filename M:Music_EAC RipsSka Box Anthology Disc 1 – 20018 – The Heptones – Get Over Losing You.wav

Peak level 99.9 %
Track quality 99.9 %
Test CRC C52E74AC
Copy CRC C52E74AC
Track not present in AccurateRip database
Copy OK

Track 9

Filename M:Music_EAC RipsSka Box Anthology Disc 1 – 20019 – Duck Soup – The One.wav

Peak level 100.0 %
Track quality 99.9 %
Test CRC E1DCFF26
Copy CRC E1DCFF26
Track not present in AccurateRip database
Copy OK

Track 10

Filename M:Music_EAC RipsSka Box Anthology Disc 1 – 200110 – Stiff Breeze – Bed & Breakfastman.wav

Peak level 85.2 %
Track quality 100.0 %
Test CRC 525E4280
Copy CRC 525E4280
Track not present in AccurateRip database
Copy OK

Track 11

Filename M:Music_EAC RipsSka Box Anthology Disc 1 – 200111 – Dr. Ring Ding & The Senior All Stars – Madness.wav

Peak level 99.2 %
Track quality 100.0 %
Test CRC 1053ABD5
Copy CRC 1053ABD5
Track not present in AccurateRip database
Copy OK

Track 12

Filename M:Music_EAC RipsSka Box Anthology Disc 1 – 200112 – Dennis Brown – Some Like It Hot.wav

Peak level 98.8 %
Track quality 100.0 %
Test CRC F087EDBC
Copy CRC F087EDBC
Track not present in AccurateRip database
Copy OK

None of the tracks are present in the AccurateRip database

No errors occurred

End of status report

Various Artists - Ska Box Anthology (2001)

Tracklist CD2:

1. A Message To You Rudy – The Specials
2. Disappear – Agent Bulldog
3. Riding For A Fall – John Holt
4. Be Alright – Untouchables
5. Big Seven – Judge Dread
6. James Bond – The Selecter
7. Return Of The Ugly – Bad Manners
8. Nobody Knows – Gregory Isaacs
9. Huzza A Hana – Lee Perry, The Upsetters
10. Dub And Come – I Roy
11. The Sun – Don Carlos
12. Shame – Frankie Paul

Converted to Image (CUETools 2.1.4)

EAC Log
Exact Audio Copy V0.99 prebeta 3 from 28. July 2007

EAC extraction logfile from 16. March 2009, 19:08

Various / Ska Box Anthology Disc 2

Used drive : Optiarc DVD RW AD-7170A Adapter: 2 ID: 2

Read mode : Secure
Utilize accurate stream : Yes
Defeat audio cache : Yes
Make use of C2 pointers : No

Read offset correction : 48
Overread into Lead-In and Lead-Out : No
Fill up missing offset samples with silence : Yes
Delete leading and trailing silent blocks : No
Null samples used in CRC calculations : Yes
Used interface : Native Win32 interface for Win NT & 2000
Gap handling : Appended to previous track

Used output format : User Defined Encoder
Selected bitrate : 320 kBit/s
Quality : High
Add ID3 tag : No
Command line compressor : C:Program FilesFLACflac.exe
Additional command line options : -V -8 -T "artist=%a" -T "title=%t" -T "album=%g" -T "date=%y" -T "tracknumber=%n" -T "genre=%m" %s

TOC of the extracted CD

Track | Start | Length | Start sector | End sector
––––––––––––––––––––––––––––-
1 | 0:00.00 | 2:47.53 | 0 | 12577
2 | 2:47.53 | 3:00.64 | 12578 | 26141
3 | 5:48.42 | 3:57.67 | 26142 | 43983
4 | 9:46.34 | 2:45.70 | 43984 | 56428
5 | 12:32.29 | 3:15.51 | 56429 | 71104
6 | 15:48.05 | 3:06.61 | 71105 | 85115
7 | 18:54.66 | 2:47.57 | 85116 | 97697
8 | 21:42.48 | 3:05.43 | 97698 | 111615
9 | 24:48.16 | 3:23.07 | 111616 | 126847
10 | 28:11.23 | 3:07.58 | 126848 | 140930
11 | 31:19.06 | 4:10.40 | 140931 | 159720
12 | 35:29.46 | 3:20.67 | 159721 | 174787

Track 1

Filename M:Music_EAC RipsSka Box Anthology Disc 2 – 20011 – The Specials – A Message To You Rudy.wav

Pre-gap length 0:00:02.00

Peak level 99.8 %
Track quality 99.9 %
Test CRC 5E76C132
Copy CRC 5E76C132
Track not present in AccurateRip database
Copy OK

Track 2

Filename M:Music_EAC RipsSka Box Anthology Disc 2 – 20012 – Agent Bulldog – Disappear.wav

Peak level 85.4 %
Track quality 100.0 %
Test CRC 203F0352
Copy CRC 203F0352
Track not present in AccurateRip database
Copy OK

Track 3

Filename M:Music_EAC RipsSka Box Anthology Disc 2 – 20013 – John Holt – Riding For A Fall.wav

Peak level 99.9 %
Track quality 100.0 %
Test CRC 85381134
Copy CRC 85381134
Track not present in AccurateRip database
Copy OK

Track 4

Filename M:Music_EAC RipsSka Box Anthology Disc 2 – 20014 – Untouchables – Be Alright.wav

Peak level 100.0 %
Track quality 100.0 %
Test CRC C3F52198
Copy CRC C3F52198
Track not present in AccurateRip database
Copy OK

Track 5

Filename M:Music_EAC RipsSka Box Anthology Disc 2 – 20015 – Judge Dread – Big Seven.wav

Peak level 99.9 %
Track quality 100.0 %
Test CRC AC570DE9
Copy CRC AC570DE9
Track not present in AccurateRip database
Copy OK

Track 6

Filename M:Music_EAC RipsSka Box Anthology Disc 2 – 20016 – The Selecter – James Bond.wav

Peak level 99.9 %
Track quality 100.0 %
Test CRC 67AE686C
Copy CRC 67AE686C
Track not present in AccurateRip database
Copy OK

Track 7

Filename M:Music_EAC RipsSka Box Anthology Disc 2 – 20017 – Bad Manners – Return Of The Ugly.wav

Peak level 99.9 %
Track quality 100.0 %
Test CRC CD1F0F3A
Copy CRC CD1F0F3A
Track not present in AccurateRip database
Copy OK

Track 8

Filename M:Music_EAC RipsSka Box Anthology Disc 2 – 20018 – Gregory Isaacs – Nobody Knows.wav

Peak level 99.9 %
Track quality 100.0 %
Test CRC EDF78428
Copy CRC EDF78428
Track not present in AccurateRip database
Copy OK

Track 9

Filename M:Music_EAC RipsSka Box Anthology Disc 2 – 20019 – Lee Perry & The Upsetters – Huzza A Hana.wav

Peak level 99.7 %
Track quality 100.0 %
Test CRC 768AFEDC
Copy CRC 768AFEDC
Track not present in AccurateRip database
Copy OK

Track 10

Filename M:Music_EAC RipsSka Box Anthology Disc 2 – 200110 – I Roy – Dub And Come.wav

Peak level 99.9 %
Track quality 100.0 %
Test CRC 4B7B4F40
Copy CRC 4B7B4F40
Track not present in AccurateRip database
Copy OK

Track 11

Filename M:Music_EAC RipsSka Box Anthology Disc 2 – 200111 – Don Carlos – The Sun.wav

Peak level 99.9 %
Track quality 100.0 %
Test CRC C94081F3
Copy CRC C94081F3
Track not present in AccurateRip database
Copy OK

Track 12

Filename M:Music_EAC RipsSka Box Anthology Disc 2 – 200112 – Frankie Paul – Shame.wav

Peak level 99.9 %
Track quality 99.9 %
Test CRC BE9B59D6
Copy CRC BE9B59D6
Track not present in AccurateRip database
Copy OK

None of the tracks are present in the AccurateRip database

No errors occurred

End of status report

Various Artists - Ska Box Anthology (2001)

Tracklist CD3:

1. Lightning & Thunder – Dennis Brown
2. Stick By Me – John Holt
3. Roman Soldiers Of Babylon – Freddie McGregor
4. Dem Ah Rush Me – Sugar Minott
5. Rock On – Gregory Isaacs
6. Daddymix – Purpleman
7. Rub A Dub – Johnny Ringo
8. People Are Crying – Mighty Diamonds
9. Maggie Breast – I Roy
10. Israel – Frankie Paul
11. Bird In Hand – Lee Perry, The Upsetters
12. The Ark – Yellowman

Converted to Image (CUETools 2.1.4)

EAC Log
Exact Audio Copy V0.99 prebeta 3 from 28. July 2007

EAC extraction logfile from 16. March 2009, 19:32

Various / Ska Box Anthology Disc 3

Used drive : Optiarc DVD RW AD-7170A Adapter: 2 ID: 2

Read mode : Secure
Utilize accurate stream : Yes
Defeat audio cache : Yes
Make use of C2 pointers : No

Read offset correction : 48
Overread into Lead-In and Lead-Out : No
Fill up missing offset samples with silence : Yes
Delete leading and trailing silent blocks : No
Null samples used in CRC calculations : Yes
Used interface : Native Win32 interface for Win NT & 2000
Gap handling : Appended to previous track

Used output format : User Defined Encoder
Selected bitrate : 320 kBit/s
Quality : High
Add ID3 tag : No
Command line compressor : C:Program FilesFLACflac.exe
Additional command line options : -V -8 -T "artist=%a" -T "title=%t" -T "album=%g" -T "date=%y" -T "tracknumber=%n" -T "genre=%m" %s

TOC of the extracted CD

Track | Start | Length | Start sector | End sector
––––––––––––––––––––––––––––-
1 | 0:00.00 | 3:12.28 | 0 | 14427
2 | 3:12.28 | 3:18.69 | 14428 | 29346
3 | 6:31.22 | 2:50.56 | 29347 | 42152
4 | 9:22.03 | 2:50.63 | 42153 | 54965
5 | 12:12.66 | 2:45.27 | 54966 | 67367
6 | 14:58.18 | 4:05.14 | 67368 | 85756
7 | 19:03.32 | 3:25.71 | 85757 | 101202
8 | 22:29.28 | 3:37.01 | 101203 | 117478
9 | 26:06.29 | 2:51.20 | 117479 | 130323
10 | 28:57.49 | 3:39.55 | 130324 | 146803
11 | 32:37.29 | 3:22.62 | 146804 | 162015
12 | 36:00.16 | 2:33.03 | 162016 | 173493

Track 1

Filename M:Music_EAC RipsSka Box Anthology Disc 3 – 20011 – Dennis Brown – Lightning & Thunder.wav

Pre-gap length 0:00:02.00

Peak level 92.1 %
Track quality 100.0 %
Test CRC A2586B3C
Copy CRC A2586B3C
Track not present in AccurateRip database
Copy OK

Track 2

Filename M:Music_EAC RipsSka Box Anthology Disc 3 – 20012 – John Holt – Stick By Me.wav

Peak level 99.9 %
Track quality 99.9 %
Test CRC B515190A
Copy CRC B515190A
Track not present in AccurateRip database
Copy OK

Track 3

Filename M:Music_EAC RipsSka Box Anthology Disc 3 – 20013 – Freddie McGregor – Roman Soldiers Of Babylon.wav

Peak level 99.9 %
Track quality 100.0 %
Test CRC 17C359E9
Copy CRC 17C359E9
Track not present in AccurateRip database
Copy OK

Track 4

Filename M:Music_EAC RipsSka Box Anthology Disc 3 – 20014 – Sugar Minott – Dem Ah Rush Me.wav

Peak level 99.9 %
Track quality 100.0 %
Test CRC B300556B
Copy CRC B300556B
Track not present in AccurateRip database
Copy OK

Track 5

Filename M:Music_EAC RipsSka Box Anthology Disc 3 – 20015 – Gregory Isaacs – Rock On.wav

Peak level 99.9 %
Track quality 99.9 %
Test CRC 1F33E07D
Copy CRC 1F33E07D
Track not present in AccurateRip database
Copy OK

Track 6

Filename M:Music_EAC RipsSka Box Anthology Disc 3 – 20016 – Purpleman – Daddymix.wav

Peak level 99.9 %
Track quality 100.0 %
Test CRC 9581F11C
Copy CRC 9581F11C
Track not present in AccurateRip database
Copy OK

Track 7

Filename M:Music_EAC RipsSka Box Anthology Disc 3 – 20017 – Johnny Ringo – Rub A Dub.wav

Peak level 99.9 %
Track quality 100.0 %
Test CRC 06ABA0D0
Copy CRC 06ABA0D0
Track not present in AccurateRip database
Copy OK

Track 8

Filename M:Music_EAC RipsSka Box Anthology Disc 3 – 20018 – Mighty Diamonds – People Are Crying.wav

Peak level 99.9 %
Track quality 100.0 %
Test CRC BAF62ECF
Copy CRC BAF62ECF
Track not present in AccurateRip database
Copy OK

Track 9

Filename M:Music_EAC RipsSka Box Anthology Disc 3 – 20019 – I Roy – Maggie Breast.wav

Peak level 99.9 %
Track quality 100.0 %
Test CRC 1EE9FC90
Copy CRC 1EE9FC90
Track not present in AccurateRip database
Copy OK

Track 10

Filename M:Music_EAC RipsSka Box Anthology Disc 3 – 200110 – Frankie Paul – Israel.wav

Peak level 99.9 %
Track quality 100.0 %
Test CRC 62FC964E
Copy CRC 62FC964E
Track not present in AccurateRip database
Copy OK

Track 11

Filename M:Music_EAC RipsSka Box Anthology Disc 3 – 200111 – Lee Perry & The Upsetters – Bird In Hand.wav

Peak level 94.4 %
Track quality 100.0 %
Test CRC 9C756826
Copy CRC 9C756826
Track not present in AccurateRip database
Copy OK

Track 12

Filename M:Music_EAC RipsSka Box Anthology Disc 3 – 200112 – Yellowman – The Ark.wav

Peak level 99.9 %
Track quality 100.0 %
Test CRC A051DA7A
Copy CRC A051DA7A
Track not present in AccurateRip database
Copy OK

None of the tracks are present in the AccurateRip database

No errors occurred

End of status report

Various Artists - Ska Box Anthology (2001)

All thanks go to skalondon

Reggae in my Blog

Download Various Artists – Ska Box Anthology (2001):

Various Artists – Ska Box Anthology (2001) Download, Warez, DDL, Free, Full Album, Torrent, Legal.

Download