Vanilla Fudge – The Beat Goes On (1968) {1998, Reissue}

Download
Vanilla Fudge - The Beat Goes On (1968) {1998, Reissue}

Vanilla Fudge – The Beat Goes On (1968) {1998, Reissue}
EAC Rip | FLAC (Img) + Cue + Log ~ 317 Mb | MP3 CBR320 ~ 146 Mb
Scans Included (JPG, 600 dpi) | RAR 5% Recovery
Psychedelic Rock | Sundazed Music #SC 6142

The Beat Goes On is the second album by the American psychedelic rock band Vanilla Fudge, released in early 1968. The album doesn’t contain any real "songs", but rather a sound collage featuring many different elements: the voices of world leaders past and present, the band reciting pre-written mantras and reflections, and excerpts of songs (done "Vanilla Fudge style") by The Beatles and Sonny Bono. While not as successful as their debut album, The Beat Goes On was a moderate hit despite the band’s reservations, peaking at #17 on the Billboard album charts in March 1968.

~ Wiki

The expanded CD release of this second Vanilla Fudge album is much more accessible than the original vinyl version because of the inclusion of a number of cover tunes, most notably Beatles songs. The revealing liner notes that Sundazed project manager Tim Livingston adds to the reissues of these Atco albums helps put this influential band in a better light. The Beat Goes On is a difficult record, especially after the explosion that was their debut. The single from their previous album, Vanilla Fudge, originally charted in the Top 100 in the U.S. in 1967. (Britain was more hip to the group.) They finally hit in America in the summer of 1968, but had already begun to influence Deep Purple and the Rotary Connection, among others. The problem with this project is that they failed to influence themselves. Bassist Tim Bogert notes that "The Beat Goes On was the album that killed the band," while guitarist Vinny Martell adds "we had already started our second album when Shadow (Morton) had this other concept idea for The Beat Goes On." Morton had produced the Shangri Las, not the Beatles, and this creative effort was by a group with only two hit singles arriving on the scene around the time of Sgt. Peppers Lonely Hearts Club Band. Morton set before the boys a daunting task which needed much, much better execution. Renaissance, which they were recording simultaneous with this, at least included a Donovan tune, "Season of the Witch." The exotic wandering would have been better served by a reworking of "Strawberry Fields Forever" across a side of the disc instead of the keyboard notes which reference the tune. Even a killer guitar version of "The Beat Goes On" would have been more exciting than "18th Century Variations on a Theme by Mozart" or noodlings that can’t decide if they are "Chatanooga Choo Choo" or "Theme to the Match Game." For a group of impressionable young kids out of high school, as referenced in the liners, this must’ve been extremely rough. The expanded CD has jam session versions of Elvis Presley’s "Hound Dog" and the Beatles’ "I Feel Fine," "She Loves You," "Day Tripper," "I Want to Hold Your Hand," and "You Can’t Do That." Any of these extended à la "Eleanor Rigby" from their debut would be more desirable than the interview-type questions about sex; the Beatles’ interest in "Indian meditation" (sitar enters here, and how would the VF know?); audio newsclips of John F. Kennedy, Hitler, and others, all a very strong argument against artistic control for some producers. Exploring the initial ideas that brought them fame was what was expected of Vanilla Fudge. What would you rather hear, readings from The Bible or the single from January 1968, "The Look of Love" b/w "Where Is My Mind"? Thankfully, Sundazed has included the Bacharach/David tune and two additional Mark Stein titles, "All in Your Mind" and the aforementioned B side, "Where Is My Mind," on the expanded Renaissance album, the real follow-up to the Vanilla Fudge debut. Historically important, listening to this archive piece is truly a labor of love, with the emphasis on labor.

~ Joe Viglione, All Music
Official Website | Wiki | Discogs | All Music

***************

Vanilla Fudge - The Beat Goes On (1968) {1998, Reissue}

Track List:

01. Sketch [3:02]
02. Intro: The Beat Goes On [1:58]
03. Eighteenth Century – Nineteethth Century – Twentieth Century – The Beatles [6:59]
04. The Beat Goes On [1:37]
05. Beethoven : Fur Elise & Mondscheinsonate [6:36]
06. The Beat Goes On [1:10]
07. The Beat Goes On [1:03]
08. Voices in Time : Neville Chamberman – Winston Churchill – Franklin Delano Roo… [8:16]
09. The Beat Goes On [1:50]
10. Merchant : The Game is over (Vinnie) – Merchant : The Game Is Over (Tim) – Me… [9:06]
11. The Beat Goes On [2:27]
12. You Can’t Do That (Bonus Track) [4:27]
13. Come By Day, Come By Night (Bonus Track) [3:27]

EAC Log
Exact Audio Copy V1.2 from 12. August 2016

EAC extraction logfile from 9. January 2017, 20:29

Vanilla Fudge / The Beat Goes On

Used drive : MATSHITADVD-RAM UJ8A0AS Adapter: 1 ID: 0

Read mode : Secure
Utilize accurate stream : Yes
Defeat audio cache : Yes
Make use of C2 pointers : No

Read offset correction : 102
Overread into Lead-In and Lead-Out : No
Fill up missing offset samples with silence : Yes
Delete leading and trailing silent blocks : No
Null samples used in CRC calculations : Yes
Used interface : Native Win32 interface for Win NT & 2000

Used output format : Internal WAV Routines
Sample format : 44.100 Hz; 16 Bit; Stereo

TOC of the extracted CD

Track | Start | Length | Start sector | End sector
––––––––––––––––––––––––––––-
1 | 0:00.00 | 3:01.52 | 0 | 13626
2 | 3:01.52 | 1:58.33 | 13627 | 22509
3 | 5:00.10 | 6:58.70 | 22510 | 53929
4 | 11:59.05 | 1:36.65 | 53930 | 61194
5 | 13:35.70 | 6:36.10 | 61195 | 90904
6 | 20:12.05 | 1:10.35 | 90905 | 96189
7 | 21:22.40 | 1:03.10 | 96190 | 100924
8 | 22:25.50 | 8:16.37 | 100925 | 138161
9 | 30:42.12 | 1:50.23 | 138162 | 146434
10 | 32:32.35 | 9:06.25 | 146435 | 187409
11 | 41:38.60 | 2:26.55 | 187410 | 198414
12 | 44:05.40 | 4:27.10 | 198415 | 218449
13 | 48:32.50 | 3:27.25 | 218450 | 233999

Range status and errors

Selected range

Filename F:AlexharveyVanilla Fudge – The Beat Goes On.wav

Peak level 98.8 %
Extraction speed 3.8 X
Range quality 100.0 %
Test CRC DB21F259
Copy CRC DB21F259
Copy OK

No errors occurred

AccurateRip summary

Track 1 accurately ripped (confidence 13) [DF606469] (AR v2)
Track 2 accurately ripped (confidence 13) [05632495] (AR v2)
Track 3 accurately ripped (confidence 13) [B593D3BF] (AR v2)
Track 4 accurately ripped (confidence 13) [D9638445] (AR v2)
Track 5 accurately ripped (confidence 13) [884E5669] (AR v2)
Track 6 accurately ripped (confidence 13) [0541F097] (AR v2)
Track 7 accurately ripped (confidence 13) [54B74F0D] (AR v2)
Track 8 accurately ripped (confidence 13) [AD33D7DF] (AR v2)
Track 9 accurately ripped (confidence 13) [9227CAEE] (AR v2)
Track 10 accurately ripped (confidence 13) [D852653D] (AR v2)
Track 11 accurately ripped (confidence 13) [C4345B0A] (AR v2)
Track 12 accurately ripped (confidence 12) [49CCF710] (AR v2)
Track 13 accurately ripped (confidence 12) [E07F2840] (AR v2)

All tracks accurately ripped

End of status report

–– CUETools DB Plugin V2.1.6

[CTDB TOCID: Xiw05DGruR8dB5zqYCSupLMiqDY-] found
Submit result: already submitted
Track | CTDB Status
1 | (17/18) Accurately ripped
2 | (17/18) Accurately ripped
3 | (18/18) Accurately ripped
4 | (18/18) Accurately ripped
5 | (18/18) Accurately ripped
6 | (18/18) Accurately ripped
7 | (18/18) Accurately ripped
8 | (18/18) Accurately ripped
9 | (18/18) Accurately ripped
10 | (18/18) Accurately ripped
11 | (18/18) Accurately ripped
12 | (18/18) Accurately ripped
13 | (18/18) Accurately ripped

==== Log checksum 912CD50D9651884E7960398A87F58C99AEDC27AE2B4EDF1D41F075FF580799AD ====

DR Log
foobar2000 1.2.6 / Dynamic Range Meter 1.1.1
log date: 2017-01-12 02:40:13

––––––––––––––––––––––––––––––––––––––––
Analyzed: Vanilla Fudge / The Beat Goes On
––––––––––––––––––––––––––––––––––––––––

DR Peak RMS Duration Track
––––––––––––––––––––––––––––––––––––––––
DR11 -0.10 dB -20.10 dB 3:02 01-Sketch
DR10 -2.18 dB -15.28 dB 1:58 02-Intro: The Beat Goes On
DR12 -1.29 dB -17.81 dB 6:59 03-Eighteenth Century – Nineteethth Century – Twentieth Century – The Beatles
DR10 -0.10 dB -13.39 dB 1:37 04-The Beat Goes On
DR10 -0.10 dB -15.31 dB 6:36 05-Beethoven : Fur Elise & Mondscheinsonate
DR11 -2.48 dB -20.57 dB 1:10 06-The Beat Goes On
DR12 -0.10 dB -16.61 dB 1:03 07-The Beat Goes On
DR13 -0.10 dB -18.82 dB 8:16 08-Voices in Time : Neville Chamberman – Winston Churchill – Franklin Delano Roo…
DR10 -0.83 dB -16.51 dB 1:50 09-The Beat Goes On
DR13 -0.10 dB -18.37 dB 9:06 10-Merchant : The Game is over (Vinnie) – Merchant : The Game Is Over (Tim) – Me…
DR12 -0.10 dB -16.74 dB 2:27 11-The Beat Goes On
DR12 -0.10 dB -14.50 dB 4:27 12-You Can’t Do That (Bonus Track)
DR11 -0.10 dB -15.24 dB 3:27 13-Come By Day, Come By Night (Bonus Track)
––––––––––––––––––––––––––––––––––––––––

Number of tracks: 13
Official DR value: DR11

Samplerate: 44100 Hz
Channels: 2
Bits per sample: 16
Bitrate: 757 kbps
Codec: FLAC
================================================================================

CUETools Log
[CUETools log; Date: 12.01.2017 2:40:14; Version: 2.1.5]
[CTDB TOCID: Xiw05DGruR8dB5zqYCSupLMiqDY-] found.
Track | CTDB Status
1 | (17/18) Accurately ripped
2 | (17/18) Accurately ripped
3 | (18/18) Accurately ripped
4 | (18/18) Accurately ripped
5 | (18/18) Accurately ripped
6 | (18/18) Accurately ripped
7 | (18/18) Accurately ripped
8 | (18/18) Accurately ripped
9 | (18/18) Accurately ripped
10 | (18/18) Accurately ripped
11 | (18/18) Accurately ripped
12 | (18/18) Accurately ripped
13 | (18/18) Accurately ripped
[AccurateRip ID: 0017d62a-00f2bfb4-a10c300d] found.
Track [ CRC | V2 ] Status
01 [102c70a2|df606469] (14+13/27) Accurately ripped
02 [4558a20b|05632495] (14+13/27) Accurately ripped
03 [4ceeb362|b593d3bf] (14+13/27) Accurately ripped
04 [18ba4e03|d9638445] (14+13/27) Accurately ripped
05 [4f418c19|884e5669] (14+13/27) Accurately ripped
06 [ac981010|0541f097] (14+13/27) Accurately ripped
07 [33dd9195|54b74f0d] (14+13/27) Accurately ripped
08 [3754ce09|ad33d7df] (14+13/27) Accurately ripped
09 [29643447|9227caee] (15+13/28) Accurately ripped
10 [1b6653f7|d852653d] (15+13/28) Accurately ripped
11 [03deda1a|c4345b0a] (14+13/27) Accurately ripped
12 [b991d1ec|49ccf710] (14+12/26) Accurately ripped
13 [1c7d1420|e07f2840] (14+12/26) Accurately ripped

Track Peak [ CRC32 ] [W/O NULL] [ LOG ]
– 98,8 [DB21F259] [96A6726A] CRC32
01 98,8 [5E46F276] [3C3F2C8E]
02 77,8 [4846911A] [B365BF39]
03 86,2 [367701CB] [E2815D70]
04 98,8 [E66343F3] [0DB27826]
05 98,8 [5FC8E614] [66800CEA]
06 75,1 [256B38E3] [F43D9767]
07 98,8 [2D3EC6C3] [2A993CB1]
08 98,8 [6FAB2DCE] [E596F9E8]
09 90,8 [D30BDB0B] [B9020426]
10 98,8 [0A8E14F2] [26988D5D]
11 98,8 [BD5E9B4A] [FE0B980B]
12 98,8 [D1EBBDF2] [3E219011]
13 98,8 [579E7E14] [9679237F]

Vanilla Fudge - The Beat Goes On (1968) {1998, Reissue}

Vanilla Fudge - The Beat Goes On (1968) {1998, Reissue}

All thanks go to Alexharvey

> Vanilla Fudge in my blog <

Vanilla Fudge – The Beat Goes On (1968) {1998, Reissue} Download, Warez, DDL, Free, Full Album, Torrent, Legal.

Download