VA – Your Lounge Your Music 2 (2002) | ViralVideoPk

Daily Dose of Free Downloads

VA – Your Lounge Your Music 2 (2002)

Download

VA - Your Lounge Your Music 2 (2002)

VA – Your Lounge Your Music 2 (2002)
EAC Rip | FLAC (Tracks) +CUE, LOG | 917 MB | Covers Included
Genre: Trip Hop, Future Jazz | Label: 541 | Catalog Number: 541416 500762

Belgium 2CD compilation album in style Trip Hop, Future Jazz, Downtempo, Ambient, Deep House .

EAC Log CD1
Exact Audio Copy V1.0 beta 6 from 9. April 2015

EAC extraction logfile from 4. January 2017, 18:11

Various / Your Lounge Your Music 2

Used drive : MATSHITABD-MLT UJ240ES Adapter: 1 ID: 0

Read mode : Secure
Utilize accurate stream : Yes
Defeat audio cache : Yes
Make use of C2 pointers : No

Read offset correction : 103
Overread into Lead-In and Lead-Out : No
Fill up missing offset samples with silence : Yes
Delete leading and trailing silent blocks : No
Null samples used in CRC calculations : Yes
Used interface : Native Win32 interface for Win NT & 2000
Gap handling : Appended to previous track

Used output format : User Defined Encoder
Selected bitrate : 768 kBit/s
Quality : High
Add ID3 tag : No
Command line compressor : C:Program Files (x86)Exact Audio CopyFLACFLAC.EXE
Additional command line options : -6 -V -T "ARTIST=%artist%" -T "TITLE=%title%" -T "ALBUM=%albumtitle%" -T "DATE=%year%" -T "TRACKNUMBER=%tracknr%" -T "GENRE=%genre%" -T "COMMENT=%comment%" -T "BAND=%albuminterpret%" -T "ALBUMARTIST=%albuminterpret%" -T "COMPOSER=%composer%" %haslyrics%–tag-from-file=LYRICS="%lyricsfile%"%haslyrics% -T "DISCNUMBER=%cdnumber%" -T "TOTALDISCS=%totalcds%" -T "TOTALTRACKS=%numtracks%" %hascover%–picture="%coverfile%"%hascover% %source% -o %dest%

TOC of the extracted CD

Track | Start | Length | Start sector | End sector
––––––––––––––––––––––––––––-
1 | 0:00.00 | 3:31.02 | 0 | 15826
2 | 3:31.02 | 4:53.13 | 15827 | 37814
3 | 8:24.15 | 6:17.71 | 37815 | 66160
4 | 14:42.11 | 4:37.34 | 66161 | 86969
5 | 19:19.45 | 4:12.55 | 86970 | 105924
6 | 23:32.25 | 4:52.41 | 105925 | 127865
7 | 28:24.66 | 4:30.21 | 127866 | 148136
8 | 32:55.12 | 7:18.62 | 148137 | 181048
9 | 40:13.74 | 4:16.59 | 181049 | 200307
10 | 44:30.58 | 3:55.70 | 200308 | 218002
11 | 48:26.53 | 4:17.11 | 218003 | 237288
12 | 52:43.64 | 4:30.44 | 237289 | 257582
13 | 57:14.33 | 5:53.12 | 257583 | 284069
14 | 63:07.45 | 4:27.14 | 284070 | 304108
15 | 67:34.59 | 6:52.27 | 304109 | 335035

Track 1

Filename C:UsersСергейDesktopVA – Your Lounge Your Music 21. Kinobe – Slip Into Something….wav

Pre-gap length 0:00:02.00

Peak level 84.1 %
Extraction speed 2.5 X
Track quality 100.0 %
Test CRC E86924F9
Copy CRC E86924F9
Accurately ripped (confidence 2) [53C46572] (AR v1)
Copy OK

Track 2

Filename C:UsersСергейDesktopVA – Your Lounge Your Music 22. Hefner – Controversy.wav

Peak level 88.5 %
Extraction speed 2.9 X
Track quality 100.0 %
Test CRC 9EBFA703
Copy CRC 9EBFA703
Accurately ripped (confidence 2) [78C5685E] (AR v1)
Copy OK

Track 3

Filename C:UsersСергейDesktopVA – Your Lounge Your Music 23. Aim – Sail (Rae & Christian Remix).wav

Peak level 92.6 %
Extraction speed 3.3 X
Track quality 100.0 %
Test CRC B5273B6B
Copy CRC B5273B6B
Accurately ripped (confidence 2) [EEAC2B1F] (AR v1)
Copy OK

Track 4

Filename C:UsersСергейDesktopVA – Your Lounge Your Music 24. Athome Project – Summertime (Vocal Dub).wav

Peak level 73.7 %
Extraction speed 3.5 X
Track quality 100.0 %
Test CRC C0A7599C
Copy CRC C0A7599C
Accurately ripped (confidence 2) [C35D6E36] (AR v1)
Copy OK

Track 5

Filename C:UsersСергейDesktopVA – Your Lounge Your Music 25. Kate Rogers – Fine (Album Mix).wav

Peak level 99.9 %
Extraction speed 3.6 X
Track quality 100.0 %
Test CRC E347D5A8
Copy CRC E347D5A8
Accurately ripped (confidence 2) [697E9AB6] (AR v1)
Copy OK

Track 6

Filename C:UsersСергейDesktopVA – Your Lounge Your Music 26. Truant – Song Of A City.wav

Peak level 95.2 %
Extraction speed 3.9 X
Track quality 100.0 %
Test CRC 956EAF8A
Copy CRC 956EAF8A
Accurately ripped (confidence 2) [F281F27E] (AR v1)
Copy OK

Track 7

Filename C:UsersСергейDesktopVA – Your Lounge Your Music 27. Sin – Game Of Despise.wav

Peak level 99.9 %
Extraction speed 4.1 X
Track quality 100.0 %
Test CRC 24574B69
Copy CRC 24574B69
Accurately ripped (confidence 2) [63D0BED5] (AR v1)
Copy OK

Track 8

Filename C:UsersСергейDesktopVA – Your Lounge Your Music 28. SixSé – The Rain (Where Do I Begin) (Funky Lowlives Remix).wav

Peak level 81.7 %
Extraction speed 4.5 X
Track quality 100.0 %
Test CRC 87E1B05C
Copy CRC 87E1B05C
Accurately ripped (confidence 2) [CA4E0CC5] (AR v1)
Copy OK

Track 9

Filename C:UsersСергейDesktopVA – Your Lounge Your Music 29. Concoction Project – N.Y. Infiltration.wav

Peak level 96.3 %
Extraction speed 4.5 X
Track quality 100.0 %
Test CRC 3EFDA53F
Copy CRC 3EFDA53F
Accurately ripped (confidence 2) [68FA7404] (AR v1)
Copy OK

Track 10

Filename C:UsersСергейDesktopVA – Your Lounge Your Music 210. Enrico Riva – Too Young To Know (Edit).wav

Peak level 99.9 %
Extraction speed 4.6 X
Track quality 100.0 %
Test CRC A6096E2F
Copy CRC A6096E2F
Accurately ripped (confidence 2) [60D18B81] (AR v1)
Copy OK

Track 11

Filename C:UsersСергейDesktopVA – Your Lounge Your Music 211. Boyz From Brazil, The – Bom Bom Bé.wav

Peak level 74.4 %
Extraction speed 4.8 X
Track quality 100.0 %
Test CRC 7F91192C
Copy CRC 7F91192C
Accurately ripped (confidence 2) [408CCD66] (AR v1)
Copy OK

Track 12

Filename C:UsersСергейDesktopVA – Your Lounge Your Music 212. Roudoudou – Just A Place In The Sun.wav

Peak level 93.7 %
Extraction speed 4.5 X
Track quality 99.9 %
Test CRC C0E2BFD5
Copy CRC C0E2BFD5
Accurately ripped (confidence 2) [88978991] (AR v1)
Copy OK

Track 13

Filename C:UsersСергейDesktopVA – Your Lounge Your Music 213. Doris Days – To Ulrike M (Zero 7 Remix).wav

Pre-gap length 0:00:00.22

Peak level 69.4 %
Extraction speed 5.3 X
Track quality 100.0 %
Test CRC 66499E4C
Copy CRC 66499E4C
Accurately ripped (confidence 2) [1197F1B3] (AR v1)
Copy OK

Track 14

Filename C:UsersСергейDesktopVA – Your Lounge Your Music 214. Zero 7 – In The Waiting Line.wav

Peak level 89.1 %
Extraction speed 5.3 X
Track quality 100.0 %
Test CRC 72C2766C
Copy CRC 72C2766C
Accurately ripped (confidence 2) [9E5AC61F] (AR v1)
Copy OK

Track 15

Filename C:UsersСергейDesktopVA – Your Lounge Your Music 215. José Padilla – Adios Ayer (Zuell Remix).wav

Peak level 94.3 %
Extraction speed 5.2 X
Track quality 99.9 %
Test CRC E2EA5DF3
Copy CRC E2EA5DF3
Accurately ripped (confidence 2) [6D156857] (AR v1)
Copy OK

All tracks accurately ripped

No errors occurred

End of status report

==== Log checksum 7CACF55375F0E0925C74734614A7C1ADD691F455AD70264A275ED9C467AE7532 ====

EAC Log CD2
Exact Audio Copy V1.0 beta 6 from 9. April 2015

EAC extraction logfile from 4. January 2017, 18:54

Various / Your Lounge Your Music 2

Used drive : MATSHITABD-MLT UJ240ES Adapter: 1 ID: 0

Read mode : Secure
Utilize accurate stream : Yes
Defeat audio cache : Yes
Make use of C2 pointers : No

Read offset correction : 103
Overread into Lead-In and Lead-Out : No
Fill up missing offset samples with silence : Yes
Delete leading and trailing silent blocks : No
Null samples used in CRC calculations : Yes
Used interface : Native Win32 interface for Win NT & 2000
Gap handling : Appended to previous track

Used output format : User Defined Encoder
Selected bitrate : 768 kBit/s
Quality : High
Add ID3 tag : No
Command line compressor : C:Program Files (x86)Exact Audio CopyFLACFLAC.EXE
Additional command line options : -6 -V -T "ARTIST=%artist%" -T "TITLE=%title%" -T "ALBUM=%albumtitle%" -T "DATE=%year%" -T "TRACKNUMBER=%tracknr%" -T "GENRE=%genre%" -T "COMMENT=%comment%" -T "BAND=%albuminterpret%" -T "ALBUMARTIST=%albuminterpret%" -T "COMPOSER=%composer%" %haslyrics%–tag-from-file=LYRICS="%lyricsfile%"%haslyrics% -T "DISCNUMBER=%cdnumber%" -T "TOTALDISCS=%totalcds%" -T "TOTALTRACKS=%numtracks%" %hascover%–picture="%coverfile%"%hascover% %source% -o %dest%

TOC of the extracted CD

Track | Start | Length | Start sector | End sector
––––––––––––––––––––––––––––-
1 | 0:00.00 | 5:26.74 | 0 | 24523
2 | 5:26.74 | 6:52.34 | 24524 | 55457
3 | 12:19.33 | 4:26.63 | 55458 | 75470
4 | 16:46.21 | 5:32.01 | 75471 | 100371
5 | 22:18.22 | 6:37.44 | 100372 | 130190
6 | 28:55.66 | 4:02.50 | 130191 | 148390
7 | 32:58.41 | 4:43.18 | 148391 | 169633
8 | 37:41.59 | 5:07.53 | 169634 | 192711
9 | 42:49.37 | 6:49.07 | 192712 | 223393
10 | 49:38.44 | 3:53.23 | 223394 | 240891
11 | 53:31.67 | 7:39.36 | 240892 | 275352
12 | 61:11.28 | 6:09.22 | 275353 | 303049
13 | 67:20.50 | 6:23.64 | 303050 | 331838

Track 1

Filename C:UsersСергейDesktopVA – Your Lounge Your Music 2 CD21. State Of Bengal – Music Is ….wav

Pre-gap length 0:00:02.00

Peak level 94.3 %
Extraction speed 2.5 X
Track quality 99.9 %
Test CRC E9822A35
Copy CRC E9822A35
Accurately ripped (confidence 2) [2524EBB8] (AR v1)
Copy OK

Track 2

Filename C:UsersСергейDesktopVA – Your Lounge Your Music 2 CD22. Badmarsh & Shri – Lament.wav

Peak level 99.9 %
Extraction speed 3.2 X
Track quality 100.0 %
Test CRC 377A59DE
Copy CRC 377A59DE
Accurately ripped (confidence 2) [FBC15BA4] (AR v1)
Copy OK

Track 3

Filename C:UsersСергейDesktopVA – Your Lounge Your Music 2 CD23. Nitin Sawhney – Breathing Light.wav

Peak level 88.7 %
Extraction speed 3.3 X
Track quality 100.0 %
Test CRC 15A113D8
Copy CRC 15A113D8
Accurately ripped (confidence 2) [F21ECE58] (AR v1)
Copy OK

Track 4

Filename C:UsersСергейDesktopVA – Your Lounge Your Music 2 CD24. Nusrat Fateh Ali Khan – Musst Musst (Duck Pond Dub Mix).wav

Peak level 98.3 %
Extraction speed 3.4 X
Track quality 99.9 %
Test CRC E324A9A2
Copy CRC E324A9A2
Accurately ripped (confidence 2) [C348AE98] (AR v1)
Copy OK

Track 5

Filename C:UsersСергейDesktopVA – Your Lounge Your Music 2 CD25. Jah Wobble , Bill Laswell – 6th Chamber.wav

Peak level 84.0 %
Extraction speed 4.0 X
Track quality 100.0 %
Test CRC 47F9F4ED
Copy CRC 47F9F4ED
Accurately ripped (confidence 2) [219FA940] (AR v1)
Copy OK

Track 6

Filename C:UsersСергейDesktopVA – Your Lounge Your Music 2 CD26. Radar – Sirocco.wav

Peak level 83.7 %
Extraction speed 3.6 X
Track quality 99.9 %
Test CRC 714E4D29
Copy CRC 714E4D29
Accurately ripped (confidence 2) [9C288A82] (AR v1)
Copy OK

Track 7

Filename C:UsersСергейDesktopVA – Your Lounge Your Music 2 CD27. Enrico Riva & Shrulik Einhorn – Davar Gmalim.wav

Peak level 99.9 %
Extraction speed 4.3 X
Track quality 100.0 %
Test CRC DE76E659
Copy CRC DE76E659
Accurately ripped (confidence 2) [54D86448] (AR v1)
Copy OK

Track 8

Filename C:UsersСергейDesktopVA – Your Lounge Your Music 2 CD28. Joi – Mission.wav

Peak level 87.7 %
Extraction speed 4.5 X
Track quality 100.0 %
Test CRC 85A86028
Copy CRC 85A86028
Accurately ripped (confidence 2) [FF1735BF] (AR v1)
Copy OK

Track 9

Filename C:UsersСергейDesktopVA – Your Lounge Your Music 2 CD29. Outside – Tears (From Sorrow To Joy).wav

Peak level 90.2 %
Extraction speed 4.9 X
Track quality 100.0 %
Test CRC B3763DD5
Copy CRC B3763DD5
Accurately ripped (confidence 2) [9D1355C3] (AR v1)
Copy OK

Track 10

Filename C:UsersСергейDesktopVA – Your Lounge Your Music 2 CD210. Black Star Liner – Ethnic Suicide Of The Volga Boatmen.wav

Peak level 87.2 %
Extraction speed 4.7 X
Track quality 100.0 %
Test CRC 3947E88D
Copy CRC 3947E88D
Accurately ripped (confidence 2) [6D2FAE6F] (AR v1)
Copy OK

Track 11

Filename C:UsersСергейDesktopVA – Your Lounge Your Music 2 CD211. Viragi – The Seven Heads Of Propaganda.wav

Peak level 91.7 %
Extraction speed 5.0 X
Track quality 99.9 %
Test CRC A2E43B15
Copy CRC A2E43B15
Accurately ripped (confidence 2) [ABDF50F1] (AR v1)
Copy OK

Track 12

Filename C:UsersСергейDesktopVA – Your Lounge Your Music 2 CD212. Dum Dum Project, The – Hey Diwani, Hey Diwana.wav

Peak level 69.0 %
Extraction speed 5.4 X
Track quality 100.0 %
Test CRC 580C545D
Copy CRC 580C545D
Accurately ripped (confidence 2) [9C027083] (AR v1)
Copy OK

Track 13

Filename C:UsersСергейDesktopVA – Your Lounge Your Music 2 CD213. Loop Guru – Yayli.wav

Peak level 98.2 %
Extraction speed 5.6 X
Track quality 100.0 %
Test CRC 8CBFD337
Copy CRC 8CBFD337
Accurately ripped (confidence 2) [38830D42] (AR v1)
Copy OK

All tracks accurately ripped

No errors occurred

End of status report

==== Log checksum 2B1F52450EA374366A44051A2FEBEF2600B00FEDCBF0E34D5E8EDAF9C7188ECA ====

Tracklist:
CD 1: The New Pop
01. Kinobe – Slip Into Something… [03:31]
02. Hefner – Controversy [04:53]
03. Aim – Sail (Rae & Christian Remix) [06:17]
04. Athome Project – Summertime (Vocal Dub) [04:37]
05. Kate Rogers – Fine (Album Mix) [04:12]
06. Truant – Song Of A City [04:52]
07. Sin – Game Of Despise [04:30]
08. Si*Sé – The Rain (Where Do I Begin) (Funky Lowlives Remix) [07:18]
09. Concoction Project – N.Y. Infiltration [04:16]
10. Enrico Riva – Too Young To Know (Edit) [03:55]
11. The Boyz From Brazil – Bom Bom Bé [04:17]
12. Roudoudou – Just A Place In The Sun [04:30]
13. Doris Days – To Ulrike M (Zero 7 Remix) [05:53]
14. Zero 7 – In The Waiting Line [04:27]
15. José Padilla – Adios Ayer (Zuell Remix) [06:52]

CD 2: Indian Vibes
01. State Of Bengal – Music Is… [05:26]
02. Badmarsh & Shri – Lament [06:52]
03. Nitin Sawhney – Breathing Light [04:26]
04. Nusrat Fateh Ali Khan – Musst Musst (Duck Pond Dub Mix) [05:32]
05. Jah Wobble / Bill Laswell – 6th Chamber [06:37]
06. Radar – Sirocco [04:02]
07. Enrico Riva & Shrulik Einhorn – Davar Gmalim [04:43]
08. Joi – Mission [05:07]
09. Outside – Tears (From Sorrow To Joy) [06:49]
10. Black Star Liner – Ethnic Suicide Of The Volga Boatmen [03:53]
11. Viragi – The Seven Heads Of Propaganda [07:39]
12. The Dum Dum Project – Hey Diwani, Hey Diwana [06:09]
13. Loop Guru – Yayli [06:23]

VA – Your Lounge Your Music 2 (2002) Download, Warez, DDL, Free, Full Album, Torrent, Legal.

Download


  • Recent Posts

  • Recent Tags