VA – Welcome To Zamrock How Zambias Liberation Led To A Rock Revolution Vol.1 1972-1977 (2017)

Download
VA - Welcome To Zamrock How Zambias Liberation Led To A Rock Revolution Vol.1 1972-1977 (2017)

VA – Welcome To Zamrock How Zambias Liberation Led To A Rock Revolution Vol.1 1972-1977 (2017)
XLD Rip | FLAC (Tracks) +cue, log – 316 MB | 01:07:02
Rock, Funk Rock, Psychedelic Rock, World | Label: Now Again Records

By the mid 1970s, the Southern African nation known as the Republic of Zambia had fallen on hard times. Though the country’s first president Kenneth Kaunda had thrown off the yoke of British colonialism, the new federation found itself under his self-imposed, autocratic rule. Conflict loomed on all sides of this landlocked nation. Kaunda protected Zambia from war, but his country descended into isolation and poverty as he supported rebel movements in neighboring countries Angola, Zimbabwe and Mozambique and stood up against apartheid South Africa.

This is the environment in which the 70s rock revolution that has come to be known as Zamrock flourished. It’s no wonder that the Zambian musicians taken by American and European influences gravitated to the dark side of the rock and funk spectrum. Fuzz guitars were commonplace, as were driving rhythms influenced by James Brown’s funk and Jimi Hendrix’s rock. Musical themes, mainly sung in the country’s constitutional language, English, were often bleak.

When Now-Again Records’s Eothen “Egon” Alapatt started his investigation into this scene, he found that Zamrock markers were few. Only a small number of the original Zamrock godfathers that remained in the country survived through the late ’90s, when the music recorded in ’70s Zambia became the final frontier for those global-psychedelic rock junkies searching for their next fix. AIDS decimated this country, and uncontrollable inflation forced the Zambian rockers that could afford to flee into something resembling exile.

This was not a likely scene to survive – but it did. Following Now-Again’s previous anthologies centered around Zamrock bands WITCH, Ngozi Family, Amanaz and Musi-O-Tunya, Welcome To Zamrock!, presented in two volumes, arrives; these two volumes highlight Now-Again’s decade-long investigation into this musical movement and present the definitive overview of its most beloved ensembles. Zamrock’s ascension, its fall and its resurgence is detailed in an extensive book written by Alapatt and Zambian music historian Leonard Koloko. Both Welcome To Zamrock! volumes are presented as 2LPs (with WAV download card and edited booklet) and also as a full 104-page hardcover book with CD. Bundles of both formats are available only via Rappcats, at a discounted price. Both anthologies contain rare tracks by WITCH, Amanaz, Paul Ngozi, Chrissy Zebby Tembo, Five Revolutions, Dr. Footswitch and every important Zamrock band.

TRACKLIST

01. Ngozi Family – Hi Babe
02. Musi-O-Tunya – Musi-O-Tunya
03. Witch – You Better Know
04. Blackfoot – Running
05. Footswitch – Everyday Has Got a New Dream
06. Chrissy Zebby Tembo – Born Black
07. Salty Dog – Fast
08. Teddy Chisi – Funky Lady
09. Crossbones – Rain & Sunshine
10. Born Free – I Don’t Know
11. The Five Revolutions – Few Bana Zambia
12. Amanaz – Khala My Friend
13. Ricky Banda – Who’s That Guy
14. The Machine Gunners – Changa Namwele
15. Keith mlevhu – Dzikolino Ni Zambia
16. Cosmos Zani – Poverty

EAC
X Lossless Decoder version 20151214 (149.1)

XLD extraction logfile from 2017-05-10 18:36:45 -0700

Various Artists / Welcome to Zamrock

Used drive : MATSHITA DVD-R UJ-868 (revision KB19)
Media type : Pressed CD

Ripper mode : XLD Secure Ripper
Disable audio cache : OK for the drive with a cache less than 1375KiB
Make use of C2 pointers : NO
Read offset correction : 102
Max retry count : 20
Gap status : Analyzed, Appended (except HTOA)

TOC of the extracted CD
Track | Start | Length | Start sector | End sector
––––––––––––––––––––––––––––-
1 | 00:00:00 | 04:02:46 | 0 | 18195
2 | 04:02:46 | 04:10:12 | 18196 | 36957
3 | 08:12:58 | 03:30:23 | 36958 | 52730
4 | 11:43:06 | 03:54:60 | 52731 | 70340
5 | 15:37:66 | 02:34:23 | 70341 | 81913
6 | 18:12:14 | 03:17:50 | 81914 | 96738
7 | 21:29:64 | 04:49:29 | 96739 | 118442
8 | 26:19:18 | 06:09:74 | 118443 | 146191
9 | 32:29:17 | 04:42:29 | 146192 | 167370
10 | 37:11:46 | 04:30:29 | 167371 | 187649
11 | 41:42:00 | 04:22:28 | 187650 | 207327
12 | 46:04:28 | 03:20:70 | 207328 | 222397
13 | 49:25:23 | 04:39:06 | 222398 | 243328
14 | 54:04:29 | 03:52:32 | 243329 | 260760
15 | 57:56:61 | 05:00:03 | 260761 | 283263
16 | 62:56:64 | 04:11:70 | 283264 | 302158

AccurateRip Summary
Disc not found in AccurateRip DB.

All Tracks
Album gain : -8.89 dB
Peak : 1.000000
Statistics
Read error : 0
Jitter error (maybe fixed) : 0
Retry sector count : 0
Damaged sector count : 0

Track 01
Filename : /Volumes/DISK1S1/Rips/Various Artists – Welcome to Zamrock (2017) [FLAC]/01 – Ngozi Family – Hi Babe.flac
Pre-gap length : 00:02:00

Track gain : -6.45 dB
Peak : 0.971008
CRC32 hash (test run) : 3FEC1F30
CRC32 hash : 3FEC1F30
CRC32 hash (skip zero) : FF937327
AccurateRip v1 signature : 75B1772D
AccurateRip v2 signature : E276E8BC
->Track not present in AccurateRip database.
Statistics
Read error : 0
Jitter error (maybe fixed) : 0
Retry sector count : 0
Damaged sector count : 0

Track 02
Filename : /Volumes/DISK1S1/Rips/Various Artists – Welcome to Zamrock (2017) [FLAC]/02 – Musi-O-Tunya – Musi-O-Tunya.flac

Track gain : -7.71 dB
Peak : 0.971863
CRC32 hash (test run) : 0E750A17
CRC32 hash : 0E750A17
CRC32 hash (skip zero) : E269A1EF
AccurateRip v1 signature : E3D51DD6
AccurateRip v2 signature : 18E0A26C
->Track not present in AccurateRip database.
Statistics
Read error : 0
Jitter error (maybe fixed) : 0
Retry sector count : 0
Damaged sector count : 0

Track 03
Filename : /Volumes/DISK1S1/Rips/Various Artists – Welcome to Zamrock (2017) [FLAC]/03 – WITCH – You Better Know (Original Version).flac

Track gain : -7.87 dB
Peak : 0.971008
CRC32 hash (test run) : B0D461E3
CRC32 hash : B0D461E3
CRC32 hash (skip zero) : 9883585A
AccurateRip v1 signature : EDF748C0
AccurateRip v2 signature : BC221CD7
->Track not present in AccurateRip database.
Statistics
Read error : 0
Jitter error (maybe fixed) : 0
Retry sector count : 0
Damaged sector count : 0

Track 04
Filename : /Volumes/DISK1S1/Rips/Various Artists – Welcome to Zamrock (2017) [FLAC]/04 – Blackfoot – Running.flac

Track gain : -7.31 dB
Peak : 0.971008
CRC32 hash (test run) : D7FD6B80
CRC32 hash : D7FD6B80
CRC32 hash (skip zero) : 9E76173C
AccurateRip v1 signature : F5C10192
AccurateRip v2 signature : 006579BA
->Track not present in AccurateRip database.
Statistics
Read error : 0
Jitter error (maybe fixed) : 0
Retry sector count : 0
Damaged sector count : 0

Track 05
Filename : /Volumes/DISK1S1/Rips/Various Artists – Welcome to Zamrock (2017) [FLAC]/05 – Dr. Footswitch – Everyday Has Got a New Dream.flac

Track gain : -5.53 dB
Peak : 0.971008
CRC32 hash (test run) : 7110227D
CRC32 hash : 7110227D
CRC32 hash (skip zero) : 0D443824
AccurateRip v1 signature : 79E38A12
AccurateRip v2 signature : ECCA8AAA
->Track not present in AccurateRip database.
Statistics
Read error : 0
Jitter error (maybe fixed) : 0
Retry sector count : 0
Damaged sector count : 0

Track 06
Filename : /Volumes/DISK1S1/Rips/Various Artists – Welcome to Zamrock (2017) [FLAC]/06 – Chrissy Zebby Tembo – Born Black.flac

Track gain : -9.87 dB
Peak : 0.971008
CRC32 hash (test run) : 9AFCF76E
CRC32 hash : 9AFCF76E
CRC32 hash (skip zero) : F5F1A888
AccurateRip v1 signature : 6AC3E4FF
AccurateRip v2 signature : 2ABCA11C
->Track not present in AccurateRip database.
Statistics
Read error : 0
Jitter error (maybe fixed) : 0
Retry sector count : 0
Damaged sector count : 0

Track 07
Filename : /Volumes/DISK1S1/Rips/Various Artists – Welcome to Zamrock (2017) [FLAC]/07 – Salty Dog – Fast.flac

Track gain : -8.38 dB
Peak : 0.971008
CRC32 hash (test run) : BB5035DE
CRC32 hash : BB5035DE
CRC32 hash (skip zero) : 7F65766D
AccurateRip v1 signature : 296ED53D
AccurateRip v2 signature : F1253680
->Track not present in AccurateRip database.
Statistics
Read error : 0
Jitter error (maybe fixed) : 0
Retry sector count : 0
Damaged sector count : 0

Track 08
Filename : /Volumes/DISK1S1/Rips/Various Artists – Welcome to Zamrock (2017) [FLAC]/08 – Teddy Chisi – Funky Lady.flac

Track gain : -10.08 dB
Peak : 0.971008
CRC32 hash (test run) : 111640B3
CRC32 hash : 111640B3
CRC32 hash (skip zero) : 1507D5A5
AccurateRip v1 signature : DD32D798
AccurateRip v2 signature : 127040C7
->Track not present in AccurateRip database.
Statistics
Read error : 0
Jitter error (maybe fixed) : 0
Retry sector count : 0
Damaged sector count : 0

Track 09
Filename : /Volumes/DISK1S1/Rips/Various Artists – Welcome to Zamrock (2017) [FLAC]/09 – Crossbones – Rain & Sunshine.flac

Track gain : -7.04 dB
Peak : 0.971008
CRC32 hash (test run) : 76472B12
CRC32 hash : 76472B12
CRC32 hash (skip zero) : 133324F6
AccurateRip v1 signature : A4ED13BC
AccurateRip v2 signature : 2E277396
->Track not present in AccurateRip database.
Statistics
Read error : 0
Jitter error (maybe fixed) : 0
Retry sector count : 0
Damaged sector count : 0

Track 10
Filename : /Volumes/DISK1S1/Rips/Various Artists – Welcome to Zamrock (2017) [FLAC]/10 – Born Free – I Don’t Know.flac

Track gain : -9.15 dB
Peak : 0.987061
CRC32 hash (test run) : E79564AB
CRC32 hash : E79564AB
CRC32 hash (skip zero) : 63085AB8
AccurateRip v1 signature : 23CF5222
AccurateRip v2 signature : C7EDF381
->Track not present in AccurateRip database.
Statistics
Read error : 0
Jitter error (maybe fixed) : 0
Retry sector count : 0
Damaged sector count : 0

Track 11
Filename : /Volumes/DISK1S1/Rips/Various Artists – Welcome to Zamrock (2017) [FLAC]/11 – Five Revolutions – Fwe Bena Zambia.flac

Track gain : -11.88 dB
Peak : 1.000000
CRC32 hash (test run) : 7E0D4B76
CRC32 hash : 7E0D4B76
CRC32 hash (skip zero) : B5250CE3
AccurateRip v1 signature : 5A8F6DC2
AccurateRip v2 signature : 8D9CD73C
->Track not present in AccurateRip database.
Statistics
Read error : 0
Jitter error (maybe fixed) : 0
Retry sector count : 0
Damaged sector count : 0

Track 12
Filename : /Volumes/DISK1S1/Rips/Various Artists – Welcome to Zamrock (2017) [FLAC]/12 – Amanaz – Khala My Friend (Reverb Version).flac

Track gain : -7.18 dB
Peak : 0.978973
CRC32 hash (test run) : 04B241CE
CRC32 hash : 04B241CE
CRC32 hash (skip zero) : 61C36DE2
AccurateRip v1 signature : C7598262
AccurateRip v2 signature : 935FD2FF
->Track not present in AccurateRip database.
Statistics
Read error : 0
Jitter error (maybe fixed) : 0
Retry sector count : 0
Damaged sector count : 0

Track 13
Filename : /Volumes/DISK1S1/Rips/Various Artists – Welcome to Zamrock (2017) [FLAC]/13 – Ricky Banda – Who’s That Guy.flac

Track gain : -5.76 dB
Peak : 0.971008
CRC32 hash (test run) : C78EBC82
CRC32 hash : C78EBC82
CRC32 hash (skip zero) : 2D0ABD6B
AccurateRip v1 signature : 49708656
AccurateRip v2 signature : 245F871C
->Track not present in AccurateRip database.
Statistics
Read error : 0
Jitter error (maybe fixed) : 0
Retry sector count : 0
Damaged sector count : 0

Track 14
Filename : /Volumes/DISK1S1/Rips/Various Artists – Welcome to Zamrock (2017) [FLAC]/14 – Machine Gunners – Changa Namwele.flac

Track gain : -5.42 dB
Peak : 0.971008
CRC32 hash (test run) : 1911CB57
CRC32 hash : 1911CB57
CRC32 hash (skip zero) : A4EDA84F
AccurateRip v1 signature : 3B077837
AccurateRip v2 signature : A91879EA
->Track not present in AccurateRip database.
Statistics
Read error : 0
Jitter error (maybe fixed) : 0
Retry sector count : 0
Damaged sector count : 0

Track 15
Filename : /Volumes/DISK1S1/Rips/Various Artists – Welcome to Zamrock (2017) [FLAC]/15 – Keith Mlevhu – Dzikolino Ni Zambia.flac

Track gain : -7.54 dB
Peak : 0.971008
CRC32 hash (test run) : 7DE2619F
CRC32 hash : 7DE2619F
CRC32 hash (skip zero) : BF68D9DB
AccurateRip v1 signature : 5E513B56
AccurateRip v2 signature : 7544BDB6
->Track not present in AccurateRip database.
Statistics
Read error : 0
Jitter error (maybe fixed) : 0
Retry sector count : 0
Damaged sector count : 0

Track 16
Filename : /Volumes/DISK1S1/Rips/Various Artists – Welcome to Zamrock (2017) [FLAC]/16 – Cosmos Zani – Poverty.flac

Track gain : -9.43 dB
Peak : 0.971008
CRC32 hash (test run) : 2D8CF0AA
CRC32 hash : 2D8CF0AA
CRC32 hash (skip zero) : 2655267D
AccurateRip v1 signature : 0E85772E
AccurateRip v2 signature : 6A85814B
->Track not present in AccurateRip database.
Statistics
Read error : 0
Jitter error (maybe fixed) : 0
Retry sector count : 0
Damaged sector count : 0

No errors occurred

End of status report

––-BEGIN XLD SIGNATURE––-
IvJKJVPOgqUmXxS.1fLeskcBqN6AbEev_EtqXrcSr5Y_ePlWiGcaajvV495Bn25015N12eH6wp3PsTDA06EYIgNU.0xTGK.jZmvPQoi
––-END XLD SIGNATURE––-

All thanks go to the original releaser

VA – Welcome To Zamrock How Zambias Liberation Led To A Rock Revolution Vol.1 1972-1977 (2017) Download, Warez, DDL, Free, Full Album, Torrent, Legal.

Download