VA – The Ultimate Christmas Album, WCBS-FM 101.1, Vol. 7 (2008) | ViralVideoPk

Daily Dose of Free Downloads

VA – The Ultimate Christmas Album, WCBS-FM 101.1, Vol. 7 (2008)

Download

VA - The Ultimate Christmas Album, WCBS-FM 101.1, Vol. 7 (2008)

VA – The Ultimate Christmas Album, WCBS-FM 101.1, Vol. 7 (2008)
24 MORE Great Songs for the 25th of December

EAC | FLAC (Image) + cue.+log ~ 534 Mb | Mp3, CBR320 kbps ~ 220 Mb | Scans included
Holidays, Christmas, Vocal Pop, Country Pop, R&B | Collectables | # COL-CD-1249 | 01:19:24

Collectables presents 24 more of the greatest holiday hits of all time. All songs are the original hits by the original artists that made them great. Elvis Presley, Andy Williams, Frank Sinatra, Bing Cosby, Brian Wilson, Perry Como, Johnny Mathis, Barry Manilow, Luther Vandross, Michael Bolton, Gloria Estefan, Johnny Cash, Willie Nelson, Kenny Loggins, Buster Poindexter, Englebert Humperdinck, Donny Osmond, John Denver, The Manhattan Transfer, Gladys Knight, Kenny Vance, Bobby Vinton and Aretha Franklin.

It’s been seven years since the last disc in this series of albums. This disc was released in 2008. The last one, Volume 6, was released in 2001. Several things happened between now and then. The flagship radio station responsible for these CDs, CBS FM, went through some changes and was even off the air for a couple of years in New York City. It’s back on due to popular demand and public outcry. Joe McCoy, the man who compiled the songs for the other Ultimate Christmas CDs, is no longer with CBS FM, so the selection of songs on this CD are a little different.

Luther Vandross, Michael Bolton and Gloria Estefan make their debuts on this series of discs, they weren’t on the previous ones. But don’t worry, the usual suspects are on here as well. Elvis, Bing, Frank, Johnny, Andy, Aretha, Perry and Barry are here as well. There’s also a couple of rare and unusual tracks. Buster Poindexter does Zat You Santa Claus?, and Kenny Vance does Mister Santa. Brian Wilson does his latest version of Little Saint Nick, and Willie Nelson, the man who wrote Pretty Paper, sings it. Johnny Cash, Englebert Humperdinck, Donny Osmond, John Denver, The Manhattan Transfer and Gladys Knight & The Pips are here too. The closing track is Run Rudolph Run by the Dave Edmunds Band.

Michael Ceciliani, Amazon.com

VA - The Ultimate Christmas Album, WCBS-FM 101.1, Vol. 7 (2008)

Tracklist:

01. Elvis Presley – Here Comes Santa Claus (Right Down Santa Claus Lane) (01:56)
02. Andy Williams – Christmas Holiday (01:51)
03. Johnny Mathis – The First Noel (03:48)
04. Barry Manilow – White Christmas (01:34)
05. Luther Vandross – My Favorite Things (05:57)
06. Frank Sinatra – Adeste Fideles (O Come All Ye Faithful) (02:36)
07. The Manhatten Transfer – Let Is Snow! Let Is Snow! Let Is Snow! (04:35)
08. Buster Poindexter & His Banshees Of Blue – ‘Zat You, Santa Claus? (02:49)
09. Brian Wilson – Little Saint Nick (02:09)
10. Johnny Cash – Blue Christmas (02:23)
11. Gladys Knight & The Pips – This Christmas (03:28)
12. Bing Cosby (with Frank DeVol & His Orchestra) – The Secret Of Christmas (02:54)
13. Kenny Vance & The Planotones – Mister Santa (03:04)
14. Bobby Vinton – O Holy Night (03:37)
15. Michael Bolton – Santa Claus Is Comin’ To Town (04:04)
16. Aretha Franklin – Joy To The World (03:02)
17. Perry Como – Do You Hear What I Hear? (03:13)
18. Engelbert Humperdinck – God Rest Ye Merry Gentlemen (02:23)
19. Gloria Estefan – Christmas Through Your Eyes (04:50)
20. Donny Osmond – It’s The Most Wonderful Time Of The Year (03:37)
21. Kenny Loggins – The Bells Of Christmas (05:59)
22. Willie Nelson – Pretty Paper (02:23)
23. John Denver – The Christmas Song (03:15)
24. Dave Edmunds Band – Run Rudolph Run (03:45)

EAC log
Exact Audio Copy V1.0 beta 6 from 9. April 2015

EAC extraction logfile from 4. December 2015, 0:36

Various Artists / The Ultimate Christmas Album Volume 7

Used drive : hp DVD-RAM GH82N Adapter: 1 ID: 0

Read mode : Secure
Utilize accurate stream : Yes
Defeat audio cache : Yes
Make use of C2 pointers : No

Read offset correction : 667
Overread into Lead-In and Lead-Out : No
Fill up missing offset samples with silence : Yes
Delete leading and trailing silent blocks : No
Null samples used in CRC calculations : Yes
Used interface : Native Win32 interface for Win NT & 2000
Gap handling : Appended to previous track

Used output format : User Defined Encoder
Selected bitrate : 1024 kBit/s
Quality : High
Add ID3 tag : No
Command line compressor : C:Program Files (x86)Exact Audio CopyFlacflac.exe
Additional command line options : -8 -V -T "ARTIST=%artist%" -T "TITLE=%title%" -T "ALBUM=%albumtitle%" -T "DATE=%year%" -T "TRACKNUMBER=%tracknr%" -T "TOTALTRACKS=%numtracks%" -T "GENRE=%genre%" -T "ALBUMARTIST=%albumartist%" -T "ALBUM ARTIST=%albumartist%" -T "COMMENT=EAC Secure Mode, Test & Copy, AccurateRip, FLAC -8" %source%

TOC of the extracted CD

Track | Start | Length | Start sector | End sector
––––––––––––––––––––––––––––-
1 | 0:00.00 | 1:56.05 | 0 | 8704
2 | 1:56.05 | 1:51.14 | 8705 | 17043
3 | 3:47.19 | 3:48.27 | 17044 | 34170
4 | 7:35.46 | 1:34.15 | 34171 | 41235
5 | 9:09.61 | 5:57.12 | 41236 | 68022
6 | 15:06.73 | 2:36.42 | 68023 | 79764
7 | 17:43.40 | 4:35.70 | 79765 | 100459
8 | 22:19.35 | 2:49.16 | 100460 | 113150
9 | 25:08.51 | 2:09.43 | 113151 | 122868
10 | 27:18.19 | 2:23.68 | 122869 | 133661
11 | 29:42.12 | 3:28.53 | 133662 | 149314
12 | 33:10.65 | 2:54.59 | 149315 | 162423
13 | 36:05.49 | 3:04.11 | 162424 | 176234
14 | 39:09.60 | 3:37.53 | 176235 | 192562
15 | 42:47.38 | 4:04.08 | 192563 | 210870
16 | 46:51.46 | 3:02.71 | 210871 | 224591
17 | 49:54.42 | 3:13.30 | 224592 | 239096
18 | 53:07.72 | 2:23.04 | 239097 | 249825
19 | 55:31.01 | 4:50.14 | 249826 | 271589
20 | 60:21.15 | 3:37.28 | 271590 | 287892
21 | 63:58.43 | 5:59.74 | 287893 | 314891
22 | 69:58.42 | 2:23.63 | 314892 | 325679
23 | 72:22.30 | 3:15.53 | 325680 | 340357
24 | 75:38.08 | 3:45.68 | 340358 | 357300

Track 1

Filename C:EAC1 – Elvis Presley – Here Comes Santa Claus (Right Down Santa Claus Lane).wav

Pre-gap length 0:00:02.00

Peak level 96.6 %
Extraction speed 1.5 X
Track quality 100.0 %
Test CRC 34A7F29A
Copy CRC 34A7F29A
Accurately ripped (confidence 1) [877EE710] (AR v2)
Copy OK

Track 2

Filename C:EAC2 – Andy Williams – Christmas Holiday.wav

Pre-gap length 0:00:02.00

Peak level 96.6 %
Extraction speed 1.3 X
Track quality 99.9 %
Test CRC 6CE68143
Copy CRC 6CE68143
Accurately ripped (confidence 1) [D6D6E585] (AR v2)
Copy OK

Track 3

Filename C:EAC3 – Johnny Mathis – The First Noel.wav

Pre-gap length 0:00:02.00

Peak level 96.6 %
Extraction speed 1.9 X
Track quality 100.0 %
Test CRC A09255C4
Copy CRC A09255C4
Accurately ripped (confidence 1) [CE482109] (AR v2)
Copy OK

Track 4

Filename C:EAC4 – Barry Manilow – White Christmas.wav

Pre-gap length 0:00:02.00

Peak level 96.6 %
Extraction speed 1.6 X
Track quality 100.0 %
Test CRC 763190F9
Copy CRC 763190F9
Accurately ripped (confidence 1) [E9CB0E48] (AR v2)
Copy OK

Track 5

Filename C:EAC5 – Luther Vandross – My Favorite Things.wav

Pre-gap length 0:00:02.00

Peak level 96.6 %
Extraction speed 2.3 X
Track quality 100.0 %
Test CRC 602521B2
Copy CRC 602521B2
Accurately ripped (confidence 1) [57EEA5EB] (AR v2)
Copy OK

Track 6

Filename C:EAC6 – Frank Sinatra – Adeste Fideles (O Come All Ye Faithful).wav

Pre-gap length 0:00:02.00

Peak level 96.6 %
Extraction speed 2.2 X
Track quality 100.0 %
Test CRC BCA9D468
Copy CRC BCA9D468
Accurately ripped (confidence 1) [FAE0EF61] (AR v2)
Copy OK

Track 7

Filename C:EAC7 – The Manhatten Transfer – Let Is Snow! Let Is Snow! Let Is Snow!.wav

Pre-gap length 0:00:02.00

Peak level 96.6 %
Extraction speed 2.5 X
Track quality 100.0 %
Test CRC 6C4C5C3E
Copy CRC 6C4C5C3E
Accurately ripped (confidence 1) [0011640D] (AR v2)
Copy OK

Track 8

Filename C:EAC8 – Buster Poindexter & His Banshees Of Blue – ‘Zat You, Santa Claus.wav

Pre-gap length 0:00:02.00

Peak level 94.3 %
Extraction speed 2.4 X
Track quality 100.0 %
Test CRC 353070BA
Copy CRC 353070BA
Accurately ripped (confidence 1) [9400DD69] (AR v2)
Copy OK

Track 9

Filename C:EAC9 – Brian Wilson – Little Saint Nick.wav

Pre-gap length 0:00:02.00

Peak level 96.6 %
Extraction speed 2.4 X
Track quality 100.0 %
Test CRC D7B6D84B
Copy CRC D7B6D84B
Accurately ripped (confidence 1) [AFC491BE] (AR v2)
Copy OK

Track 10

Filename C:EAC10 – Johnny Cash – Blue Christmas.wav

Pre-gap length 0:00:02.00

Peak level 96.6 %
Extraction speed 2.5 X
Track quality 100.0 %
Test CRC 93D95D11
Copy CRC 93D95D11
Accurately ripped (confidence 1) [F5C90556] (AR v2)
Copy OK

Track 11

Filename C:EAC11 – Gladys Knight & The Pips – This Christmas.wav

Pre-gap length 0:00:02.00

Peak level 96.6 %
Extraction speed 2.7 X
Track quality 100.0 %
Test CRC 6584E4E6
Copy CRC 6584E4E6
Accurately ripped (confidence 1) [D2559EB4] (AR v2)
Copy OK

Track 12

Filename C:EAC12 – Bing Cosby (with Frank DeVol & His Orchestra) – The Secret Of Christmas.wav

Pre-gap length 0:00:02.00

Peak level 96.6 %
Extraction speed 2.8 X
Track quality 100.0 %
Test CRC BFAA140E
Copy CRC BFAA140E
Accurately ripped (confidence 1) [A1C9B5C3] (AR v2)
Copy OK

Track 13

Filename C:EAC13 – Kenny Vance & The Planotones – Mister Santa.wav

Pre-gap length 0:00:02.00

Peak level 96.6 %
Extraction speed 2.8 X
Track quality 100.0 %
Test CRC B354B057
Copy CRC B354B057
Accurately ripped (confidence 1) [A0CEC74F] (AR v2)
Copy OK

Track 14

Filename C:EAC14 – Bobby Vinton – O Holy Night.wav

Pre-gap length 0:00:02.00

Peak level 96.6 %
Extraction speed 3.0 X
Track quality 100.0 %
Test CRC 0B16308B
Copy CRC 0B16308B
Accurately ripped (confidence 1) [24B90C6F] (AR v2)
Copy OK

Track 15

Filename C:EAC15 – Michael Bolton – Santa Claus Is Comin’ To Town.wav

Pre-gap length 0:00:02.00

Peak level 96.6 %
Extraction speed 3.2 X
Track quality 100.0 %
Test CRC 9F3A4ED7
Copy CRC 9F3A4ED7
Accurately ripped (confidence 1) [A7573D76] (AR v2)
Copy OK

Track 16

Filename C:EAC16 – Aretha Franklin – Joy To The World.wav

Pre-gap length 0:00:02.00

Peak level 78.0 %
Extraction speed 2.6 X
Track quality 99.9 %
Test CRC D1D420DE
Copy CRC D1D420DE
Accurately ripped (confidence 1) [00A5407C] (AR v2)
Copy OK

Track 17

Filename C:EAC17 – Perry Como – Do You Hear What I Hear.wav

Pre-gap length 0:00:02.00

Peak level 96.6 %
Extraction speed 3.1 X
Track quality 100.0 %
Test CRC AB8EC6B6
Copy CRC AB8EC6B6
Accurately ripped (confidence 1) [FAC73305] (AR v2)
Copy OK

Track 18

Filename C:EAC18 – Engelbert Humperdinck – God Rest Ye Merry Gentlemen.wav

Pre-gap length 0:00:02.00

Peak level 96.6 %
Extraction speed 2.5 X
Track quality 99.9 %
Test CRC 19183B77
Copy CRC 19183B77
Accurately ripped (confidence 1) [71BE6AF7] (AR v2)
Copy OK

Track 19

Filename C:EAC19 – Gloria Estefan – Christmas Through Your Eyes.wav

Pre-gap length 0:00:02.00

Peak level 96.6 %
Extraction speed 3.2 X
Track quality 99.9 %
Test CRC C606FB1A
Copy CRC C606FB1A
Accurately ripped (confidence 1) [1CA77AF0] (AR v2)
Copy OK

Track 20

Filename C:EAC20 – Donny Osmond – It’s The Most Wonderful Time Of The Year.wav

Pre-gap length 0:00:02.00

Peak level 96.6 %
Extraction speed 3.4 X
Track quality 100.0 %
Test CRC B1FD29BF
Copy CRC B1FD29BF
Accurately ripped (confidence 1) [BCCA1A0F] (AR v2)
Copy OK

Track 21

Filename C:EAC21 – Kenny Loggins – The Bells Of Christmas.wav

Pre-gap length 0:00:02.00

Peak level 96.6 %
Extraction speed 3.8 X
Track quality 100.0 %
Test CRC F02DCDEF
Copy CRC F02DCDEF
Accurately ripped (confidence 1) [4BBEFBEC] (AR v2)
Copy OK

Track 22

Filename C:EAC22 – Willie Nelson – Pretty Paper.wav

Pre-gap length 0:00:02.00

Peak level 96.6 %
Extraction speed 3.4 X
Track quality 100.0 %
Test CRC FC87016A
Copy CRC FC87016A
Accurately ripped (confidence 1) [DA52B11D] (AR v2)
Copy OK

Track 23

Filename C:EAC23 – John Denver – The Christmas Song.wav

Pre-gap length 0:00:02.00

Peak level 96.6 %
Extraction speed 3.7 X
Track quality 100.0 %
Test CRC 271AF8D1
Copy CRC 271AF8D1
Accurately ripped (confidence 1) [A4091530] (AR v2)
Copy OK

Track 24

Filename C:EAC24 – Dave Edmunds Band – Run Rudolph Run.wav

Pre-gap length 0:00:02.00

Peak level 96.6 %
Extraction speed 3.9 X
Track quality 100.0 %
Test CRC 37CA8EFF
Copy CRC 37CA8EFF
Accurately ripped (confidence 1) [D6805B76] (AR v2)
Copy OK

All tracks accurately ripped

No errors occurred

End of status report

–– CUETools DB Plugin V2.1.6

[CTDB TOCID: TQ7RvL1Suy4uce26P590YxE27Lc-] found
Submit result: TQ7RvL1Suy4uce26P590YxE27Lc- has been confirmed
Track | CTDB Status
1 | (2/2) Accurately ripped
2 | (2/2) Accurately ripped
3 | (2/2) Accurately ripped
4 | (2/2) Accurately ripped
5 | (2/2) Accurately ripped
6 | (2/2) Accurately ripped
7 | (2/2) Accurately ripped
8 | (2/2) Accurately ripped
9 | (2/2) Accurately ripped
10 | (2/2) Accurately ripped
11 | (2/2) Accurately ripped
12 | (2/2) Accurately ripped
13 | (2/2) Accurately ripped
14 | (2/2) Accurately ripped
15 | (2/2) Accurately ripped
16 | (2/2) Accurately ripped
17 | (2/2) Accurately ripped
18 | (2/2) Accurately ripped
19 | (2/2) Accurately ripped
20 | (2/2) Accurately ripped
21 | (2/2) Accurately ripped
22 | (2/2) Accurately ripped
23 | (2/2) Accurately ripped
24 | (2/2) Accurately ripped

==== Log checksum 1C511E3FF08D4152D8E1BBB49B954D835DFD9600CB3AA6F88D0CAFB224D27351 ====

DR log
foobar2000 1.2 / Dynamic Range Meter 1.1.1
log date: 2016-12-23 23:53:42

––––––––––––––––––––––––––––––––––––––––
Analyzed: Andy Williams / The Ultimate Christmas Album Volume 7 (1)
Aretha Franklin / The Ultimate Christmas Album Volume 7 (2)
Barry Manilow / The Ultimate Christmas Album Volume 7 (3)
Bing Cosby (with Frank DeVol & His Orchestra) / The Ultimate Christmas Album Volume 7 (4)
Bobby Vinton / The Ultimate Christmas Album Volume 7 (5)
Brian Wilson / The Ultimate Christmas Album Volume 7 (6)
Buster Poindexter & His Banshees Of Blue / The Ultimate Christmas Album Volume 7 (7)
Dave Edmunds Band / The Ultimate Christmas Album Volume 7 (8)
Donny Osmond / The Ultimate Christmas Album Volume 7 (9)
Elvis Presley / The Ultimate Christmas Album Volume 7 (10)
Engelbert Humperdinck / The Ultimate Christmas Album Volume 7 (11)
Frank Sinatra / The Ultimate Christmas Album Volume 7 (12)
Gladys Knight & The Pips / The Ultimate Christmas Album Volume 7 (13)
Gloria Estefan / The Ultimate Christmas Album Volume 7 (14)
John Denver / The Ultimate Christmas Album Volume 7 (15)
Johnny Cash / The Ultimate Christmas Album Volume 7 (16)
Johnny Mathis / The Ultimate Christmas Album Volume 7 (17)
Kenny Loggins / The Ultimate Christmas Album Volume 7 (18)
Kenny Vance & The Planotones / The Ultimate Christmas Album Volume 7 (19)
Luther Vandross / The Ultimate Christmas Album Volume 7 (20)
Michael Bolton / The Ultimate Christmas Album Volume 7 (21)
Perry Como / The Ultimate Christmas Album Volume 7 (22)
The Manhatten Transfer / The Ultimate Christmas Album Volume 7 (23)
Willie Nelson / The Ultimate Christmas Album Volume 7 (24)
––––––––––––––––––––––––––––––––––––––––

DR Peak RMS Duration Track
––––––––––––––––––––––––––––––––––––––––
DR8 -0.30 dB -10.49 dB 1:51 02-Christmas Holiday
DR7 -2.16 dB -9.95 dB 3:03 16-Joy To The World
DR10 -0.30 dB -13.82 dB 1:34 04-White Christmas
DR9 -0.30 dB -12.48 dB 2:55 12-The Secret Of Christmas
DR9 -0.30 dB -11.44 dB 3:38 14-O Holy Night
DR9 -0.30 dB -10.74 dB 2:10 09-Little Saint Nick
DR9 -0.51 dB -11.83 dB 2:49 08-‘Zat You, Santa Claus?
DR9 -0.30 dB -10.74 dB 3:46 24-Run Rudolph Run
DR10 -0.30 dB -11.92 dB 3:37 20-It’s The Most Wonderful Time Of The Year
DR9 -0.30 dB -10.75 dB 1:56 01-Here Comes Santa Claus (Right Down Santa Claus Lane)
DR10 -0.30 dB -12.83 dB 2:23 18-God Rest Ye Merry Gentlemen
DR9 -0.30 dB -11.05 dB 2:37 06-Adeste Fideles (O Come All Ye Faithful)
DR9 -0.30 dB -12.04 dB 3:29 11-This Christmas
DR10 -0.30 dB -12.92 dB 4:50 19-Christmas Through Your Eyes
DR9 -0.30 dB -13.08 dB 3:16 23-The Christmas Song
DR10 -0.30 dB -11.44 dB 2:24 10-Blue Christmas
DR9 -0.30 dB -10.76 dB 3:48 03-The First Noel
DR10 -0.30 dB -14.84 dB 6:00 21-The Bells Of Christmas
DR9 -0.30 dB -10.77 dB 3:04 13-Mister Santa
DR11 -0.30 dB -12.81 dB 5:57 05-My Favorite Things
DR10 -0.30 dB -12.01 dB 4:04 15-Santa Claus Is Comin’ To Town
DR9 -0.30 dB -13.00 dB 3:13 17-Do You Hear What I Hear?
DR9 -0.30 dB -12.58 dB 4:36 07-Let Is Snow! Let Is Snow! Let Is Snow!
DR11 -0.30 dB -14.40 dB 2:24 22-Pretty Paper
––––––––––––––––––––––––––––––––––––––––

Number of tracks: 24
Official DR value: DR9

Samplerate: 44100 Hz
Channels: 2
Bits per sample: 16
Bitrate: 666 kbps
Codec: FLAC
================================================================================

VA - The Ultimate Christmas Album, WCBS-FM 101.1, Vol. 7 (2008)

All thanks to original uploader – Andy

Welcome To Efgrapha Blog

VA – The Ultimate Christmas Album, WCBS-FM 101.1, Vol. 1 (1994)

VA – The Ultimate Christmas Album, WCBS-FM 101.1, Vol. 2 (1995)

VA – The Ultimate Christmas Album, WCBS-FM 101.1, Vol. 3 (1996)

VA – The Ultimate Christmas Album, WCBS-FM 101.1, Vol. 4 (1998)

VA – The Ultimate Christmas Album, WCBS-FM 101.1, Vol. 5 (2000)

VA – The Ultimate Christmas Album, WCBS-FM 101.1, Vol. 6 (2001)

VA – The Ultimate Christmas Album, WCBS-FM 101.1, Vol. 7 (2008) Download, Warez, DDL, Free, Full Album, Torrent, Legal.

Download


  • Recent Posts

  • Recent Tags