VA – The Many Faces Of The Who: A Journey Through The Inner World Of The Who (2016)

Download
VA - The Many Faces Of The Who: A Journey Through The Inner World Of The Who (2016)

VA – The Many Faces Of The Who: A Journey Through The Inner World Of The Who (2016)
EAC Rip | FLAC (image) +cue, log, scans – 960 MB | MP3 CBR 320 kbps – 322 MB | 02:20:29
Classic Rock, Hard Rock | Label: Music Brokers | Release Year: 2016

For many The Who is the best British rock band that emerge in the 60s. In its original formation (Roger Daltrey, Pete Townshend, Keith Moon and John Entwistle) the group had four unique and charismatic personalities. Townshend was always the ideologue and visionary of the band, someone that from a cultural point of view, always rose above the average rock musician. Also, although being a limited –technically speaking- musician, he was highly original, both for the sophisticated chords he played and for his particular ideas when he was approaching his guitar solos, not to mention his devastating stage presence that made him one of the rock’s biggest guitar icons. Bassist John Entwistle and drummer Keith Moon teamed up for one of the most original and unique rhythm sections ever, complementing each other in a unprecedented way for a rock band. Their particular styles made them reach creative peaks that couldn’t been possible without each other, and together they achieved a sound, a constant controlled chaos that no one has been able to recreate again (not even the band itself, since their tragically deaths). And finally, vocalist Roger Daltrey, who had a shy presence during the early part of the decade, but that exploded like a true rock god towards the end of the 60s, when he finally found his voice and stage presence. All this, combined with a repertoire that is among the most exquisite rock has ever had, place The Who alongside the greatest: The Beatles, The Rolling Stones, Led Zeppelin and Pink Floyd. In The Many Faces Of The Who, we are going to explore the fascinating world of the band, their influences, side projects and, most of all, their songs, that wonderful treasure.

TRACKLIST

CD1 – The Many Faces Of The Who And The Originals
01. John Entwistle – Heaven And Hell (4:26)
02. The Crazy World Of Arthur Brown prod by Pete Townshend – Come And Buy (5:42)
03. Johnny Kidd & The Pirates – Shakin´All Over (2:19)
04. Mose Allison – Young Man´s Blues (1:26)
05. Eddie Cochran – Summertime Blues (1:57)
06. Benny Spellman – Fortune Teller (2:15)
07. James Brown – I Don´t Mind (3:16)
08. John Entwistle – Whiskey Man (3:59)
09. Sonny Boy Williamson – Eyesight To The Blind (The Hawker) (3:00)
10. Bo Diddley – I´m A Man (3:00)
11. James Brown – Please, Please, Please (2:46)
12. John Entwistle – My Wife (4:41)
13. Toyah feat Simon Townshend – Another Way (4:39)
14. Mike Batt feat Roger Daltrey – Children Of The Sky (5:18)

EAC
Exact Audio Copy V1.0 beta 3 from 29. August 2011

EAC extraction logfile from 9. January 2017, 0:49

Various Artists / THE MANY FACES OF THE WHO (CD1)

Used drive : PIONEER BD-RW BDR-TD03 Adapter: 0 ID: 1

Read mode : Secure
Utilize accurate stream : Yes
Defeat audio cache : Yes
Make use of C2 pointers : No

Read offset correction : 667
Overread into Lead-In and Lead-Out : No
Fill up missing offset samples with silence : Yes
Delete leading and trailing silent blocks : No
Null samples used in CRC calculations : Yes
Used interface : Native Win32 interface for Win NT & 2000

Used output format : User Defined Encoder
Selected bitrate : 768 kBit/s
Quality : High
Add ID3 tag : No
Command line compressor : C:Program Files (x86)Exact Audio CopyFLACFLAC.EXE
Additional command line options : -6 -V -T "ARTIST=%artist%" -T "TITLE=%title%" -T "ALBUM=%albumtitle%" -T "DATE=%year%" -T "TRACKNUMBER=%tracknr%" -T "GENRE=%genre%" -T "COMMENT=%comment%" -T "BAND=%albuminterpret%" -T "ALBUMARTIST=%albuminterpret%" -T "COMPOSER=%composer%" %haslyrics%–tag-from-file=LYRICS="%lyricsfile%"%haslyrics% -T "DISCNUMBER=%cdnumber%" -T "TOTALDISCS=%totalcds%" -T "TOTALTRACKS=%numtracks%" %hascover%–picture="%coverfile%"%hascover% %source% -o %dest%

TOC of the extracted CD

Track | Start | Length | Start sector | End sector
––––––––––––––––––––––––––––-
1 | 0:00.00 | 4:26.00 | 0 | 19949
2 | 4:26.00 | 5:42.47 | 19950 | 45646
3 | 10:08.47 | 2:19.66 | 45647 | 56137
4 | 12:28.38 | 1:26.57 | 56138 | 62644
5 | 13:55.20 | 1:57.66 | 62645 | 71485
6 | 15:53.11 | 2:15.47 | 71486 | 81657
7 | 18:08.58 | 3:16.19 | 81658 | 96376
8 | 21:25.02 | 3:59.10 | 96377 | 114311
9 | 25:24.12 | 3:00.66 | 114312 | 127877
10 | 28:25.03 | 3:00.38 | 127878 | 141415
11 | 31:25.41 | 2:46.10 | 141416 | 153875
12 | 34:11.51 | 4:41.29 | 153876 | 174979
13 | 38:53.05 | 4:39.47 | 174980 | 195951
14 | 43:32.52 | 5:18.05 | 195952 | 219806

Range status and errors

Selected range

Filename C:UsersDerisDesktopkpnemo.euTriXyCD1Various Artists – THE MANY FACES OF THE WHO (CD1).wav

Peak level 100.0 %
Extraction speed 4.7 X
Range quality 100.0 %
Test CRC 06B51534
Copy CRC 06B51534
Copy OK

No errors occurred

AccurateRip summary

Track 1 not present in database
Track 2 not present in database
Track 3 not present in database
Track 4 not present in database
Track 5 not present in database
Track 6 not present in database
Track 7 not present in database
Track 8 not present in database
Track 9 not present in database
Track 10 not present in database
Track 11 not present in database
Track 12 not present in database
Track 13 not present in database
Track 14 not present in database

None of the tracks are present in the AccurateRip database

End of status report

–– CUETools DB Plugin V2.1.3

[CTDB TOCID: Nq67ZKAcIZmkFS9Bpeg1fEiXyBM-] found, Submit result: Nq67ZKAcIZmkFS9Bpeg1fEiXyBM- has been confirmed
[8091c387] (3/3) Accurately ripped

==== Log checksum 6168BA77AE23849AAC83CEC0A5F8D8EB9BDB468C174F3564A1CB9DA6D0E86CA7 ====

CD2 – Petra Haden Sings The Who Sell Out
01. Armenia City in the Sky (3:41)
02. Heinz Baked Beans (1:09)
03. Mary Anne with the Shaky Hands (2:30)
04. Odorono (2:18 )
05. Tattoo (3:09)
06. Our Love Was (3:25)
07. I Can See for Miles (4:14)
08. I Can’t Reach You (3:30)
09. Medac (0:57)
10. Relax (2:42)
11. Silas Stingy (3:05)
12. Sunrise (3:03)
13. Rael (5:39)
14. [Untitled] (0:23)

EAC
Exact Audio Copy V1.0 beta 3 from 29. August 2011

EAC extraction logfile from 9. January 2017, 12:54

Petra Haden / THE MANY FACES OF THE WHO – (CD2) Petra Haden Sings: The Who Sell Out

Used drive : PIONEER BD-RW BDR-TD03 Adapter: 0 ID: 1

Read mode : Secure
Utilize accurate stream : Yes
Defeat audio cache : Yes
Make use of C2 pointers : No

Read offset correction : 667
Overread into Lead-In and Lead-Out : No
Fill up missing offset samples with silence : Yes
Delete leading and trailing silent blocks : No
Null samples used in CRC calculations : Yes
Used interface : Native Win32 interface for Win NT & 2000

Used output format : User Defined Encoder
Selected bitrate : 768 kBit/s
Quality : High
Add ID3 tag : No
Command line compressor : C:Program Files (x86)Exact Audio CopyFLACFLAC.EXE
Additional command line options : -6 -V -T "ARTIST=%artist%" -T "TITLE=%title%" -T "ALBUM=%albumtitle%" -T "DATE=%year%" -T "TRACKNUMBER=%tracknr%" -T "GENRE=%genre%" -T "COMMENT=%comment%" -T "BAND=%albuminterpret%" -T "ALBUMARTIST=%albuminterpret%" -T "COMPOSER=%composer%" %haslyrics%–tag-from-file=LYRICS="%lyricsfile%"%haslyrics% -T "DISCNUMBER=%cdnumber%" -T "TOTALDISCS=%totalcds%" -T "TOTALTRACKS=%numtracks%" %hascover%–picture="%coverfile%"%hascover% %source% -o %dest%

TOC of the extracted CD

Track | Start | Length | Start sector | End sector
––––––––––––––––––––––––––––-
1 | 0:00.00 | 3:41.19 | 0 | 16593
2 | 3:41.19 | 1:09.57 | 16594 | 21825
3 | 4:51.01 | 2:30.66 | 21826 | 33141
4 | 7:21.67 | 2:18.10 | 33142 | 43501
5 | 9:40.02 | 3:09.57 | 43502 | 57733
6 | 12:49.59 | 3:25.19 | 57734 | 73127
7 | 16:15.03 | 4:14.66 | 73128 | 92243
8 | 20:29.69 | 3:30.47 | 92244 | 108040
9 | 24:00.41 | 0:57.00 | 108041 | 112315
10 | 24:57.41 | 2:42.47 | 112316 | 124512
11 | 27:40.13 | 3:05.00 | 124513 | 138387
12 | 30:45.13 | 3:03.29 | 138388 | 152141
13 | 33:48.42 | 5:39.47 | 152142 | 177613
14 | 39:28.14 | 0:23.29 | 177614 | 179367

Range status and errors

Selected range

Filename C:UsersDerisDesktopkpnemo.euTriXyCd2Petra Haden – THE MANY FACES OF THE WHO – (CD2) Petra Haden Sings- The Who Sell Out.wav

Peak level 100.0 %
Extraction speed 4.5 X
Range quality 100.0 %
Test CRC A6A71E76
Copy CRC A6A71E76
Copy OK

No errors occurred

AccurateRip summary

Track 1 not present in database
Track 2 not present in database
Track 3 not present in database
Track 4 not present in database
Track 5 not present in database
Track 6 not present in database
Track 7 not present in database
Track 8 not present in database
Track 9 not present in database
Track 10 not present in database
Track 11 not present in database
Track 12 not present in database
Track 13 not present in database
Track 14 not present in database

None of the tracks are present in the AccurateRip database

End of status report

–– CUETools DB Plugin V2.1.3

[CTDB TOCID: hf.q179mjEvnQsCM4tzMFRNk4iY-] found, Submit result: hf.q179mjEvnQsCM4tzMFRNk4iY- has been confirmed
[dea79a98] (2/2) Accurately ripped

==== Log checksum 5987D5134FCB327392CF6D7E1824EC620491B6917A3749B1898F2F3CDBA93D9E ====

CD3 – The Songs
01. Yvonne Elliman – I can’t Explain (3:10)
02. Ocean Color Scene – Anyway Anyhow Anywhere (2:11)
03. The Young Mods – My Generation (3:14)
04. The Brilliant Corners – The Good’s gone (3:44)
05. The Glitter Band – The Kids are Alright (3:30)
06. Hyperhead – I can see for Miles (4:47)
07. Poison Idea – Doctor, Doctor (2:46)
08. The Glitter Band – Substitute (3:36)
09. The Scooters – Magic Bus (3:30)
10. Brighton Cats – Pinball Wizard (2:59)
11. The Quick Ones – I’m Free (2:41)
12. The Dirty Jobs – We’re not gonna take it (7:27)
13. Cast – The Seeker (3:27)
14. Buck Pets – Bargain (4:58)

EAC
Exact Audio Copy V1.0 beta 3 from 29. August 2011

EAC extraction logfile from 10. January 2017, 13:20

The Who / THE MANY FACES OF THE WHO (CD3) The Songs

Used drive : PIONEER BD-RW BDR-TD03 Adapter: 0 ID: 1

Read mode : Secure
Utilize accurate stream : Yes
Defeat audio cache : Yes
Make use of C2 pointers : No

Read offset correction : 667
Overread into Lead-In and Lead-Out : No
Fill up missing offset samples with silence : Yes
Delete leading and trailing silent blocks : No
Null samples used in CRC calculations : Yes
Used interface : Native Win32 interface for Win NT & 2000

Used output format : User Defined Encoder
Selected bitrate : 768 kBit/s
Quality : High
Add ID3 tag : No
Command line compressor : C:Program Files (x86)Exact Audio CopyFLACFLAC.EXE
Additional command line options : -6 -V -T "ARTIST=%artist%" -T "TITLE=%title%" -T "ALBUM=%albumtitle%" -T "DATE=%year%" -T "TRACKNUMBER=%tracknr%" -T "GENRE=%genre%" -T "COMMENT=%comment%" -T "BAND=%albuminterpret%" -T "ALBUMARTIST=%albuminterpret%" -T "COMPOSER=%composer%" %haslyrics%–tag-from-file=LYRICS="%lyricsfile%"%haslyrics% -T "DISCNUMBER=%cdnumber%" -T "TOTALDISCS=%totalcds%" -T "TOTALTRACKS=%numtracks%" %hascover%–picture="%coverfile%"%hascover% %source% -o %dest%

TOC of the extracted CD

Track | Start | Length | Start sector | End sector
––––––––––––––––––––––––––––-
1 | 0:00.00 | 3:10.29 | 0 | 14278
2 | 3:10.29 | 2:11.38 | 14279 | 24141
3 | 5:21.67 | 3:14.47 | 24142 | 38738
4 | 8:36.39 | 3:44.47 | 38739 | 55585
5 | 12:21.11 | 3:30.00 | 55586 | 71335
6 | 15:51.11 | 4:47.29 | 71336 | 92889
7 | 20:38.40 | 2:46.57 | 92890 | 105396
8 | 23:25.22 | 3:36.38 | 105397 | 121634
9 | 27:01.60 | 3:30.47 | 121635 | 137431
10 | 30:32.32 | 2:59.00 | 137432 | 150856
11 | 33:31.32 | 2:41.66 | 150857 | 162997
12 | 36:13.23 | 7:27.10 | 162998 | 196532
13 | 43:40.33 | 3:27.57 | 196533 | 212114
14 | 47:08.15 | 4:58.19 | 212115 | 234483

Range status and errors

Selected range

Filename C:UsersDerisDesktopkpnemo.euTriXycD3The Who – THE MANY FACES OF THE WHO (CD3) The Songs.wav

Peak level 100.0 %
Extraction speed 4.7 X
Range quality 99.9 %
Test CRC FDF4ECD3
Copy CRC FDF4ECD3
Copy OK

No errors occurred

AccurateRip summary

Track 1 not present in database
Track 2 not present in database
Track 3 not present in database
Track 4 not present in database
Track 5 not present in database
Track 6 not present in database
Track 7 not present in database
Track 8 not present in database
Track 9 not present in database
Track 10 not present in database
Track 11 not present in database
Track 12 not present in database
Track 13 not present in database
Track 14 not present in database

None of the tracks are present in the AccurateRip database

End of status report

–– CUETools DB Plugin V2.1.3

[CTDB TOCID: FKUOoUg_aTDhsRTiosQuv8pAHIA-] found, Submit result: FKUOoUg_aTDhsRTiosQuv8pAHIA- has been confirmed
[7e6ac83d] (2/2) Accurately ripped

==== Log checksum FEB2B7A410CFA2E9C9D33EF1A123EDD3DEDD06292C8F45BCD2BD8DA02090497D ====

All thanks go to the original releaser

VA – The Many Faces Of The Who: A Journey Through The Inner World Of The Who (2016) Download, Warez, DDL, Free, Full Album, Torrent, Legal.

Download