VA – The Funky 16 Corners (2001) {Stones Throw}

Download
VA - The Funky 16 Corners (2001) {Stones Throw}

VA – The Funky 16 Corners (2001) {Stones Throw}
EAC Rip | FLAC with CUE and log | scans | 482 mb
MP3 CBR 320kbps | RAR | 165 mb
Genre: R&B, soul, funk

The Funky 16 Corners is a 2001 compilation album released by Stones Throw Records, consisting of very rare soul and funk. This comes from a promotional CD which was not packaged with a full booklet.

VA - The Funky 16 Corners (2001) {Stones Throw}

1. Ebony Rhythm Band – Intro (0:42)
2. Ernie And The Top Notes, Inc. – Dap Walk (3:05)
3. James Reese & The Progressions – Let’s Go (It’s Summertime) (2:45)
4. Bad Medicine – Trespasser (5:48)
5. The Highlighters Band – The Funky 16 Corners (5:17)
6. The Rhythm Machine – The Kick (6:20)
7. Co Real Artists – What About You (In The World Today) (2:51)
8. Ebony Rhythm Band – Interlude (0:40)
9. Soul Vibrations – The Dump (2:40)
10. James Reese & The Progressions – Jody’s A Freeze (2:35)
11. Kashmere Stage Band – Kashmere (4:56)
12. Slim & The Soulful Saints – Fish Head (2:34)
13. Billy Ball & The Upsetters – Tighten Up Tighter (2:12)
14. The Soul Seven – Southside Funk (4:12)
15. Carleen & The Groovers – Can We Rap (2:13)
16. Spider Harrison – Beautiful Day (2:50)
17. Revolution Compared To What – Go To Work (Alternate Version) (3:43)
18. Bubbha Thomas & The Lightmen Plus One – The Phantom (2:18)
19. The Wooden Glass – In The Rain (4:39)
20. Ebony Rhythm Band – Outro (1:07)
21. Cut Chemist – Bunky’s Pick (Bonus Track) (7:25)
22. James Bell & The Turner Brothers – The Funky Buzzard (Bonus Track) (2:22)

Album produced by Egon
Executive Producer: Peanut Butter Wolf
Mastered by Matt Mahaffey & Gene Grimaldi

EAC Log
Exact Audio Copy V1.1 from 23. June 2015

EAC extraction logfile from 27. January 2017, 11:54

Various Artists / The Funky 16 Corners

Used drive : TEAC DVD-ROM DV-28SW Adapter: 1 ID: 0

Read mode : Secure
Utilize accurate stream : Yes
Defeat audio cache : Yes
Make use of C2 pointers : No

Read offset correction : 6
Overread into Lead-In and Lead-Out : No
Fill up missing offset samples with silence : Yes
Delete leading and trailing silent blocks : No
Null samples used in CRC calculations : Yes
Used interface : Native Win32 interface for Win NT & 2000
Gap handling : Appended to previous track

Used output format : Internal WAV Routines
Sample format : 44.100 Hz; 16 Bit; Stereo

TOC of the extracted CD

Track | Start | Length | Start sector | End sector
––––––––––––––––––––––––––––-
1 | 0:00.00 | 0:43.10 | 0 | 3234
2 | 0:43.10 | 3:05.25 | 3235 | 17134
3 | 3:48.35 | 2:45.07 | 17135 | 29516
4 | 6:33.42 | 5:48.35 | 29517 | 55651
5 | 12:22.02 | 5:17.45 | 55652 | 79471
6 | 17:39.47 | 6:20.03 | 79472 | 107974
7 | 23:59.50 | 2:51.32 | 107975 | 120831
8 | 26:51.07 | 0:40.08 | 120832 | 123839
9 | 27:31.15 | 2:40.50 | 123840 | 135889
10 | 30:11.65 | 2:55.10 | 135890 | 149024
11 | 33:07.00 | 4:56.67 | 149025 | 171291
12 | 38:03.67 | 2:34.53 | 171292 | 182894
13 | 40:38.45 | 2:12.67 | 182895 | 192861
14 | 42:51.37 | 4:12.20 | 192862 | 211781
15 | 47:03.57 | 2:13.20 | 211782 | 221776
16 | 49:17.02 | 2:50.65 | 221777 | 234591
17 | 52:07.67 | 3:43.05 | 234592 | 251321
18 | 55:50.72 | 2:19.05 | 251322 | 261751
19 | 58:10.02 | 4:39.10 | 261752 | 282686
20 | 62:49.12 | 1:07.53 | 282687 | 287764
21 | 63:56.65 | 7:25.15 | 287765 | 321154
22 | 71:22.05 | 2:22.70 | 321155 | 331874

Track 1

Filename C:My DocumentsMy FLACVA – The Funky 16 Corners (2001) [FLAC] {Stones Throw}1 – Ebony Rhythm Band – Intro.wav

Pre-gap length 0:00:02.00

Peak level 98.8 %
Extraction speed 0.5 X
Track quality 99.7 %
Test CRC 2BD6B866
Copy CRC 2BD6B866
Cannot be verified as accurate (confidence 14) [5B8D8F51], AccurateRip returned [BA5F4857] (AR v2)
Copy OK

Track 2

Filename C:My DocumentsMy FLACVA – The Funky 16 Corners (2001) [FLAC] {Stones Throw}2 – Ernie & The Top Notes Inc – Dap Walk.wav

Peak level 98.8 %
Extraction speed 2.6 X
Track quality 100.0 %
Test CRC 2FCE6972
Copy CRC 2FCE6972
Cannot be verified as accurate (confidence 14) [6268E42A], AccurateRip returned [C5D786D5] (AR v2)
Copy OK

Track 3

Filename C:My DocumentsMy FLACVA – The Funky 16 Corners (2001) [FLAC] {Stones Throw}3 – James Reese & The Progressions – Let’s Go (It’s Summertime).wav

Peak level 98.8 %
Extraction speed 2.3 X
Track quality 100.0 %
Test CRC BFA84495
Copy CRC BFA84495
Cannot be verified as accurate (confidence 13) [C7EADAD6], AccurateRip returned [2FF515AD] (AR v2)
Copy OK

Track 4

Filename C:My DocumentsMy FLACVA – The Funky 16 Corners (2001) [FLAC] {Stones Throw}4 – Bad Medicine – Trespasser.wav

Peak level 98.8 %
Extraction speed 2.7 X
Track quality 100.0 %
Test CRC D56A1F3F
Copy CRC D56A1F3F
Cannot be verified as accurate (confidence 14) [CCED6F91], AccurateRip returned [32729DE3] (AR v2)
Copy OK

Track 5

Filename C:My DocumentsMy FLACVA – The Funky 16 Corners (2001) [FLAC] {Stones Throw}5 – The Highlighters Band – The Funky 16 Corners.wav

Peak level 98.8 %
Extraction speed 3.5 X
Track quality 100.0 %
Test CRC 1F94E5D7
Copy CRC 1F94E5D7
Cannot be verified as accurate (confidence 14) [768F2F81], AccurateRip returned [658F6A67] (AR v2)
Copy OK

Track 6

Filename C:My DocumentsMy FLACVA – The Funky 16 Corners (2001) [FLAC] {Stones Throw}6 – The Rhythm Machine – The Kick.wav

Peak level 98.8 %
Extraction speed 3.8 X
Track quality 100.0 %
Test CRC A3E6A06D
Copy CRC A3E6A06D
Cannot be verified as accurate (confidence 14) [8ECA198A], AccurateRip returned [73B4B4BC] (AR v2)
Copy OK

Track 7

Filename C:My DocumentsMy FLACVA – The Funky 16 Corners (2001) [FLAC] {Stones Throw}7 – Co Real Artists – What About You (In The World Today).wav

Peak level 98.8 %
Extraction speed 2.7 X
Track quality 100.0 %
Test CRC C8683742
Copy CRC C8683742
Cannot be verified as accurate (confidence 14) [A965873B], AccurateRip returned [CC09D2B8] (AR v2)
Copy OK

Track 8

Filename C:My DocumentsMy FLACVA – The Funky 16 Corners (2001) [FLAC] {Stones Throw}8 – Ebony Rhythm Band – Interlude.wav

Peak level 98.8 %
Extraction speed 1.8 X
Track quality 100.0 %
Test CRC 747F169A
Copy CRC 747F169A
Cannot be verified as accurate (confidence 14) [7DEF1B90], AccurateRip returned [BE9054CB] (AR v2)
Copy OK

Track 9

Filename C:My DocumentsMy FLACVA – The Funky 16 Corners (2001) [FLAC] {Stones Throw}9 – Soul Vibrations – The Dump.wav

Peak level 98.9 %
Extraction speed 2.9 X
Track quality 99.9 %
Test CRC 80321A20
Copy CRC 80321A20
Cannot be verified as accurate (confidence 14) [03E99BE2], AccurateRip returned [E1021F55] (AR v2)
Copy OK

Track 10

Filename C:My DocumentsMy FLACVA – The Funky 16 Corners (2001) [FLAC] {Stones Throw}10 – James Reese & The Progressions – Jody’s Freeze.wav

Peak level 98.8 %
Extraction speed 4.1 X
Track quality 100.0 %
Test CRC 72E483B4
Copy CRC 72E483B4
Cannot be verified as accurate (confidence 14) [EECBC496], AccurateRip returned [AF6BD9D3] (AR v2)
Copy OK

Track 11

Filename C:My DocumentsMy FLACVA – The Funky 16 Corners (2001) [FLAC] {Stones Throw}11 – Kashmere Stage Band – Kashmere.wav

Peak level 100.0 %
Extraction speed 4.6 X
Track quality 100.0 %
Test CRC FF9CD289
Copy CRC FF9CD289
Cannot be verified as accurate (confidence 14) [C20B8116], AccurateRip returned [360AB3C6] (AR v2)
Copy OK

Track 12

Filename C:My DocumentsMy FLACVA – The Funky 16 Corners (2001) [FLAC] {Stones Throw}12 – Slim & The Soulful Saints – Fish Head.wav

Peak level 98.8 %
Extraction speed 3.4 X
Track quality 99.9 %
Test CRC 9081EFC6
Copy CRC 9081EFC6
Cannot be verified as accurate (confidence 14) [D3D07B72], AccurateRip returned [611A5D71] (AR v2)
Copy OK

Track 13

Filename C:My DocumentsMy FLACVA – The Funky 16 Corners (2001) [FLAC] {Stones Throw}13 – Billy Ball & The Upsetters featuring Roosevelt Matthews – Tighten Up Tighter.wav

Peak level 98.8 %
Extraction speed 3.7 X
Track quality 100.0 %
Test CRC EB157AA8
Copy CRC EB157AA8
Cannot be verified as accurate (confidence 14) [B83FCDE5], AccurateRip returned [DD00115C] (AR v2)
Copy OK

Track 14

Filename C:My DocumentsMy FLACVA – The Funky 16 Corners (2001) [FLAC] {Stones Throw}14 – Soul Seven – Southside Funk.wav

Pre-gap length 0:00:00.47

Peak level 95.8 %
Extraction speed 4.9 X
Track quality 100.0 %
Test CRC 1A03129E
Copy CRC 1A03129E
Cannot be verified as accurate (confidence 14) [5AAE095D], AccurateRip returned [2F7D4FB2] (AR v2)
Copy OK

Track 15

Filename C:My DocumentsMy FLACVA – The Funky 16 Corners (2001) [FLAC] {Stones Throw}15 – Carleen & The Groovers – Can We Rap.wav

Peak level 98.8 %
Extraction speed 0.4 X
Track quality 100.0 %
Test CRC 6D01F7ED
Copy CRC 6D01F7ED
Cannot be verified as accurate (confidence 14) [BE373EB3], AccurateRip returned [7E3DD6F0] (AR v2)
Copy OK

Track 16

Filename C:My DocumentsMy FLACVA – The Funky 16 Corners (2001) [FLAC] {Stones Throw}16 – Spider Harrison – Beautiful Day.wav

Peak level 98.8 %
Extraction speed 4.8 X
Track quality 100.0 %
Test CRC F0C5AA30
Copy CRC F0C5AA30
Cannot be verified as accurate (confidence 12) [38818785], AccurateRip returned [DCF4598C] (AR v2)
Copy OK

Track 17

Filename C:My DocumentsMy FLACVA – The Funky 16 Corners (2001) [FLAC] {Stones Throw}17 – Revolution Compared To What – Go To Work (Alternate Version).wav

Peak level 100.0 %
Extraction speed 4.2 X
Track quality 99.9 %
Test CRC 78B4C3D9
Copy CRC 78B4C3D9
Cannot be verified as accurate (confidence 13) [3C0A697E], AccurateRip returned [E07078EC] (AR v2)
Copy OK

Track 18

Filename C:My DocumentsMy FLACVA – The Funky 16 Corners (2001) [FLAC] {Stones Throw}18 – Bubbha Thomas & The Lighmen Plus One – The Phantom.wav

Peak level 95.5 %
Extraction speed 4.7 X
Track quality 100.0 %
Test CRC 94D789F8
Copy CRC 94D789F8
Cannot be verified as accurate (confidence 13) [B8728914], AccurateRip returned [7DFD2345] (AR v2)
Copy OK

Track 19

Filename C:My DocumentsMy FLACVA – The Funky 16 Corners (2001) [FLAC] {Stones Throw}19 – The Wooden Glass featuring Billy Wooten – In The Rain.wav

Peak level 100.0 %
Extraction speed 5.5 X
Track quality 100.0 %
Test CRC 1865DAC5
Copy CRC 1865DAC5
Cannot be verified as accurate (confidence 13) [F7746481], AccurateRip returned [4825E7C2] (AR v2)
Copy OK

Track 20

Filename C:My DocumentsMy FLACVA – The Funky 16 Corners (2001) [FLAC] {Stones Throw}20 – Ebony Rhythm Band – Outro.wav

Peak level 98.8 %
Extraction speed 2.7 X
Track quality 99.8 %
Test CRC 246D19F2
Copy CRC 246D19F2
Cannot be verified as accurate (confidence 13) [9ED08C8E], AccurateRip returned [514F105A] (AR v2)
Copy OK

Track 21

Filename C:My DocumentsMy FLACVA – The Funky 16 Corners (2001) [FLAC] {Stones Throw}21 – Cut Chemist – Bunky’s Pick.wav

Peak level 92.6 %
Extraction speed 5.2 X
Track quality 99.9 %
Test CRC 2A17071E
Copy CRC 2A17071E
Cannot be verified as accurate (confidence 12) [E7D49F23], AccurateRip returned [8BE96086] (AR v2)
Copy OK

Track 22

Filename C:My DocumentsMy FLACVA – The Funky 16 Corners (2001) [FLAC] {Stones Throw}22 – James Bell & The Turner Brothers – The Funky Buzzard.wav

Peak level 98.8 %
Extraction speed 5.0 X
Track quality 100.0 %
Test CRC 37C370EB
Copy CRC 37C370EB
Cannot be verified as accurate (confidence 14) [646E482C], AccurateRip returned [FFF39A7F] (AR v2)
Copy OK

No tracks could be verified as accurate
You may have a different pressing from the one(s) in the database

No errors occurred

End of status report

–– CUETools DB Plugin V2.1.6

[CTDB TOCID: HcY5d8x.M2foSJcplOYY3fUUcds-] found
Submit result: HcY5d8x.M2foSJcplOYY3fUUcds- has been submitted
Track | CTDB Status
1 | ( 0/12) No match
2 | ( 0/12) No match
3 | ( 0/12) No match
4 | ( 0/12) No match
5 | ( 0/12) No match
6 | ( 0/12) No match
7 | ( 0/12) No match
8 | ( 0/12) No match
9 | ( 0/12) No match
10 | ( 0/12) No match
11 | ( 0/12) No match
12 | ( 0/12) No match
13 | ( 0/12) No match
14 | ( 0/12) No match
15 | ( 0/12) No match
16 | ( 0/12) No match
17 | ( 0/12) No match
18 | ( 0/12) No match
19 | ( 0/12) No match
20 | ( 0/12) No match
21 | ( 0/12) No match
22 | ( 0/12) No match

==== Log checksum 546D0ECE0383EE4EB73066F108967ABF472DAE4AA784EB66E340E61FE4E08491 ====

VA - The Funky 16 Corners (2001) {Stones Throw}

VA – The Funky 16 Corners (2001) {Stones Throw} Download, Warez, DDL, Free, Full Album, Torrent, Legal.

Download