VA – The Best Of Brahms (1992) | ViralVideoPk

Daily Dose of Free Downloads

VA – The Best Of Brahms (1992)

Download

VA - The Best Of Brahms (1992)

VA – The Best Of Brahms (1992)
EAC Rip | FLAC with CUE and log | scans | 303 mb
MP3 CBR 320kbps | RAR | 138 mb
Genre: classical

The Best Of Brahms is a 1992 compilation album released by Vox Cameo Classics. It focuses on the works of Brahms through works by Bamberg Symphony, The Symphony Orchestra OF Southwest German Radio, The Austrian String Quartet with Irmgard Gahl and others.

VA - The Best Of Brahms (1992)

01. Symphony Orchestra OF Southwest German Radio, Baden-Baden – Symphony No. 1 in C Minor
02. Friedrich Wührer, Vienna State Philharmonia – Piano Concerto No. 1 in D Minor
03. Walter Klien – Rhapsody in G minor
04. Aaron Rosand,Eileen Flissler – Violin & Piano Sonata No. 2 in A Major
05. Gächinger Kantorei – Liebeslieder Waltzes
06. Bamberg Symphony – Hungarian Dance No. 4
07. Bamberg Symphony – Hungarian Dances No. 1 & 5
08. The Austrian String Quartet with Irmgard Gahl – String Quintet No. 2 in G Major
09. The Eastman Quartet – Piano Quartet No. 3 in C Minor
10. Members Of The Hungarian String Quartet with Georges Szolchany – Piano Quartet No. 1 in G Minor
11. György Sándor, Symphony Orchestra OF Southwest German Radio, Baden-Baden – Piano Concerto No. 2 in B-flat Major
12. North German Radio Symphony Orchestra – Piano Concerto No. 2 in B-flat Major

EAC Log
Exact Audio Copy V1.1 from 23. June 2015

EAC extraction logfile from 13. December 2016, 7:49

Various Artists / The Best Of Brahms

Used drive : TEAC DVD-ROM DV-28SW Adapter: 1 ID: 0

Read mode : Secure
Utilize accurate stream : Yes
Defeat audio cache : Yes
Make use of C2 pointers : No

Read offset correction : 6
Overread into Lead-In and Lead-Out : No
Fill up missing offset samples with silence : Yes
Delete leading and trailing silent blocks : No
Null samples used in CRC calculations : Yes
Used interface : Native Win32 interface for Win NT & 2000
Gap handling : Appended to previous track

Used output format : Internal WAV Routines
Sample format : 44.100 Hz; 16 Bit; Stereo

TOC of the extracted CD

Track | Start | Length | Start sector | End sector
––––––––––––––––––––––––––––-
1 | 0:00.33 | 4:00.37 | 33 | 18069
2 | 4:00.70 | 7:50.10 | 18070 | 53329
3 | 11:51.05 | 6:34.45 | 53330 | 82924
4 | 18:25.50 | 3:41.28 | 82925 | 99527
5 | 22:07.03 | 4:57.37 | 99528 | 121839
6 | 27:04.40 | 4:47.10 | 121840 | 143374
7 | 31:51.50 | 5:08.20 | 143375 | 166494
8 | 36:59.70 | 3:09.50 | 166495 | 180719
9 | 40:09.45 | 2:36.60 | 180720 | 192479
10 | 42:46.30 | 4:47.28 | 192480 | 214032
11 | 47:33.58 | 8:34.50 | 214033 | 252632
12 | 56:08.33 | 6:08.10 | 252633 | 280242

Track 1

Filename C:My DocumentsMy FLACVA – The Best Of Brahms (1992) [FLAC]1 – Symphony Orchestra OF Southwest German Radio, Baden-Baden – Symphony No. 1 in C Minor.wav

Pre-gap length 0:00:02.33

Peak level 57.3 %
Extraction speed 2.6 X
Track quality 100.0 %
Test CRC 8CD9A57A
Copy CRC 8CD9A57A
Accurately ripped (confidence 2) [7CA3A505] (AR v1)
Copy OK

Track 2

Filename C:My DocumentsMy FLACVA – The Best Of Brahms (1992) [FLAC]2 – Friedrich Wührer, Vienna State Philharmonia – Piano Concerto No. 1 in D Minor.wav

Pre-gap length 0:00:04.15

Peak level 68.3 %
Extraction speed 3.1 X
Track quality 99.9 %
Test CRC 03A9BBC8
Copy CRC 03A9BBC8
Accurately ripped (confidence 2) [9F9DF26A] (AR v1)
Copy OK

Track 3

Filename C:My DocumentsMy FLACVA – The Best Of Brahms (1992) [FLAC]3 – Walter Klien – Rhapsody in G minor.wav

Pre-gap length 0:00:02.57

Peak level 63.1 %
Extraction speed 3.9 X
Track quality 100.0 %
Test CRC 447B2B22
Copy CRC 447B2B22
Accurately ripped (confidence 2) [8FA60D58] (AR v1)
Copy OK

Track 4

Filename C:My DocumentsMy FLACVA – The Best Of Brahms (1992) [FLAC]4 – Aaron Rosand,Eileen Flissler – Violin & Piano Sonata No. 2 in A Major.wav

Pre-gap length 0:00:03.50

Peak level 64.2 %
Extraction speed 3.9 X
Track quality 100.0 %
Test CRC 654B7BE9
Copy CRC 654B7BE9
Accurately ripped (confidence 2) [885D6E00] (AR v1)
Copy OK

Track 5

Filename C:My DocumentsMy FLACVA – The Best Of Brahms (1992) [FLAC]5 – Gächinger Kantorei – Liebeslieder Waltzes.wav

Pre-gap length 0:00:06.20

Peak level 83.1 %
Extraction speed 3.7 X
Track quality 99.9 %
Test CRC 79187655
Copy CRC 79187655
Accurately ripped (confidence 2) [37FABC5F] (AR v1)
Copy OK

Track 6

Filename C:My DocumentsMy FLACVA – The Best Of Brahms (1992) [FLAC]6 – Bamberg Symphony – Hungarian Dance No. 4.wav

Pre-gap length 0:00:04.70

Peak level 55.4 %
Extraction speed 3.9 X
Track quality 99.9 %
Test CRC DAE773F8
Copy CRC DAE773F8
Accurately ripped (confidence 2) [3A350CE4] (AR v1)
Copy OK

Track 7

Filename C:My DocumentsMy FLACVA – The Best Of Brahms (1992) [FLAC]7 – Bamberg Symphony – Hungarian Dances No. 1 & 5.wav

Pre-gap length 0:00:03.22

Peak level 71.9 %
Extraction speed 4.8 X
Track quality 100.0 %
Test CRC F2411984
Copy CRC F2411984
Accurately ripped (confidence 2) [CE4056BF] (AR v1)
Copy OK

Track 8

Filename C:My DocumentsMy FLACVA – The Best Of Brahms (1992) [FLAC]8 – The Austrian String Quartet with Irmgard Gahl – String Quintet No. 2 in G Major.wav

Pre-gap length 0:00:05.57

Peak level 55.1 %
Extraction speed 4.6 X
Track quality 100.0 %
Test CRC F82B3B63
Copy CRC F82B3B63
Accurately ripped (confidence 2) [07EB5B02] (AR v1)
Copy OK

Track 9

Filename C:My DocumentsMy FLACVA – The Best Of Brahms (1992) [FLAC]9 – The Eastman Quartet – Piano Quartet No. 3 in C Minor.wav

Pre-gap length 0:00:05.10

Peak level 33.3 %
Extraction speed 4.5 X
Track quality 100.0 %
Test CRC DE3887BA
Copy CRC DE3887BA
Accurately ripped (confidence 2) [75A6256E] (AR v1)
Copy OK

Track 10

Filename C:My DocumentsMy FLACVA – The Best Of Brahms (1992) [FLAC]10 – Members Of The Hungarian String Quartet with Georges Szolchany – Piano Quartet No. 1 in G Minor.wav

Pre-gap length 0:00:05.12

Peak level 48.5 %
Extraction speed 5.2 X
Track quality 100.0 %
Test CRC 4C65B483
Copy CRC 4C65B483
Accurately ripped (confidence 2) [EA3FA6C0] (AR v1)
Copy OK

Track 11

Filename C:My DocumentsMy FLACVA – The Best Of Brahms (1992) [FLAC]11 – György Sándor, Symphony Orchestra OF Southwest German Radio, Baden-Baden – Piano Concerto No. 2 in B-flat Major.wav

Pre-gap length 0:00:05.35

Peak level 66.8 %
Extraction speed 5.7 X
Track quality 100.0 %
Test CRC E77E1BA4
Copy CRC E77E1BA4
Accurately ripped (confidence 2) [97ECC1AD] (AR v1)
Copy OK

Track 12

Filename C:My DocumentsMy FLACVA – The Best Of Brahms (1992) [FLAC]12 – North German Radio Symphony Orchestra – Piano Concerto No. 2 in B-flat Major.wav

Pre-gap length 0:00:05.38

Peak level 71.3 %
Extraction speed 5.8 X
Track quality 100.0 %
Test CRC 186A2260
Copy CRC 186A2260
Accurately ripped (confidence 2) [BFAD3EEF] (AR v1)
Copy OK

All tracks accurately ripped

No errors occurred

End of status report

–– CUETools DB Plugin V2.1.6

[CTDB TOCID: wYRGd_45_icA0cS5UhJOBq8s_d8-] disk not present in database
Submit result: wYRGd_45_icA0cS5UhJOBq8s_d8- has been uploaded

==== Log checksum C8A40FB2FA5300C620B99E5F609621CE67CDB67B5A95CFE5B55ECEDD56C9134B ====

VA - The Best Of Brahms (1992)

VA – The Best Of Brahms (1992) Download, Warez, DDL, Free, Full Album, Torrent, Legal.

Download


  • Recent Posts

  • Recent Tags