VA – Tapestry Revisited: A Tribute To Carole King (1995)

Download
VA - Tapestry Revisited: A Tribute To Carole King (1995)

VA – Tapestry Revisited: A Tribute To Carole King (1995)
EAC Rip | WV (Img) + Cue + Log ~ 349 Mb | MP3 CBR320 ~ 124 Mb
Full Scans (PNG, 400 dpi) ~ 316 Mb | RAR 5% Recovery
Pop, Soft Rock, Blue-Eyed Soul | Lava Records #92604-2 | US

Tapestry Revisited: A Tribute to Carole King is a 1995 tribute album honoring American singer, songwriter, and pianist Carole King. It features a diverse lineup of artists including Richard Marx, Aretha Franklin, Rod Stewart, Celine Dion, The Bee Gees and Amy Grant. The idea of this release was to re-create King’s 1971 album Tapestry track-for-track using other artists. The album peaked at number 53 on the Billboard 200 and was certified Gold in the United States.

~ Wiki

Carole King’s 1971 album Tapestry was one of the best-selling LPs of the early ’70s and has had a lasting influence on pop singer/songwriters ever since. The idea of this tribute album was to re-create the album track-for-track using other artists. Since King had begun her career as a songwriter, with songs such as "Will You Love Me Tomorrow?" and "(You Make Me Feel Like) A Natural Woman" hitting for other artists before turning up on Tapestry, it was an appropriate concept. Though each artist was asked to submit a finished track, there was some musical continuity in that several tracks – "You’ve Got a Friend," by BeBe & CeCe Winans, featuring Aretha Franklin, "Will You Love Me Tomorrow?," by the Bee Gees, and "Smackwater Jack," by the Manhattan Transfer – were produced by Arif Mardin, and a couple of others – "So Far Away," by Rod Stewart, and "(You Make Me Feel Like) A Natural Woman," by Celine Dion – were handled by David Foster. In such a project, casting is everything, and the best versions were turned in by artists who grew up with the original album, such as Amy Grant ("It’s Too Late"), Richard Marx ("Beautiful"), and Faith Hill ("Where You Lead"). Such artists achieved a reasonable compromise between the King versions and their own sound. Artists like the Bee Gees and Stewart, who were King’s contemporaries, seemed to be going through the motions, and a raft of newer artists, such as Eternal, Curtis Stigers, Blessid Union of Souls, All-4-One, and Dion, seemed to be on the album because someone at their management companies thought it would be a good idea and displayed little feel for the material. But King’s music has a flexibility that allows for many interpretations, and while this album could not be recommended over the original, the new performances didn’t do it much harm.

~ William Ruhlmann, All Music
Wiki | Discogs | All Music

***************

VA - Tapestry Revisited: A Tribute To Carole King (1995)

Track List:

01. Eternal / I Feel The Earth Move [0:04:59.73]
02. Rod Stewart / So Far Away [0:04:25.20]
03. Amy Grant / It’s Too Late [0:03:59.05]
04. Curtis Stigers / Home Again [0:03:41.42]
05. Richard Marx / Beautiful [0:03:46.53]
06. Blessid Union Of Souls / Way Over Yonder [0:03:54.00]
07. BeBe & CeCe Winans, Featuring Aretha Franklin / You’ve Got A Friend [0:06:03.30]
08. Faith Hill / Where You Lead [0:03:32.45]
09. Bee Gees / Will You Love Me Tomorrow? [0:05:02.70]
10. The Manhattan Transfer / Smackwater Jack [0:04:37.32]
11. All-4-One / Tapestry [0:03:12.73]
12. Celine Dion / (You Make Me Feel Like) A Natural Woman [0:03:43.27]

EAC Log
Exact Audio Copy V1.3 from 2. September 2016

EAC extraction logfile from 23. December 2016, 10:14

Various Artists / Tapestry Revisited – A Tribute To Carole King

Used drive : HL-DT-STDVDRAM GH24NSC0 Adapter: 1 ID: 0

Read mode : Secure
Utilize accurate stream : Yes
Defeat audio cache : Yes
Make use of C2 pointers : No

Read offset correction : 6
Overread into Lead-In and Lead-Out : No
Fill up missing offset samples with silence : Yes
Delete leading and trailing silent blocks : No
Null samples used in CRC calculations : Yes
Used interface : Native Win32 interface for Win NT & 2000

Used output format : Internal WAV Routines
Sample format : 44.100 Hz; 16 Bit; Stereo

TOC of the extracted CD

Track | Start | Length | Start sector | End sector
––––––––––––––––––––––––––––-
1 | 0:00.32 | 4:59.73 | 32 | 22529
2 | 5:00.30 | 4:25.20 | 22530 | 42424
3 | 9:25.50 | 3:59.05 | 42425 | 60354
4 | 13:24.55 | 3:41.42 | 60355 | 76971
5 | 17:06.22 | 3:46.53 | 76972 | 93974
6 | 20:53.00 | 3:54.00 | 93975 | 111524
7 | 24:47.00 | 6:03.30 | 111525 | 138779
8 | 30:50.30 | 3:32.45 | 138780 | 154724
9 | 34:23.00 | 5:02.70 | 154725 | 177444
10 | 39:25.70 | 4:37.32 | 177445 | 198251
11 | 44:03.27 | 3:12.73 | 198252 | 212724
12 | 47:16.25 | 3:43.27 | 212725 | 229476

Range status and errors

Selected range

Filename C:Music CDVarious Artists – Tapestry Revisited – A Tribute To Carole King.wav

Peak level 100.0 %
Extraction speed 1.8 X
Range quality 99.9 %
Test CRC 3587AF43
Copy CRC 3587AF43
Copy OK

No errors occurred

AccurateRip summary

Track 1 accurately ripped (confidence 54) [BA190FB8] (AR v2)
Track 2 accurately ripped (confidence 56) [8CE67FB0] (AR v2)
Track 3 accurately ripped (confidence 57) [B364E975] (AR v2)
Track 4 accurately ripped (confidence 57) [40918414] (AR v2)
Track 5 accurately ripped (confidence 55) [852154D6] (AR v2)
Track 6 accurately ripped (confidence 56) [2FA83AAA] (AR v2)
Track 7 accurately ripped (confidence 56) [41DFDE0F] (AR v2)
Track 8 accurately ripped (confidence 55) [A93338E0] (AR v2)
Track 9 accurately ripped (confidence 54) [35456424] (AR v2)
Track 10 accurately ripped (confidence 55) [9176F345] (AR v2)
Track 11 accurately ripped (confidence 54) [853DF98A] (AR v2)
Track 12 accurately ripped (confidence 53) [0834EE9F] (AR v2)

All tracks accurately ripped

End of status report

–– CUETools DB Plugin V2.1.6

[CTDB TOCID: BNg5iHbqmZTXYKxnMwVR31qztW8-] database access error: Время ожидания операции истекло

==== Log checksum 111F97A86B51B1D21A57FEFCC930D378704494C909846D59F0E4AB498824AE90 ====

DR Log
foobar2000 1.2.6 / Dynamic Range Meter 1.1.1
log date: 2017-07-30 01:37:51

––––––––––––––––––––––––––––––––––––––––
Analyzed: Amy Grant / Tapestry Revisited – A Tribute To Carole King (1)
BeBe & CeCe Winans, Featuring Aretha Franklin / Tapestry Revisited – A Tribute To Carole King (2)
Bee Gees / Tapestry Revisited – A Tribute To Carole King (3)
––––––––––––––––––––––––––––––––––––––––

DR Peak RMS Duration Track
––––––––––––––––––––––––––––––––––––––––
DR10 0.00 dB -12.10 dB 3:59 03-It’s Too Late
DR9 0.00 dB -11.25 dB 6:03 07-You’ve Got A Friend
DR10 0.00 dB -12.18 dB 5:03 09-Will You Love Me Tomorrow?
––––––––––––––––––––––––––––––––––––––––

Number of tracks: 3
Official DR value: DR9

Samplerate: 44100 Hz
Channels: 2
Bits per sample: 16
Bitrate: 904 kbps
Codec: WavPack
================================================================================

––––––––––––––––––––––––––––––––––––––––
Analyzed: Blessid Union Of Souls / Tapestry Revisited – A Tribute To Carole King (1)
Celine Dion / Tapestry Revisited – A Tribute To Carole King (2)
––––––––––––––––––––––––––––––––––––––––

DR Peak RMS Duration Track
––––––––––––––––––––––––––––––––––––––––
DR10 0.00 dB -12.93 dB 3:54 06-Way Over Yonder
DR8 0.00 dB -10.89 dB 3:43 12-(You Make Me Feel Like) A Natural Woman
––––––––––––––––––––––––––––––––––––––––

Number of tracks: 2
Official DR value: DR9

Samplerate: 44100 Hz
Channels: 2
Bits per sample: 16
Bitrate: 904 kbps
Codec: WavPack
================================================================================

––––––––––––––––––––––––––––––––––––––––
Statistics for: 04-Home Again
Number of samples: 9770796
Duration: 3:42
––––––––––––––––––––––––––––––––––––––––

Left Right

Peak Value: 0.00 dB –- 0.00 dB
Avg RMS: -11.86 dB –- -12.05 dB
DR channel: 8.48 dB –- 8.83 dB
––––––––––––––––––––––––––––––––––––––––

Official DR Value: DR9

Samplerate: 44100 Hz
Channels: 2
Bits per sample: 16
Bitrate: 904 kbps
Codec: WavPack
================================================================================
––––––––––––––––––––––––––––––––––––––––
Analyzed: Eternal / Tapestry Revisited – A Tribute To Carole King (1)
Faith Hill / Tapestry Revisited – A Tribute To Carole King (2)
––––––––––––––––––––––––––––––––––––––––

DR Peak RMS Duration Track
––––––––––––––––––––––––––––––––––––––––
DR9 0.00 dB -11.03 dB 5:00 01-I Feel The Earth Move
DR10 0.00 dB -11.99 dB 3:33 08-Where You Lead
––––––––––––––––––––––––––––––––––––––––

Number of tracks: 2
Official DR value: DR10

Samplerate: 44100 Hz
Channels: 2
Bits per sample: 16
Bitrate: 904 kbps
Codec: WavPack
================================================================================

––––––––––––––––––––––––––––––––––––––––
Statistics for: 05-Beautiful
Number of samples: 9997764
Duration: 3:47
––––––––––––––––––––––––––––––––––––––––

Left Right

Peak Value: 0.00 dB –- 0.00 dB
Avg RMS: -11.23 dB –- -10.43 dB
DR channel: 9.17 dB –- 8.31 dB
––––––––––––––––––––––––––––––––––––––––

Official DR Value: DR9

Samplerate: 44100 Hz
Channels: 2
Bits per sample: 16
Bitrate: 904 kbps
Codec: WavPack
================================================================================
––––––––––––––––––––––––––––––––––––––––
Analyzed: Rod Stewart / Tapestry Revisited – A Tribute To Carole King (1)
The Manhattan Transfer / Tapestry Revisited – A Tribute To Carole King (2)
––––––––––––––––––––––––––––––––––––––––

DR Peak RMS Duration Track
––––––––––––––––––––––––––––––––––––––––
DR9 0.00 dB -10.79 dB 4:25 02-So Far Away
DR8 0.00 dB -10.99 dB 4:37 10-Smackwater Jack
––––––––––––––––––––––––––––––––––––––––

Number of tracks: 2
Official DR value: DR8

Samplerate: 44100 Hz
Channels: 2
Bits per sample: 16
Bitrate: 904 kbps
Codec: WavPack
================================================================================

CUETools Log
[CUETools log; Date: 30.07.2017 1:26:22; Version: 2.1.5]
Pregap length 00:00:32.
[CTDB TOCID: BNg5iHbqmZTXYKxnMwVR31qztW8-] found.
Track | CTDB Status
1 | (94/94) Accurately ripped
2 | (94/94) Accurately ripped
3 | (94/94) Accurately ripped
4 | (93/94) Accurately ripped
5 | (93/94) Accurately ripped
6 | (94/94) Accurately ripped
7 | (94/94) Accurately ripped
8 | (94/94) Accurately ripped
9 | (94/94) Accurately ripped
10 | (94/94) Accurately ripped
11 | (94/94) Accurately ripped
12 | (93/94) Accurately ripped
[AccurateRip ID: 00172e72-00d7b6e4-aa0bf30c] found.
Track [ CRC | V2 ] Status
01 [cd8d55b5|ba190fb8] (054+062/136) Accurately ripped
02 [17269c30|8ce67fb0] (055+064/139) Accurately ripped
03 [30f14924|b364e975] (055+065/140) Accurately ripped
04 [19471157|40918414] (055+065/140) Accurately ripped
05 [3390532c|852154d6] (055+063/138) Accurately ripped
06 [846af227|2fa83aaa] (053+064/137) Accurately ripped
07 [1e08e96b|41dfde0f] (053+064/137) Accurately ripped
08 [2e792e6f|a93338e0] (054+063/138) Accurately ripped
09 [4d492135|35456424] (054+063/137) Accurately ripped
10 [c3d1203a|9176f345] (053+063/136) Accurately ripped
11 [f1f45a76|853df98a] (053+062/135) Accurately ripped
12 [81760661|0834ee9f] (052+061/134) Accurately ripped
Offsetted by 421:
01 [010c314f] (017/136) Accurately ripped
02 [a76a36bf] (017/139) Accurately ripped
03 [7a3f1d75] (017/140) Accurately ripped
04 [36579584] (017/140) Accurately ripped
05 [b944c221] (017/138) Accurately ripped
06 [c6536ec1] (017/137) Accurately ripped
07 [46df9b02] (017/137) Accurately ripped
08 [e221f3c0] (018/138) Accurately ripped
09 [5a88cf91] (017/137) Accurately ripped
10 [01ab2f90] (017/136) Accurately ripped
11 [f0cf25d4] (017/135) Accurately ripped
12 [d85ac25f] (018/134) Accurately ripped

Track Peak [ CRC32 ] [W/O NULL] [ LOG ]
– 99,9 [3587AF43] [0B3D4033] CRC32
01 99,9 [C44B6F71] [C221D31A]
02 99,9 [EFAF8CC7] [6C069059]
03 99,9 [60C3D5EA] [D91CFD88]
04 99,9 [BDC4ADFC] [F0423903]
05 99,9 [807C5041] [213F98F8]
06 99,9 [08F365E8] [40A12B25]
07 99,9 [2AD697CE] [D14C67E9]
08 99,9 [287E6587] [6E96A218]
09 99,9 [B60CE177] [7D0EBB5D]
10 99,9 [E643B8E0] [DEDE0416]
11 99,9 [CF545C4E] [7D7F461E]
12 99,9 [41C40920] [C46F2D72]

VA - Tapestry Revisited: A Tribute To Carole King (1995)

All thanks go to edenika

>>> My Blog <<<

Download from icerbox.com:

VA – Tapestry Revisited: A Tribute To Carole King (1995) Download, Warez, DDL, Free, Full Album, Torrent, Legal.

Download