VA – Songs In The Key Of X (1996)

Download
VA - Songs In The Key Of X (1996)

VA – Songs In The Key Of X (1996)
EAC | FLAC | Image (Cue&Log) ~ 472 Mb (incl 5%) | Mp3 (CBR320) ~ 160 Mb (incl 5%) | Scans included
Soundtrack, Rock, Alternative Rock, Experimental | Label: Warner Bros. | # 9362-46079-2 | 01:02:44

[[quote]This album purports to be an attempt at recursion by the creator of The X-Files, Chris Carter – songs inspired by the show that he hopes will provide further inspiration for the show (just as Nick Cave’s "Red Right Hand" did for the "Ascension" episode.) Contributions here include Mark Snow, with the title music, the Foo Fighters with a grand rendition of Gary Numan’s "Down in the Park" (Numan’s songs would fit this show perfectly), Sheryl Crow, Frank Black, Filter (who abandon their roaring faux-NIN sound for moody acoustic guitars), Meat Puppets, Elvis Costello with Brian Eno and even Screamin’ Jay Hawkins. While not perfect, the album makes a nice alternative compilation, one that has that blue-light glow of twisted mystery X-ficianados have come to enjoy.

Review by Steven McDonald, Allmusic.com

Tracklist:

01. Mark Snow – X-Files Theme (Main Title) (03:24)
02. Soul Coughing – Unmarked Helicopters (03:22)
03. Sheryl Crow – On The Outside (04:36)
04. Foo Fighters – Down In The Park (04:04)
05. William S. Burroughs & R.E.M. – Star Me Kitten (03:30)
06. Nicke Cave & The Bad Seeds – Red Right Hand (06:11)
07. Filter – Thanks Bro (04:10)
08. Frank Black – Man Of Steel (04:59)
09. Meat Puppets – Unexplained (03:43)
10. Danzig – Deep (03:48)
11. Screamin’ Jay Hawkins – Frenzy (02:10)
12. Elvis Costello and Brian Eno – My Dark Life (06:20)
13. Rob Zombie and Alice Cooper – Hands Of Death (Burn Baby Burn) (04:11)
14. P.M. Dawn – If You Never Say Goodbye (04:06)
15. Mark Snow – X-Files Theme [P.M. Dawn remix] (03:59)

EAC log
Exact Audio Copy V0.99 prebeta 5 from 4. May 2009

EAC extraction logfile from 8. March 2010, 12:43

Various / Songs in the key of X

Used drive : HL-DT-STDVD-RAM GH22LS30 Adapter: 1 ID: 2

Read mode : Secure
Utilize accurate stream : Yes
Defeat audio cache : Yes
Make use of C2 pointers : No

Read offset correction : 102
Overread into Lead-In and Lead-Out : No
Fill up missing offset samples with silence : Yes
Delete leading and trailing silent blocks : No
Null samples used in CRC calculations : Yes
Used interface : Native Win32 interface for Win NT & 2000

Used output format : User Defined Encoder
Selected bitrate : 320 kBit/s
Quality : High
Add ID3 tag : No
Command line compressor : C:Program FilesExact Audio Copyflac.exe
Additional command line options : -8 -V -T "artist=%a" -T "title=%t" -T "album=%g" -T "date=%y" -T "tracknumber=%n" -T "genre=%m" -T "comment=EAC V0.99 pЯ 5 & flac 1.2.1 Q8" %s

TOC of the extracted CD

Track | Start | Length | Start sector | End sector
––––––––––––––––––––––––––––-
1 | 9:12.25 | 3:24.62 | 41425 | 56786
2 | 12:37.12 | 3:22.43 | 56787 | 71979
3 | 15:59.55 | 4:36.60 | 71980 | 92739
4 | 20:36.40 | 4:04.65 | 92740 | 111104
5 | 24:41.30 | 3:30.10 | 111105 | 126864
6 | 28:11.40 | 6:11.05 | 126865 | 154694
7 | 34:22.45 | 4:10.15 | 154695 | 173459
8 | 38:32.60 | 4:59.49 | 173460 | 195933
9 | 43:32.34 | 3:44.46 | 195934 | 212779
10 | 47:17.05 | 3:50.55 | 212780 | 230084
11 | 51:07.60 | 2:10.57 | 230085 | 239891
12 | 53:18.42 | 6:20.10 | 239892 | 268401
13 | 59:38.52 | 4:12.53 | 268402 | 287354
14 | 63:51.30 | 4:06.27 | 287355 | 305831
15 | 67:57.57 | 3:59.05 | 305832 | 323761

Range status and errors

Selected range

Filename F:TMPAUDIO_TMPEAC_TMPVarious – Songs in the key of X.wav

Peak level 99.9 %
Range quality 99.9 %
Test CRC 018D13FB
Copy CRC 018D13FB
Copy OK

No errors occurred

AccurateRip summary

Track 1 accurately ripped (confidence 31) [5538D1D1]
Track 2 accurately ripped (confidence 30) [0C5D68A7]
Track 3 accurately ripped (confidence 31) [473BBE6A]
Track 4 accurately ripped (confidence 30) [A1F4E5F2]
Track 5 accurately ripped (confidence 30) [63D707D1]
Track 6 accurately ripped (confidence 31) [463EF18E]
Track 7 accurately ripped (confidence 32) [C54DD8B4]
Track 8 accurately ripped (confidence 30) [F880D8B3]
Track 9 accurately ripped (confidence 29) [FA988A66]
Track 10 accurately ripped (confidence 29) [252F2722]
Track 11 accurately ripped (confidence 29) [3A376A1B]
Track 12 accurately ripped (confidence 29) [EAA37AC9]
Track 13 accurately ripped (confidence 30) [55526863]
Track 14 accurately ripped (confidence 27) [04F747C3]
Track 15 accurately ripped (confidence 26) [A297991E]

All tracks accurately ripped

End of status report

DR log
foobar2000 1.2 / Dynamic Range Meter 1.1.1
log date: 2014-08-28 16:37:18

––––––––––––––––––––––––––––––––––––––––
Analyzed: Danzig / Songs in the key of X (1)
Elvis Costello and Brian Eno / Songs in the key of X (2)
––––––––––––––––––––––––––––––––––––––––

DR Peak RMS Duration Track
––––––––––––––––––––––––––––––––––––––––
DR7 0.00 dB -9.52 dB 3:51 10-Deep
DR11 0.00 dB -14.65 dB 6:20 12-My Dark Life
––––––––––––––––––––––––––––––––––––––––

Number of tracks: 2
Official DR value: DR9

Samplerate: 44100 Hz
Channels: 2
Bits per sample: 16
Bitrate: 858 kbps
Codec: FLAC
================================================================================

––––––––––––––––––––––––––––––––––––––––
Statistics for: 07-Thanks Bro
Number of samples: 11033820
Duration: 4:10
––––––––––––––––––––––––––––––––––––––––

Left Right

Peak Value: 0.00 dB –- 0.00 dB
Avg RMS: -13.24 dB –- -13.94 dB
DR channel: 9.35 dB –- 9.84 dB
––––––––––––––––––––––––––––––––––––––––

Official DR Value: DR10

Samplerate: 44100 Hz
Channels: 2
Bits per sample: 16
Bitrate: 858 kbps
Codec: FLAC
================================================================================
––––––––––––––––––––––––––––––––––––––––
Analyzed: Foo Fighters / Songs in the key of X (1)
Frank Black / Songs in the key of X (2)
––––––––––––––––––––––––––––––––––––––––

DR Peak RMS Duration Track
––––––––––––––––––––––––––––––––––––––––
DR8 0.00 dB -9.95 dB 4:05 04-Down In The Park
DR9 0.00 dB -10.87 dB 5:00 08-Man Of Steel
––––––––––––––––––––––––––––––––––––––––

Number of tracks: 2
Official DR value: DR8

Samplerate: 44100 Hz
Channels: 2
Bits per sample: 16
Bitrate: 858 kbps
Codec: FLAC
================================================================================

––––––––––––––––––––––––––––––––––––––––
Analyzed: Mark Snow / Songs in the key of X (1)
Meat Puppets / Songs in the key of X (2)
––––––––––––––––––––––––––––––––––––––––

DR Peak RMS Duration Track
––––––––––––––––––––––––––––––––––––––––
DR11 0.00 dB -13.03 dB 3:25 01-X-Files Theme (Main Title)
DR8 0.00 dB -8.73 dB 3:45 09-Unexplained
––––––––––––––––––––––––––––––––––––––––

Number of tracks: 2
Official DR value: DR9

Samplerate: 44100 Hz
Channels: 2
Bits per sample: 16
Bitrate: 858 kbps
Codec: FLAC
================================================================================

––––––––––––––––––––––––––––––––––––––––
Analyzed: Nicke Cave & The Bad Seeds / Songs in the key of X (1)
P.M. Dawn / Songs in the key of X (2-3)
––––––––––––––––––––––––––––––––––––––––

DR Peak RMS Duration Track
––––––––––––––––––––––––––––––––––––––––
DR10 0.00 dB -12.67 dB 6:11 06-Red Right Hand
DR7 0.00 dB -8.67 dB 4:06 14-If You Never Say Goodbye
DR9 0.00 dB -10.74 dB 3:59 15-X-Files Theme [P.M. Dawn remix]
––––––––––––––––––––––––––––––––––––––––

Number of tracks: 3
Official DR value: DR8

Samplerate: 44100 Hz
Channels: 2
Bits per sample: 16
Bitrate: 858 kbps
Codec: FLAC
================================================================================

––––––––––––––––––––––––––––––––––––––––
Statistics for: 13-Hands Of Death (Burn Baby Burn)
Number of samples: 11144364
Duration: 4:13
––––––––––––––––––––––––––––––––––––––––

Left Right

Peak Value: 0.00 dB –- 0.00 dB
Avg RMS: -10.13 dB –- -9.85 dB
DR channel: 8.18 dB –- 7.86 dB
––––––––––––––––––––––––––––––––––––––––

Official DR Value: DR8

Samplerate: 44100 Hz
Channels: 2
Bits per sample: 16
Bitrate: 858 kbps
Codec: FLAC
================================================================================
––––––––––––––––––––––––––––––––––––––––
Statistics for: 11-Frenzy
Number of samples: 5766516
Duration: 2:11
––––––––––––––––––––––––––––––––––––––––

Left Right

Peak Value: -0.40 dB –- -0.40 dB
Avg RMS: -15.21 dB –- -15.21 dB
DR channel: 12.73 dB –- 12.73 dB
––––––––––––––––––––––––––––––––––––––––

Official DR Value: DR13

Samplerate: 44100 Hz
Channels: 2
Bits per sample: 16
Bitrate: 858 kbps
Codec: FLAC
================================================================================
––––––––––––––––––––––––––––––––––––––––
Statistics for: 03-On The Outside
Number of samples: 12206880
Duration: 4:37
––––––––––––––––––––––––––––––––––––––––

Left Right

Peak Value: 0.00 dB –- -0.64 dB
Avg RMS: -13.09 dB –- -13.33 dB
DR channel: 9.53 dB –- 9.52 dB
––––––––––––––––––––––––––––––––––––––––

Official DR Value: DR10

Samplerate: 44100 Hz
Channels: 2
Bits per sample: 16
Bitrate: 858 kbps
Codec: FLAC
================================================================================
––––––––––––––––––––––––––––––––––––––––
Analyzed: Soul Coughing / Songs in the key of X (1)
William S. Burroughs & R.E.M. / Songs in the key of X (2)
––––––––––––––––––––––––––––––––––––––––

DR Peak RMS Duration Track
––––––––––––––––––––––––––––––––––––––––
DR9 0.00 dB -12.31 dB 3:23 02-Unmarked Helicopters
DR11 0.00 dB -12.55 dB 3:30 05-Star Me Kitten
––––––––––––––––––––––––––––––––––––––––

Number of tracks: 2
Official DR value: DR10

Samplerate: 44100 Hz
Channels: 2
Bits per sample: 16
Bitrate: 858 kbps
Codec: FLAC
================================================================================

VA - Songs In The Key Of X (1996)

VA - Songs In The Key Of X (1996)

All thanks to original releaser – Marwell.

More interesting music in My Blog

Mark Snow – The X-Files: Fight The Future – Original Motion Picture Score (1998) Limited Edition 2014

Password: designol

VA – Songs In The Key Of X (1996) Download, Warez, DDL, Free, Full Album, Torrent, Legal.

Download