VA – Smooth Sax Tribute to Janet Jackson (2002)

Download
VA - Smooth Sax Tribute to Janet Jackson (2002)

VA – Smooth Sax Tribute to Janet Jackson (2002)
EAC Rip | FLAC (Image) +CUE, LOG | 306 MB | Covers Included
Genre: Jazz, Smooth Jazz | Label: Tribute Sounds | Catalog Number: TRB 60044

10 Janet Jackson tunes given the Smooth Sax treatment.

EAC Log
Exact Audio Copy V1.0 beta 3 from 29. August 2011

EAC extraction logfile from 11. October 2014, 11:32

Tribute Sounds / Smooth Sax Tribute To Janet Jackson

Used drive : SAMSUNG DVD-ROM SD-616E Adapter: 3 ID: 0

Read mode : Secure
Utilize accurate stream : Yes
Defeat audio cache : Yes
Make use of C2 pointers : No

Read offset correction : 12
Overread into Lead-In and Lead-Out : No
Fill up missing offset samples with silence : Yes
Delete leading and trailing silent blocks : No
Null samples used in CRC calculations : Yes
Used interface : Native Win32 interface for Win NT & 2000

Used output format : User Defined Encoder
Selected bitrate : 768 kBit/s
Quality : High
Add ID3 tag : No
Command line compressor : C:Program FilesExact Audio CopyFLACFLAC.EXE
Additional command line options : -6 -V -T "ARTIST=%artist%" -T "TITLE=%title%" -T "ALBUM=%albumtitle%" -T "DATE=%year%" -T "TRACKNUMBER=%tracknr%" -T "GENRE=%genre%" -T "COMMENT=%comment%" -T "BAND=%albuminterpret%" -T "ALBUMARTIST=%albuminterpret%" -T "COMPOSER=%composer%" %haslyrics%–tag-from-file=LYRICS="%lyricsfile%"%haslyrics% -T "DISCNUMBER=%cdnumber%" -T "TOTALDISCS=%totalcds%" -T "TOTALTRACKS=%numtracks%" %hascover%–picture="%coverfile%"%hascover% %source% -o %dest%

TOC of the extracted CD

Track | Start | Length | Start sector | End sector
––––––––––––––––––––––––––––-
1 | 0:00.00 | 4:26.11 | 0 | 19960
2 | 4:26.11 | 5:03.31 | 19961 | 42716
3 | 9:29.42 | 4:16.48 | 42717 | 61964
4 | 13:46.15 | 4:40.21 | 61965 | 82985
5 | 18:26.36 | 3:44.34 | 82986 | 99819
6 | 22:10.70 | 5:03.03 | 99820 | 122547
7 | 27:13.73 | 5:01.45 | 122548 | 145167
8 | 32:15.43 | 3:25.44 | 145168 | 160586
9 | 35:41.12 | 4:45.48 | 160587 | 182009
10 | 40:26.60 | 4:26.42 | 182010 | 202001

Range status and errors

Selected range

Filename C:Documents and SettingsBoryaDesktopTriJaJaTribute Sounds – Smooth Sax Tribute To Janet Jackson.wav

Peak level 96.6 %
Extraction speed 2.9 X
Range quality 100.0 %
Test CRC 485D4794
Copy CRC 485D4794
Copy OK

No errors occurred

AccurateRip summary

Track 1 not present in database
Track 2 not present in database
Track 3 not present in database
Track 4 not present in database
Track 5 not present in database
Track 6 not present in database
Track 7 not present in database
Track 8 not present in database
Track 9 not present in database
Track 10 not present in database

None of the tracks are present in the AccurateRip database

End of status report

==== Log checksum B443A9C6410AFF28B2AD1F79D6019397213E8BF1B3CC7DA631D38CDEAAEB90DD ====

Tracklist:
01. When I Think Of You (4:26)
02. I Get So Lonely (5:03)
03. Got Til It’s Gone (4:16)
04. Black Cat (4:40)
05. Again (3:44)
06. Nasty (5:03)
07. Let’s Wait A While (5:01)
08. All For You (3:25)
09. Escapade (4:45)
10. That’s The Way Love Goes (4:26)

VA – Smooth Sax Tribute to Janet Jackson (2002) Download, Warez, DDL, Free, Full Album, Torrent, Legal.

Download