VA – Rückblick Moderne – Orchestermusik Im 20. Jahrhundert (1999) (8CD Box Set)

Download
VA - Rückblick Moderne - Orchestermusik Im 20. Jahrhundert (1999) (8CD Box Set)

VA – Rückblick Moderne – Orchestermusik Im 20. Jahrhundert (1999)
EAC Rip | FLAC (tracks+.cue, log) | Front Cover, booklet | 1.95 Gb mb | MP3 CBR 320kbps | RAR | 1,25 Gb
Classical, Electronic, Modern, Contemporary | Label: col legno – WWE 8CD 20041

It starts, appropriately enough, with Charles Ives’s The Unanswered Question, which seems to hold its breath, and occasionally exhale in brief bursts of panic, as the new century unfolds. It ends with Dmitri Shostakovich’s Chamber Symphony Op. 110a (based on his String Quartet No. 8), whose alternating sequences of anguish, alarm, and derision come as close as possible for absolute music to indicting its bloody history – eight CDs and over 30 works later.

Rückblick Moderne: 20th Century Orchestral Music represents as fine a look back at musical modernism as you’re likely to get. And in what a lavish package! A tall box holding two multi-CD jewel boxes and a beautifully printed booklet with photographs of modern and postmodern architecture and extensive liner notes (in German). Even the CDs themselves look handsome. All the more amazing when you realize that the entire set was digitally recorded live – with coughs, turning pages, chair creaks, and vivid sound–during one week in 1998 in Stuttgart (where, it seems, you have to travel nowadays even to hear about this kind of music), by such groups as the RSO Saarbrücken and the Bamberger Symphoniker, led by Dennis Russell Davies, Michael Gielen, Heinz Holliger, and other risk takers. Each CD has been programmed around a theme; for example, "Explosion/Implosion" (featuring Varèse and Mahler’s tone poem Totenfeier, later becoming the first movement of his Second Symphony) and "Minimal Postludien," which includes (heads up, completists) Philip Glass’s Echorus for two solo violins and string orchestra and Ligeti’s Ramifications. Stravinsky, who, like Schoenberg and Cage, appears to cast a long shadow over this imposing collection, remains one of the highlights: a sharp, fiercely erotic performance of Le Sacre by Lothar Zagrosek and the Stattsorchester Stuttgart that helps remind us how much modern music has done, in the face of controversy and disaster, to ground us in our humanity.

Robert Burns Neveldine

Tracklist:

Disc 1 "Ameriques Oder Die Wiedergefundene Zeit"
1-1 Charles E. Ives – The Unanswered Question
1-2 John Cage – Five
1-3 John Cage – Four²
1-4 Pierre Boulez – Cummings Ist Der Dichter
1-5 Morton Feldman – Coptic Light

Disc 2 "Explosion / Implosion"
2-1 Edgard Varèse – Ionisation
Anton Webern – Fünf Orchesterstücke Op. 10
2-2a – 1. Sehr Ruhig Und Zart
2-2b – 2. Lebhaft Und Zart Bewegt
2-2c – 3. Sehr Langsam Und Äußerst Ruhig
2-2d – 4. Fließend, Äußerst Zart
2-2e – 5. Sehr Fließend
2-3 Edgard Varèse – Ionisation – Repetition
2-4 Gustav Mahler – Totenfeier
György Kurtág … Quasi Una Fantasia… Op. 27/1
2-5a – 1. Introduzione. Largo
2-5b – 2. Presto Minaccioso E Lamentoso (Wie Ein Traumeswirren)
2-5c – 3. Recitativo. Grave, Disperato
2-5d – 4. Aria. Adagio Molto. Lontano, Calmo, Appena Sentito
2-6 – Béla Bartók Der Wunderbare Mandarin Op. 19

Disc 3 "Images"
3-1 Maurice Ravel – Une Barque Sur L’Océan
3-2 Beat Furrer – Chiaroscuro
3-3 Bruno Maderna – Concerto For Oboe And Orchestra No. 3
Claude Debussy – Images
3-4 Gigues
3-5 Ibéria: I. Par Les Rues Et Par Les Chemins
3-6 – II. Les Parfums De La Nuit
3-7 – III. Le Matin D’Un Jour De Fête
3-8 Rondes De Printemps

Disc 4 "Couleur Du Temps"
–Olivier Messiaen Chronochromie
4-1 – Introduction
4-2 – Strophe I
4-3 – Antistrophe I
4-4 – Strophe II
4-5 – Antistrophe II
4-6 – Epôde
4-7 – Coda
4-8 –Helmut Lachenmann Air – Musik Für Großes Orchester Mit Schlagzeug-Solo
–Igor Stravinsky Le Sacre Du Printemps
4-9 – L’Adoration De La Terre: Introduction – Les Augures Printaniers: Danses Des Adolescentes – Jeu Du Rapt – Rondes Printanières – Jeux Des Cités Rivales – Cortège Du Sage – Adoration De La Terre (Le Sage) – Danse De La Terre
4-10 – Le Sacrifice: Introduction – Cercles Mystérieux Des Adolescentes – Glorification De L’Élue – Evocation Des Ancêtres – Action Rituelle Des Ancêtres – Dans Sacrale. L’Élue 19:52

Disc 5 "Konzept"
5-1 –Klaus Huber Lamentationes De Fine Vicesimi Saeculi
–Mauricio Kagel Etudes I-III
5-2 – I. Quasi Adagio
5-3 – II. Andante
5-4 – III. Allegretto, Ma Non Troppo
5-5 – Luigi Nono Como Una Ola De Fuerza Y Luz

Disc 6 "Più Cantabile"
–Elliott Carter Three Occasions
6-1 – A Celebration Of Some 100 X 150 Notes
6-2 – Remembrance
6-3 – Anniversary
–Heinz Holliger Drei Lieder Nach Gedichten Von Georg Trakl
6-4 – Ein Winterabend
6-5 – Rondel
6-6 – Nachtlied
–Arnold Schönberg – Vier Lieder Für Gesang Und Orchester Op. 22
6-7 – Seraphita
6-8 – Alle, Welche Dich Suchen
6-9 – Mach Mich Zum Wächter Deiner Weiten
6-10 – Vorgefühl
–Alban Berg Drei Orchesterstücke Op. 6
6-11 – Präludium
6-12 – Reigen
6-13 – Marsch

Disc 7 "In Chiffren"
7-1 – Hans Zender Kalligraphie I
7-2 – Wolfgang Rihm In-Schrift
7-3 – Karl Amadeus Hartmann Adagio (Sinfonie Nr. 2)
–Bernd Alois Zimmermann Musique Pour Les Soupers Du Roi Ubu
7-4 – Entrée De L’Academie Ubu Roi, Captaine Bordure Et Ses Partisans
7-5 – Couplet 1
7-6 – Mère Ubu Et Ses Gardes
7-7 – Couplet 2
7-8 – Pille, Cotice Et L’Ours
7-9 – Couplet 3
7-10 – Le Cheval A Phynances Et Les Larbins De Phynances
7-11 – Couplet 4
7-12 – Pavane De Pissembock Et Pissedoux
7-13 – Couplet 5
7-14 – Berceuse Des Petits Financiers Qui Ne Peuvant Pas S’Endormir
7-15 – Couplet 6
7-16 – Marche Du Décervellage

Disc 8 "Minimal Postludien"
–Alfred Schnittke Trio-Sonate
8-1 – Moderato
8-2 – Adagio
8-3 –György Ligeti Ramifications
–Dmitry Shostakovich – Chamber Symphony Op. 110a
8-4 – Largo
8-5 – Allegro Molto
8-6 – Allegretto
8-7 – Largo
8-8 – Largo

EAC log Disc 1
Exact Audio Copy V1.1 from 23. June 2015

EAC extraction logfile from 5. November 2015, 12:37

Various / Rückblick Moderne [CD 1]

Used drive : MATSHITADVDRWBD UJ167 Adapter: 1 ID: 0

Read mode : Secure
Utilize accurate stream : Yes
Defeat audio cache : Yes
Make use of C2 pointers : No

Read offset correction : 103
Overread into Lead-In and Lead-Out : No
Fill up missing offset samples with silence : Yes
Delete leading and trailing silent blocks : No
Null samples used in CRC calculations : Yes
Used interface : Native Win32 interface for Win NT & 2000
Gap handling : Appended to previous track

Used output format : User Defined Encoder
Selected bitrate : 1024 kBit/s
Quality : High
Add ID3 tag : No
Command line compressor : C:Program Files (x86)Exact Audio CopyFLACFLAC.EXE
Additional command line options : -8 -V -T "ARTIST=%artist%" -T "TITLE=%title%" -T "ALBUM=%albumtitle%" -T "DATE=%year%" -T "TRACKNUMBER=%tracknr%" -T "GENRE=%genre%" -T "PERFORMER=%albuminterpret%" -T "COMPOSER=%composer%" %haslyrics%–tag-from-file=LYRICS="%lyricsfile%"%haslyrics% -T "ALBUMARTIST=%albumartist%" -T "DISCNUMBER=%cdnumber%" -T "TOTALDISCS=%totalcds%" -T "TOTALTRACKS=%numtracks%" -T "COMMENT=%comment%" %source% -o %dest%

TOC of the extracted CD

Track | Start | Length | Start sector | End sector
––––––––––––––––––––––––––––-
1 | 0:00.32 | 5:25.00 | 32 | 24406
2 | 5:25.32 | 5:03.00 | 24407 | 47131
3 | 10:28.32 | 7:14.00 | 47132 | 79681
4 | 17:42.32 | 12:54.00 | 79682 | 137731
5 | 30:36.32 | 21:10.25 | 137732 | 233006

Track 1

Filename C:WCD-Archive1 – Charles E. Ives – The Unanswered Question for chamber orchestra – SWR RSO Stuttgart, Rupert Huber.wav

Pre-gap length 0:00:02.42

Peak level 61.3 %
Extraction speed 2.1 X
Track quality 99.9 %
Test CRC 319F656E
Copy CRC 319F656E
Accurately ripped (confidence 2) [4573DCD8] (AR v2)
Copy OK

Track 2

Filename C:WCD-Archive2 – John Cage – Five for five voices – SWR Vokalensemble Stuttgart, Rupert Huber.wav

Pre-gap length 0:00:04.66

Peak level 20.1 %
Extraction speed 2.9 X
Track quality 100.0 %
Test CRC D5DC3E26
Copy CRC D5DC3E26
Accurately ripped (confidence 2) [A915EBEC] (AR v2)
Copy OK

Track 3

Filename C:WCD-Archive3 – John Cage – Four(2) for chorus – SWR Vokalensemble Stuttgart, Rupert Huber.wav

Pre-gap length 0:00:02.66

Peak level 25.2 %
Extraction speed 3.4 X
Track quality 100.0 %
Test CRC C4E1F90F
Copy CRC C4E1F90F
Accurately ripped (confidence 2) [B040743E] (AR v2)
Copy OK

Track 4

Filename C:WCD-Archive4 – Pierre Boulez – Cummings ist der Dichter – SWR Vokalensemble & RSO Stuttgart, Rupert Huber.wav

Pre-gap length 0:00:13.66

Peak level 87.8 %
Extraction speed 4.0 X
Track quality 100.0 %
Test CRC BC8C2EEA
Copy CRC BC8C2EEA
Accurately ripped (confidence 2) [3FA8035D] (AR v2)
Copy OK

Track 5

Filename C:WCD-Archive5 – Morton Feldman – Coptic Light for orchestra – SWR RSO Stuttgart, Rupert Huber.wav

Pre-gap length 0:00:14.66

Peak level 36.6 %
Extraction speed 4.9 X
Track quality 100.0 %
Test CRC 210BE603
Copy CRC 210BE603
Accurately ripped (confidence 2) [6C774AA2] (AR v2)
Copy OK

All tracks accurately ripped

No errors occurred

End of status report

–– CUETools DB Plugin V2.1.6

[CTDB TOCID: fo8diLkUN9zv.bo39lJBsLRzYrk-] found
Submit result: fo8diLkUN9zv.bo39lJBsLRzYrk- has been confirmed
Track | CTDB Status
1 | (1/1) Accurately ripped
2 | (1/1) Accurately ripped
3 | (1/1) Accurately ripped
4 | (1/1) Accurately ripped
5 | (1/1) Accurately ripped

==== Log checksum 0100218CBEA509050C1D6C3F07F99ED1147C8C22C11AAF46520B38B8B95DD83B ====

EAC log Disc 2
Exact Audio Copy V1.1 from 23. June 2015

EAC extraction logfile from 5. November 2015, 13:13

Various / Ruckblick Moderne

Used drive : MATSHITADVDRWBD UJ167 Adapter: 1 ID: 0

Read mode : Secure
Utilize accurate stream : Yes
Defeat audio cache : Yes
Make use of C2 pointers : No

Read offset correction : 103
Overread into Lead-In and Lead-Out : No
Fill up missing offset samples with silence : Yes
Delete leading and trailing silent blocks : No
Null samples used in CRC calculations : Yes
Used interface : Native Win32 interface for Win NT & 2000
Gap handling : Appended to previous track

Used output format : User Defined Encoder
Selected bitrate : 1024 kBit/s
Quality : High
Add ID3 tag : No
Command line compressor : C:Program Files (x86)Exact Audio CopyFLACFLAC.EXE
Additional command line options : -8 -V -T "ARTIST=%artist%" -T "TITLE=%title%" -T "ALBUM=%albumtitle%" -T "DATE=%year%" -T "TRACKNUMBER=%tracknr%" -T "GENRE=%genre%" -T "PERFORMER=%albuminterpret%" -T "COMPOSER=%composer%" %haslyrics%–tag-from-file=LYRICS="%lyricsfile%"%haslyrics% -T "ALBUMARTIST=%albumartist%" -T "DISCNUMBER=%cdnumber%" -T "TOTALDISCS=%totalcds%" -T "TOTALTRACKS=%numtracks%" -T "COMMENT=%comment%" %source% -o %dest%

TOC of the extracted CD

Track | Start | Length | Start sector | End sector
––––––––––––––––––––––––––––-
1 | 0:00.32 | 6:17.00 | 32 | 28306
2 | 6:17.32 | 4:15.00 | 28307 | 47431
3 | 10:32.32 | 5:48.00 | 47432 | 73531
4 | 16:20.32 | 24:22.00 | 73532 | 183181
5 | 40:42.32 | 8:43.00 | 183182 | 222406
6 | 49:25.32 | 20:02.25 | 222407 | 312581

Track 1

Filename C:WCD-Archive1 – Edgard Varese – Ionisation.wav

Pre-gap length 0:00:02.42

Peak level 97.0 %
Extraction speed 2.8 X
Track quality 100.0 %
Test CRC 93B2380E
Copy CRC 93B2380E
Accurately ripped (confidence 2) [01A93672] (AR v2)
Copy OK

Track 2

Filename C:WCD-Archive2 – Anton Webern – Funf Orchesterstucke op. 10.wav

Pre-gap length 0:00:10.66

Peak level 43.9 %
Extraction speed 2.9 X
Track quality 100.0 %
Test CRC 857EDB71
Copy CRC 857EDB71
Accurately ripped (confidence 2) [CF8F305D] (AR v2)
Copy OK

Track 3

Filename C:WCD-Archive3 – Edgard Varese – Ionisation Repetition.wav

Pre-gap length 0:00:07.66

Peak level 96.2 %
Extraction speed 3.3 X
Track quality 100.0 %
Test CRC EA7F1DF0
Copy CRC EA7F1DF0
Accurately ripped (confidence 2) [2D302569] (AR v2)
Copy OK

Track 4

Filename C:WCD-Archive4 – Gustav Mahler – Totenfeier.wav

Pre-gap length 0:00:11.66

Peak level 97.6 %
Extraction speed 4.3 X
Track quality 100.0 %
Test CRC 1C762ED0
Copy CRC 1C762ED0
Accurately ripped (confidence 2) [2D488550] (AR v2)
Copy OK

Track 5

Filename C:WCD-Archive5 – Gyorgy Kurtag – …quasi una fantasia… op. 27,1.wav

Pre-gap length 0:00:13.66

Peak level 96.1 %
Extraction speed 4.9 X
Track quality 100.0 %
Test CRC C6AD11BF
Copy CRC C6AD11BF
Accurately ripped (confidence 2) [AAB8C29B] (AR v2)
Copy OK

Track 6

Filename C:WCD-Archive6 – Bela Bartok – Der wunderbare Mandarin op. 19 symphonic suite.wav

Pre-gap length 0:00:15.66

Peak level 99.7 %
Extraction speed 5.5 X
Track quality 100.0 %
Test CRC 6592550D
Copy CRC 6592550D
Accurately ripped (confidence 2) [6320A1D4] (AR v2)
Copy OK

All tracks accurately ripped

No errors occurred

End of status report

–– CUETools DB Plugin V2.1.6

[CTDB TOCID: siaCgx_vAr2BB4U_FsNWCSbkI1E-] found
Submit result: siaCgx_vAr2BB4U_FsNWCSbkI1E- has been confirmed
Track | CTDB Status
1 | (1/1) Accurately ripped
2 | (1/1) Accurately ripped
3 | (1/1) Accurately ripped
4 | (1/1) Accurately ripped
5 | (1/1) Accurately ripped
6 | (1/1) Accurately ripped

==== Log checksum CB3BD118471F4B000BA9B7ED88D0CC88B371409C3D1CADA7E8D0FEADD64F21D8 ====

EAC log Disc 3
Exact Audio Copy V1.1 from 23. June 2015

EAC extraction logfile from 5. November 2015, 17:09

Various / Ruckblick Moderne, CD 3

Used drive : MATSHITADVDRWBD UJ167 Adapter: 1 ID: 0

Read mode : Secure
Utilize accurate stream : Yes
Defeat audio cache : Yes
Make use of C2 pointers : No

Read offset correction : 103
Overread into Lead-In and Lead-Out : No
Fill up missing offset samples with silence : Yes
Delete leading and trailing silent blocks : No
Null samples used in CRC calculations : Yes
Used interface : Native Win32 interface for Win NT & 2000
Gap handling : Appended to previous track

Used output format : User Defined Encoder
Selected bitrate : 1024 kBit/s
Quality : High
Add ID3 tag : No
Command line compressor : C:Program Files (x86)Exact Audio CopyFLACFLAC.EXE
Additional command line options : -8 -V -T "ARTIST=%artist%" -T "TITLE=%title%" -T "ALBUM=%albumtitle%" -T "DATE=%year%" -T "TRACKNUMBER=%tracknr%" -T "GENRE=%genre%" -T "PERFORMER=%albuminterpret%" -T "COMPOSER=%composer%" %haslyrics%–tag-from-file=LYRICS="%lyricsfile%"%haslyrics% -T "ALBUMARTIST=%albumartist%" -T "DISCNUMBER=%cdnumber%" -T "TOTALDISCS=%totalcds%" -T "TOTALTRACKS=%numtracks%" -T "COMMENT=%comment%" %source% -o %dest%

TOC of the extracted CD

Track | Start | Length | Start sector | End sector
––––––––––––––––––––––––––––-
1 | 0:00.32 | 8:00.00 | 32 | 36031
2 | 8:00.32 | 9:20.00 | 36032 | 78031
3 | 17:20.32 | 16:25.00 | 78032 | 151906
4 | 33:45.32 | 7:12.53 | 151907 | 184359
5 | 40:58.10 | 7:27.40 | 184360 | 217924
6 | 48:25.50 | 7:21.10 | 217925 | 251009
7 | 55:46.60 | 8:52.27 | 251010 | 290936
8 | 64:39.12 | 4:46.45 | 290937 | 312431

Track 1

Filename C:WCD-Archive1 – Ravel – Une barque sur l’ocean.wav

Pre-gap length 0:00:02.42

Peak level 83.9 %
Extraction speed 2.9 X
Track quality 100.0 %
Test CRC 0260A43C
Copy CRC 0260A43C
Accurately ripped (confidence 2) [1E089E3C] (AR v2)
Copy OK

Track 2

Filename C:WCD-Archive2 – Furrer – Chiaroscuro.wav

Pre-gap length 0:00:12.66

Peak level 80.9 %
Extraction speed 3.4 X
Track quality 100.0 %
Test CRC E21C8267
Copy CRC E21C8267
Accurately ripped (confidence 2) [22153954] (AR v2)
Copy OK

Track 3

Filename C:WCD-Archive3 – Bruno Maderna – Concerto for Oboe and Orchestra no. 3.wav

Pre-gap length 0:00:12.66

Peak level 58.6 %
Extraction speed 3.9 X
Track quality 99.9 %
Test CRC CC167253
Copy CRC CC167253
Accurately ripped (confidence 2) [947E5A18] (AR v2)
Copy OK

Track 4

Filename C:WCD-Archive4 – Debussy – Images no. 1.wav

Pre-gap length 0:00:13.66

Peak level 73.9 %
Extraction speed 4.5 X
Track quality 100.0 %
Test CRC C3B36FCB
Copy CRC C3B36FCB
Accurately ripped (confidence 2) [A71DF1E2] (AR v2)
Copy OK

Track 5

Filename C:WCD-Archive5 – Debussy – Images no. 2.wav

Pre-gap length 0:00:01.37

Peak level 75.1 %
Extraction speed 4.0 X
Track quality 99.9 %
Test CRC 2D98E95F
Copy CRC 2D98E95F
Accurately ripped (confidence 2) [D31A281C] (AR v2)
Copy OK

Track 6

Filename C:WCD-Archive6 – Debussy – Images no. 3.wav

Pre-gap length 0:00:02.90

Peak level 76.1 %
Extraction speed 5.0 X
Track quality 100.0 %
Test CRC 3114FAB2
Copy CRC 3114FAB2
Accurately ripped (confidence 2) [4BBFDDC8] (AR v2)
Copy OK

Track 7

Filename C:WCD-Archive7 – Debussy – Images no. 4.wav

Pre-gap length 0:00:05.04

Peak level 41.8 %
Extraction speed 5.4 X
Track quality 100.0 %
Test CRC 5303DE3B
Copy CRC 5303DE3B
Accurately ripped (confidence 2) [D63D26F2] (AR v2)
Copy OK

Track 8

Filename C:WCD-Archive8 – Debussy – Images no. 5.wav

Peak level 96.1 %
Extraction speed 5.3 X
Track quality 100.0 %
Test CRC 23F16D1E
Copy CRC 23F16D1E
Accurately ripped (confidence 2) [856E359A] (AR v2)
Copy OK

All tracks accurately ripped

No errors occurred

End of status report

–– CUETools DB Plugin V2.1.6

[CTDB TOCID: Hed5j3CqIe1S28Y7Lqaw0UJvu38-] found
Submit result: Hed5j3CqIe1S28Y7Lqaw0UJvu38- has been confirmed
Track | CTDB Status
1 | (1/1) Accurately ripped
2 | (1/1) Accurately ripped
3 | (1/1) Accurately ripped
4 | (1/1) Accurately ripped
5 | (1/1) Accurately ripped
6 | (1/1) Accurately ripped
7 | (1/1) Accurately ripped
8 | (1/1) Accurately ripped

==== Log checksum 6437B76186362830176B07823C3975B900D140A1C6818681D0899E8D0818D1C6 ====

EAC log Disc 4
Exact Audio Copy V1.1 from 23. June 2015

EAC extraction logfile from 6. November 2015, 11:01

Various / Rückblick Moderne [CD 4]

Used drive : MATSHITADVDRWBD UJ167 Adapter: 1 ID: 0

Read mode : Secure
Utilize accurate stream : Yes
Defeat audio cache : Yes
Make use of C2 pointers : No

Read offset correction : 103
Overread into Lead-In and Lead-Out : No
Fill up missing offset samples with silence : Yes
Delete leading and trailing silent blocks : No
Null samples used in CRC calculations : Yes
Used interface : Native Win32 interface for Win NT & 2000
Gap handling : Appended to previous track

Used output format : User Defined Encoder
Selected bitrate : 1024 kBit/s
Quality : High
Add ID3 tag : No
Command line compressor : C:Program Files (x86)Exact Audio CopyFLACFLAC.EXE
Additional command line options : -8 -V -T "ARTIST=%artist%" -T "TITLE=%title%" -T "ALBUM=%albumtitle%" -T "DATE=%year%" -T "TRACKNUMBER=%tracknr%" -T "GENRE=%genre%" -T "PERFORMER=%albuminterpret%" -T "COMPOSER=%composer%" %haslyrics%–tag-from-file=LYRICS="%lyricsfile%"%haslyrics% -T "ALBUMARTIST=%albumartist%" -T "DISCNUMBER=%cdnumber%" -T "TOTALDISCS=%totalcds%" -T "TOTALTRACKS=%numtracks%" -T "COMMENT=%comment%" %source% -o %dest%

TOC of the extracted CD

Track | Start | Length | Start sector | End sector
––––––––––––––––––––––––––––-
1 | 0:00.32 | 3:17.53 | 32 | 14859
2 | 3:18.10 | 1:24.45 | 14860 | 21204
3 | 4:42.55 | 3:14.42 | 21205 | 35796
4 | 7:57.22 | 1:27.25 | 35797 | 42346
5 | 9:24.47 | 5:44.38 | 42347 | 68184
6 | 15:09.10 | 4:17.02 | 68185 | 87461
7 | 19:26.12 | 2:34.20 | 87462 | 99031
8 | 22:00.32 | 19:24.00 | 99032 | 186331
9 | 41:24.32 | 16:41.28 | 186332 | 261434
10 | 58:05.60 | 19:51.72 | 261435 | 350831

Track 1

Filename C:WCD-Archive1 – Messiaen – Chronochromie (1).wav

Pre-gap length 0:00:02.42

Peak level 96.8 %
Extraction speed 2.5 X
Track quality 100.0 %
Test CRC D2147CF8
Copy CRC D2147CF8
Accurately ripped (confidence 2) [D559FE0B] (AR v2)
Copy OK

Track 2

Filename C:WCD-Archive2 – Messiaen – Chronochromie (2).wav

Pre-gap length 0:00:07.37

Peak level 26.0 %
Extraction speed 2.2 X
Track quality 100.0 %
Test CRC 68BCA265
Copy CRC 68BCA265
Accurately ripped (confidence 2) [9692C018] (AR v2)
Copy OK

Track 3

Filename C:WCD-Archive3 – Messiaen – Chronochromie (3).wav

Pre-gap length 0:00:03.97

Peak level 69.5 %
Extraction speed 2.0 X
Track quality 99.9 %
Test CRC 253505B7
Copy CRC 253505B7
Accurately ripped (confidence 2) [1CA09A62] (AR v2)
Copy OK

Track 4

Filename C:WCD-Archive4 – Messiaen – Chronochromie (4).wav

Pre-gap length 0:00:06.53

Peak level 36.0 %
Extraction speed 2.3 X
Track quality 100.0 %
Test CRC 97640B38
Copy CRC 97640B38
Accurately ripped (confidence 2) [B8C3D75A] (AR v2)
Copy OK

Track 5

Filename C:WCD-Archive5 – Messiaen – Chronochromie (5).wav

Pre-gap length 0:00:08.86

Peak level 68.1 %
Extraction speed 3.3 X
Track quality 100.0 %
Test CRC BAAD7751
Copy CRC BAAD7751
Accurately ripped (confidence 2) [3AA77072] (AR v2)
Copy OK

Track 6

Filename C:WCD-Archive6 – Messiaen – Chronochromie (6).wav

Pre-gap length 0:00:11.37

Peak level 27.1 %
Extraction speed 3.4 X
Track quality 100.0 %
Test CRC 60C75007
Copy CRC 60C75007
Accurately ripped (confidence 2) [D145BE34] (AR v2)
Copy OK

Track 7

Filename C:WCD-Archive7 – Messiaen – Chronochromie (7).wav

Pre-gap length 0:00:08.40

Peak level 97.9 %
Extraction speed 3.3 X
Track quality 100.0 %
Test CRC 5719E3DE
Copy CRC 5719E3DE
Accurately ripped (confidence 2) [FE048AE2] (AR v2)
Copy OK

Track 8

Filename C:WCD-Archive8 – Lachenmann – Air.wav

Pre-gap length 0:00:13.66

Peak level 97.7 %
Extraction speed 4.1 X
Track quality 99.9 %
Test CRC 37B3303E
Copy CRC 37B3303E
Accurately ripped (confidence 2) [2E6C282F] (AR v2)
Copy OK

Track 9

Filename C:WCD-Archive9 – Stravinsky – Le Sacre du Printemps.wav

Pre-gap length 0:00:15.66

Peak level 96.3 %
Extraction speed 5.2 X
Track quality 100.0 %
Test CRC D1AEFDFA
Copy CRC D1AEFDFA
Accurately ripped (confidence 2) [6F0E9811] (AR v2)
Copy OK

Track 10

Filename C:WCD-Archive10 – Stravinsky – Le Sacre du Printemps (2).wav

Pre-gap length 0:00:11.04

Peak level 95.8 %
Extraction speed 5.8 X
Track quality 100.0 %
Test CRC 6969A77E
Copy CRC 6969A77E
Accurately ripped (confidence 2) [842018DF] (AR v2)
Copy OK

All tracks accurately ripped

No errors occurred

End of status report

–– CUETools DB Plugin V2.1.6

[CTDB TOCID: cYsMJ7SgrOWEzxWl6RyEeiGOkYg-] found
Submit result: cYsMJ7SgrOWEzxWl6RyEeiGOkYg- has been confirmed
Track | CTDB Status
1 | (1/1) Accurately ripped
2 | (1/1) Accurately ripped
3 | (1/1) Accurately ripped
4 | (1/1) Accurately ripped
5 | (1/1) Accurately ripped
6 | (1/1) Accurately ripped
7 | (1/1) Accurately ripped
8 | (1/1) Accurately ripped
9 | (1/1) Accurately ripped
10 | (1/1) Accurately ripped

==== Log checksum DBC075A8F2575B5B625B2A45E96F5370009432A7591C3821511E5BBF5076271F ====

EAC log Disc 5
Exact Audio Copy V1.1 from 23. June 2015

EAC extraction logfile from 6. November 2015, 19:55

Various / Rückblick Moderne [CD 5]

Used drive : MATSHITADVDRWBD UJ167 Adapter: 1 ID: 0

Read mode : Secure
Utilize accurate stream : Yes
Defeat audio cache : Yes
Make use of C2 pointers : No

Read offset correction : 103
Overread into Lead-In and Lead-Out : No
Fill up missing offset samples with silence : Yes
Delete leading and trailing silent blocks : No
Null samples used in CRC calculations : Yes
Used interface : Native Win32 interface for Win NT & 2000
Gap handling : Appended to previous track

Used output format : User Defined Encoder
Selected bitrate : 1024 kBit/s
Quality : High
Add ID3 tag : No
Command line compressor : C:Program Files (x86)Exact Audio CopyFLACFLAC.EXE
Additional command line options : -8 -V -T "ARTIST=%artist%" -T "TITLE=%title%" -T "ALBUM=%albumtitle%" -T "DATE=%year%" -T "TRACKNUMBER=%tracknr%" -T "GENRE=%genre%" -T "PERFORMER=%albuminterpret%" -T "COMPOSER=%composer%" %haslyrics%–tag-from-file=LYRICS="%lyricsfile%"%haslyrics% -T "ALBUMARTIST=%albumartist%" -T "DISCNUMBER=%cdnumber%" -T "TOTALDISCS=%totalcds%" -T "TOTALTRACKS=%numtracks%" -T "COMMENT=%comment%" %source% -o %dest%

TOC of the extracted CD

Track | Start | Length | Start sector | End sector
––––––––––––––––––––––––––––-
1 | 0:00.00 | 20:08.25 | 0 | 90624
2 | 20:08.25 | 7:12.08 | 90625 | 123032
3 | 27:20.33 | 10:00.13 | 123033 | 168045
4 | 37:20.46 | 8:34.55 | 168046 | 206650
5 | 45:55.26 | 30:06.35 | 206651 | 342135

Track 1

Filename C:WCD-Archive1 – Huber – Lamentationes de fine vicesimi saeculi.wav

Pre-gap length 0:00:02.00

Peak level 97.4 %
Extraction speed 3.3 X
Track quality 100.0 %
Test CRC CC2C58D6
Copy CRC CC2C58D6
Accurately ripped (confidence 2) [5274ED5A] (AR v2)
Copy OK

Track 2

Filename C:WCD-Archive2 – Kagel – Etudes – I.wav

Pre-gap length 0:00:13.85

Peak level 95.2 %
Extraction speed 3.9 X
Track quality 100.0 %
Test CRC 924B5714
Copy CRC 924B5714
Accurately ripped (confidence 2) [E97F66F5] (AR v2)
Copy OK

Track 3

Filename C:WCD-Archive3 – Kagel – Etudes – II.wav

Peak level 95.2 %
Extraction speed 4.4 X
Track quality 100.0 %
Test CRC D12BAB62
Copy CRC D12BAB62
Accurately ripped (confidence 2) [72383B12] (AR v2)
Copy OK

Track 4

Filename C:WCD-Archive4 – Kagel – Etudes – III.wav

Peak level 97.4 %
Extraction speed 4.7 X
Track quality 100.0 %
Test CRC 260CA16D
Copy CRC 260CA16D
Accurately ripped (confidence 2) [D649DE2D] (AR v2)
Copy OK

Track 5

Filename C:WCD-Archive5 – Nono – Como una ola de fuerza y luz.wav

Pre-gap length 0:00:16.57

Peak level 97.4 %
Extraction speed 5.6 X
Track quality 100.0 %
Test CRC 2AFFD055
Copy CRC 2AFFD055
Accurately ripped (confidence 2) [C4128E2C] (AR v2)
Copy OK

All tracks accurately ripped

No errors occurred

End of status report

–– CUETools DB Plugin V2.1.6

[CTDB TOCID: i7r4tM1zX1KcjhKHTK.GTmdDGnk-] found
Submit result: i7r4tM1zX1KcjhKHTK.GTmdDGnk- has been confirmed
Track | CTDB Status
1 | (3/3) Accurately ripped
2 | (3/3) Accurately ripped
3 | (3/3) Accurately ripped
4 | (3/3) Accurately ripped
5 | (3/3) Accurately ripped

==== Log checksum 31579F34BE02C57C71234013266B64A777BBCCD9359693DCDC9006CA5606374C ====

EAC log Disc 6
Exact Audio Copy V1.1 from 23. June 2015

EAC extraction logfile from 6. November 2015, 20:34

Various / Rückblick Moderne [CD 6]

Used drive : MATSHITADVDRWBD UJ167 Adapter: 1 ID: 0

Read mode : Secure
Utilize accurate stream : Yes
Defeat audio cache : Yes
Make use of C2 pointers : No

Read offset correction : 103
Overread into Lead-In and Lead-Out : No
Fill up missing offset samples with silence : Yes
Delete leading and trailing silent blocks : No
Null samples used in CRC calculations : Yes
Used interface : Native Win32 interface for Win NT & 2000
Gap handling : Appended to previous track

Used output format : User Defined Encoder
Selected bitrate : 1024 kBit/s
Quality : High
Add ID3 tag : No
Command line compressor : C:Program Files (x86)Exact Audio CopyFLACFLAC.EXE
Additional command line options : -8 -V -T "ARTIST=%artist%" -T "TITLE=%title%" -T "ALBUM=%albumtitle%" -T "DATE=%year%" -T "TRACKNUMBER=%tracknr%" -T "GENRE=%genre%" -T "PERFORMER=%albuminterpret%" -T "COMPOSER=%composer%" %haslyrics%–tag-from-file=LYRICS="%lyricsfile%"%haslyrics% -T "ALBUMARTIST=%albumartist%" -T "DISCNUMBER=%cdnumber%" -T "TOTALDISCS=%totalcds%" -T "TOTALTRACKS=%numtracks%" -T "COMMENT=%comment%" %source% -o %dest%

TOC of the extracted CD

Track | Start | Length | Start sector | End sector
––––––––––––––––––––––––––––-
1 | 0:00.32 | 3:18.25 | 32 | 14906
2 | 3:18.57 | 6:01.45 | 14907 | 42026
3 | 9:20.27 | 7:55.05 | 42027 | 77656
4 | 17:15.32 | 4:15.00 | 77657 | 96781
5 | 21:30.32 | 2:57.00 | 96782 | 110056
6 | 24:27.32 | 8:59.00 | 110057 | 150481
7 | 33:26.32 | 5:57.28 | 150482 | 177284
8 | 39:23.60 | 1:46.62 | 177285 | 185296
9 | 41:10.47 | 3:57.00 | 185297 | 203071
10 | 45:07.47 | 2:56.60 | 203072 | 216331
11 | 48:04.32 | 4:47.55 | 216332 | 237911
12 | 52:52.12 | 5:45.03 | 237912 | 263789
13 | 58:37.15 | 9:48.42 | 263790 | 307931

Track 1

Filename C:WCD-Archive1 – Carter, Elliott – Three Occasions for Orchestra- A celebration of some 100 x 150 notes(1986).wav

Pre-gap length 0:00:02.42

Peak level 86.4 %
Extraction speed 2.5 X
Track quality 100.0 %
Test CRC DC17FB97
Copy CRC DC17FB97
Accurately ripped (confidence 2) [2FDFF52C] (AR v2)
Copy OK

Track 2

Filename C:WCD-Archive2 – Carter, Elliott – – Rememberance(1988).wav

Pre-gap length 0:00:06.00

Peak level 94.7 %
Extraction speed 3.0 X
Track quality 100.0 %
Test CRC DDF097C1
Copy CRC DDF097C1
Accurately ripped (confidence 2) [9FDA5E38] (AR v2)
Copy OK

Track 3

Filename C:WCD-Archive3 – Carter, Elliott – – Anniversary(1989).wav

Pre-gap length 0:00:03.60

Peak level 87.9 %
Extraction speed 2.9 X
Track quality 99.9 %
Test CRC CAB310A1
Copy CRC CAB310A1
Accurately ripped (confidence 2) [A74A0267] (AR v2)
Copy OK

Track 4

Filename C:WCD-Archive4 – Holliger, Heinz – Drei Lieder nach Gedichten von Georg Trakl- Ein Winterabend(1993).wav

Pre-gap length 0:00:14.66

Peak level 98.0 %
Extraction speed 3.5 X
Track quality 100.0 %
Test CRC BDEC505D
Copy CRC BDEC505D
Accurately ripped (confidence 2) [EDEC2DD9] (AR v2)
Copy OK

Track 5

Filename C:WCD-Archive5 – Holliger, Heinz – – Rondel(1997).wav

Pre-gap length 0:00:03.66

Peak level 47.4 %
Extraction speed 3.5 X
Track quality 100.0 %
Test CRC EDAB6D4B
Copy CRC EDAB6D4B
Accurately ripped (confidence 2) [5B37152D] (AR v2)
Copy OK

Track 6

Filename C:WCD-Archive6 – Holliger, Heinz – – Nachtlied(1993).wav

Pre-gap length 0:00:05.66

Peak level 95.6 %
Extraction speed 4.2 X
Track quality 100.0 %
Test CRC 6DF7824A
Copy CRC 6DF7824A
Accurately ripped (confidence 2) [5653CB2D] (AR v2)
Copy OK

Track 7

Filename C:WCD-Archive7 – Schonberg, Arnold – Vier Lieder fur Gesang und Orchester op.22(1916)- Seraphita.wav

Pre-gap length 0:00:12.66

Peak level 87.3 %
Extraction speed 4.4 X
Track quality 100.0 %
Test CRC 821C56F1
Copy CRC 821C56F1
Accurately ripped (confidence 2) [A51C1E46] (AR v2)
Copy OK

Track 8

Filename C:WCD-Archive8 – Schonberg, Arnold – – Alle, welche dich suchen.wav

Pre-gap length 0:00:04.04

Peak level 17.7 %
Extraction speed 3.7 X
Track quality 100.0 %
Test CRC D1440CB2
Copy CRC D1440CB2
Accurately ripped (confidence 2) [F51147B6] (AR v2)
Copy OK

Track 9

Filename C:WCD-Archive9 – Schonberg, Arnold – – Nach mich zum Wachter deiner Weiten.wav

Pre-gap length 0:00:03.86

Peak level 69.5 %
Extraction speed 4.5 X
Track quality 100.0 %
Test CRC 57C77D8C
Copy CRC 57C77D8C
Accurately ripped (confidence 2) [413A1846] (AR v2)
Copy OK

Track 10

Filename C:WCD-Archive10 – Schonberg, Arnold – – Vorgefuhl.wav

Pre-gap length 0:00:04.86

Peak level 69.0 %
Extraction speed 4.4 X
Track quality 100.0 %
Test CRC F585B97B
Copy CRC F585B97B
Accurately ripped (confidence 2) [5334B636] (AR v2)
Copy OK

Track 11

Filename C:WCD-Archive11 – Berg, Alban – Drei Orchesterstucke op.6(1929)- Praludium.wav

Pre-gap length 0:00:15.66

Peak level 96.1 %
Extraction speed 4.8 X
Track quality 100.0 %
Test CRC CC708A24
Copy CRC CC708A24
Accurately ripped (confidence 2) [F483C3F0] (AR v2)
Copy OK

Track 12

Filename C:WCD-Archive12 – Berg, Alban – – Reigen.wav

Pre-gap length 0:00:03.40

Peak level 61.8 %
Extraction speed 5.1 X
Track quality 100.0 %
Test CRC AE705817
Copy CRC AE705817
Accurately ripped (confidence 2) [92716471] (AR v2)
Copy OK

Track 13

Filename C:WCD-Archive13 – Berg, Alban – – Marsch.wav

Pre-gap length 0:00:00.77

Peak level 96.4 %
Extraction speed 5.5 X
Track quality 100.0 %
Test CRC 7E03CD5B
Copy CRC 7E03CD5B
Accurately ripped (confidence 2) [378278F7] (AR v2)
Copy OK

All tracks accurately ripped

No errors occurred

End of status report

–– CUETools DB Plugin V2.1.6

[CTDB TOCID: 6tsKB4FHNRL3qQyGucn3sfO97rs-] found
Submit result: 6tsKB4FHNRL3qQyGucn3sfO97rs- has been confirmed
Track | CTDB Status
1 | (1/1) Accurately ripped
2 | (1/1) Accurately ripped
3 | (1/1) Accurately ripped
4 | (1/1) Accurately ripped
5 | (1/1) Accurately ripped
6 | (1/1) Accurately ripped
7 | (1/1) Accurately ripped
8 | (1/1) Accurately ripped
9 | (1/1) Accurately ripped
10 | (1/1) Accurately ripped
11 | (1/1) Accurately ripped
12 | (1/1) Accurately ripped
13 | (1/1) Accurately ripped

==== Log checksum A45925386DB54D77A58D1CD54F8C54023D365920685876074ACD2413C6DA41F7 ====

EAC log Disc 7
Exact Audio Copy V1.1 from 23. June 2015

EAC extraction logfile from 7. November 2015, 11:33

Various / Rückblick Moderne [CD 7]

Used drive : MATSHITADVDRWBD UJ167 Adapter: 1 ID: 0

Read mode : Secure
Utilize accurate stream : Yes
Defeat audio cache : Yes
Make use of C2 pointers : No

Read offset correction : 103
Overread into Lead-In and Lead-Out : No
Fill up missing offset samples with silence : Yes
Delete leading and trailing silent blocks : No
Null samples used in CRC calculations : Yes
Used interface : Native Win32 interface for Win NT & 2000
Gap handling : Appended to previous track

Used output format : User Defined Encoder
Selected bitrate : 1024 kBit/s
Quality : High
Add ID3 tag : No
Command line compressor : C:Program Files (x86)Exact Audio CopyFLACFLAC.EXE
Additional command line options : -8 -V -T "ARTIST=%artist%" -T "TITLE=%title%" -T "ALBUM=%albumtitle%" -T "DATE=%year%" -T "TRACKNUMBER=%tracknr%" -T "GENRE=%genre%" -T "PERFORMER=%albuminterpret%" -T "COMPOSER=%composer%" %haslyrics%–tag-from-file=LYRICS="%lyricsfile%"%haslyrics% -T "ALBUMARTIST=%albumartist%" -T "DISCNUMBER=%cdnumber%" -T "TOTALDISCS=%totalcds%" -T "TOTALTRACKS=%numtracks%" -T "COMMENT=%comment%" %source% -o %dest%

TOC of the extracted CD

Track | Start | Length | Start sector | End sector
––––––––––––––––––––––––––––-
1 | 0:00.00 | 8:42.25 | 0 | 39174
2 | 8:42.25 | 21:24.04 | 39175 | 135478
3 | 30:06.29 | 17:58.74 | 135479 | 216402
4 | 48:05.28 | 5:22.38 | 216403 | 240590
5 | 53:27.66 | 2:30.19 | 240591 | 251859
6 | 55:58.10 | 1:45.44 | 251860 | 259778
7 | 57:43.54 | 1:55.25 | 259779 | 268428
8 | 59:39.04 | 1:13.44 | 268429 | 273947
9 | 60:52.48 | 1:40.61 | 273948 | 281508
10 | 62:33.34 | 1:06.07 | 281509 | 286465
11 | 63:39.41 | 2:17.10 | 286466 | 296750
12 | 65:56.51 | 3:12.24 | 296751 | 311174
13 | 69:09.00 | 2:23.22 | 311175 | 321921
14 | 71:32.22 | 1:02.60 | 321922 | 326631
15 | 72:35.07 | 1:39.14 | 326632 | 334070
16 | 74:14.21 | 4:31.18 | 334071 | 354413

Track 1

Filename C:WCD-Archive1 – Zender, Hans – Kalligraphie I.wav

Pre-gap length 0:00:02.00

Peak level 57.8 %
Extraction speed 2.9 X
Track quality 100.0 %
Test CRC D45ADB24
Copy CRC D45ADB24
Accurately ripped (confidence 2) [BAEEBECB] (AR v2)
Copy OK

Track 2

Filename C:WCD-Archive2 – Rihm, Wolfgang – In-Schrift.wav

Pre-gap length 0:00:12.20

Peak level 77.4 %
Extraction speed 3.9 X
Track quality 100.0 %
Test CRC D81797CB
Copy CRC D81797CB
Accurately ripped (confidence 2) [25A8D976] (AR v2)
Copy OK

Track 3

Filename C:WCD-Archive3 – Hartmann, Karl Amadeus – Adagio (Sinfonie Nr. 2).wav

Pre-gap length 0:00:12.05

Peak level 97.3 %
Extraction speed 4.4 X
Track quality 99.9 %
Test CRC 4CC7AC95
Copy CRC 4CC7AC95
Accurately ripped (confidence 2) [320AA342] (AR v2)
Copy OK

Track 4

Filename C:WCD-Archive4 – Zimmermann, Bernd Alois – Musique pour les soupers du Roi Ubu – Entree.wav

Pre-gap length 0:00:14.53

Peak level 95.8 %
Extraction speed 4.8 X
Track quality 100.0 %
Test CRC 0EF6C855
Copy CRC 0EF6C855
Accurately ripped (confidence 2) [CEE97F47] (AR v2)
Copy OK

Track 5

Filename C:WCD-Archive5 – Zimmermann, Bernd Alois – Musique pour les soupers du Roi Ubu – Couplet 1.wav

Peak level 20.6 %
Extraction speed 4.4 X
Track quality 100.0 %
Test CRC EC8E7AA2
Copy CRC EC8E7AA2
Accurately ripped (confidence 2) [57E5C072] (AR v2)
Copy OK

Track 6

Filename C:WCD-Archive6 – Zimmermann, Bernd Alois – Musique pour les soupers du Roi Ubu – Mere Ubu et ses gardes.wav

Peak level 46.9 %
Extraction speed 2.4 X
Track quality 99.8 %
Test CRC FBB73836
Copy CRC FBB73836
Accurately ripped (confidence 2) [0E9D6B72] (AR v2)
Copy OK

Track 7

Filename C:WCD-Archive7 – Zimmermann, Bernd Alois – Musique pour les soupers du Roi Ubu – Couplet 2.wav

Peak level 24.2 %
Extraction speed 4.2 X
Track quality 100.0 %
Test CRC E147F0AF
Copy CRC E147F0AF
Accurately ripped (confidence 2) [EEE7CB9D] (AR v2)
Copy OK

Track 8

Filename C:WCD-Archive8 – Zimmermann, Bernd Alois – Musique pour les soupers du Roi Ubu – Pille, Cotice et l ours.wav

Peak level 31.1 %
Extraction speed 3.8 X
Track quality 100.0 %
Test CRC 6E278A7C
Copy CRC 6E278A7C
Accurately ripped (confidence 2) [B391EDAD] (AR v2)
Copy OK

Track 9

Filename C:WCD-Archive9 – Zimmermann, Bernd Alois – Musique pour les soupers du Roi Ubu – Couplet 3.wav

Peak level 21.7 %
Extraction speed 4.2 X
Track quality 100.0 %
Test CRC F28CCA67
Copy CRC F28CCA67
Accurately ripped (confidence 2) [1F09AFA7] (AR v2)
Copy OK

Track 10

Filename C:WCD-Archive10 – Zimmermann, Bernd Alois – Musique pour les soupers du Roi Ubu – Le Cheval.wav

Peak level 58.2 %
Extraction speed 1.9 X
Track quality 99.8 %
Test CRC F0C0AE28
Copy CRC F0C0AE28
Accurately ripped (confidence 2) [5363DCC8] (AR v2)
Copy OK

Track 11

Filename C:WCD-Archive11 – Zimmermann, Bernd Alois – Musique pour les soupers du Roi Ubu – Couplet 4.wav

Peak level 23.2 %
Extraction speed 2.9 X
Track quality 99.9 %
Test CRC 99C41EB0
Copy CRC 99C41EB0
Accurately ripped (confidence 2) [5E1AD2B0] (AR v2)
Copy OK

Track 12

Filename C:WCD-Archive12 – Zimmermann, Bernd Alois – Musique pour les soupers du Roi Ubu – Pavane.wav

Peak level 73.0 %
Extraction speed 5.0 X
Track quality 100.0 %
Test CRC D8E20328
Copy CRC D8E20328
Accurately ripped (confidence 2) [D2CBF1D0] (AR v2)
Copy OK

Track 13

Filename C:WCD-Archive13 – Zimmermann, Bernd Alois – Musique pour les soupers du Roi Ubu – Couplet 5.wav

Peak level 21.6 %
Extraction speed 4.8 X
Track quality 100.0 %
Test CRC D69F132F
Copy CRC D69F132F
Accurately ripped (confidence 2) [4902B542] (AR v2)
Copy OK

Track 14

Filename C:WCD-Archive14 – Zimmermann, Bernd Alois – Musique pour les soupers du Roi Ubu – Berceuse des petit.wav

Peak level 34.2 %
Extraction speed 3.8 X
Track quality 100.0 %
Test CRC 56532512
Copy CRC 56532512
Accurately ripped (confidence 2) [91220615] (AR v2)
Copy OK

Track 15

Filename C:WCD-Archive15 – Zimmermann, Bernd Alois – Musique pour les soupers du Roi Ubu – Couplet 6.wav

Peak level 21.1 %
Extraction speed 4.5 X
Track quality 100.0 %
Test CRC 8DE57705
Copy CRC 8DE57705
Accurately ripped (confidence 2) [6A79EA96] (AR v2)
Copy OK

Track 16

Filename C:WCD-Archive16 – Zimmermann, Bernd Alois – Musique pour les soupers du Roi Ubu – Marche du decervellage.wav

Peak level 99.3 %
Extraction speed 4.1 X
Track quality 99.9 %
Test CRC A0CC4128
Copy CRC A0CC4128
Accurately ripped (confidence 2) [58F1CEBC] (AR v2)
Copy OK

All tracks accurately ripped

No errors occurred

End of status report

–– CUETools DB Plugin V2.1.6

[CTDB TOCID: BVsaN5v7CY_MHS_y551chq9HtH8-] found
Submit result: BVsaN5v7CY_MHS_y551chq9HtH8- has been confirmed
Track | CTDB Status
1 | (3/3) Accurately ripped
2 | (3/3) Accurately ripped
3 | (3/3) Accurately ripped
4 | (3/3) Accurately ripped
5 | (3/3) Accurately ripped
6 | (3/3) Accurately ripped
7 | (3/3) Accurately ripped
8 | (3/3) Accurately ripped
9 | (3/3) Accurately ripped
10 | (3/3) Accurately ripped
11 | (3/3) Accurately ripped
12 | (3/3) Accurately ripped
13 | (3/3) Accurately ripped
14 | (3/3) Accurately ripped
15 | (3/3) Accurately ripped
16 | (3/3) Accurately ripped

==== Log checksum AB67DCAAD3B0BDFC01343320000D19ECC98B62D4A0E17F29A5C9F41D0CA75603 ====

EAC log Disc 8
Exact Audio Copy V1.1 from 23. June 2015

EAC extraction logfile from 7. November 2015, 12:10

Various / Rückblick Moderne [CD 8]

Used drive : MATSHITADVDRWBD UJ167 Adapter: 1 ID: 0

Read mode : Secure
Utilize accurate stream : Yes
Defeat audio cache : Yes
Make use of C2 pointers : No

Read offset correction : 103
Overread into Lead-In and Lead-Out : No
Fill up missing offset samples with silence : Yes
Delete leading and trailing silent blocks : No
Null samples used in CRC calculations : Yes
Used interface : Native Win32 interface for Win NT & 2000
Gap handling : Appended to previous track

Used output format : User Defined Encoder
Selected bitrate : 1024 kBit/s
Quality : High
Add ID3 tag : No
Command line compressor : C:Program Files (x86)Exact Audio CopyFLACFLAC.EXE
Additional command line options : -8 -V -T "ARTIST=%artist%" -T "TITLE=%title%" -T "ALBUM=%albumtitle%" -T "DATE=%year%" -T "TRACKNUMBER=%tracknr%" -T "GENRE=%genre%" -T "PERFORMER=%albuminterpret%" -T "COMPOSER=%composer%" %haslyrics%–tag-from-file=LYRICS="%lyricsfile%"%haslyrics% -T "ALBUMARTIST=%albumartist%" -T "DISCNUMBER=%cdnumber%" -T "TOTALDISCS=%totalcds%" -T "TOTALTRACKS=%numtracks%" -T "COMMENT=%comment%" %source% -o %dest%

TOC of the extracted CD

Track | Start | Length | Start sector | End sector
––––––––––––––––––––––––––––-
1 | 0:00.00 | 16:31.13 | 0 | 74337
2 | 16:31.13 | 13:25.62 | 74338 | 134774
3 | 29:57.00 | 8:16.00 | 134775 | 171974
4 | 38:13.00 | 6:30.05 | 171975 | 201229
5 | 44:43.05 | 3:31.58 | 201230 | 217112
6 | 48:14.63 | 4:36.50 | 217113 | 237862
7 | 52:51.38 | 4:44.27 | 237863 | 259189
8 | 57:35.65 | 5:02.35 | 259190 | 281874

Track 1

Filename C:WCD-Archive1 – Schnittke – Trio-Sonate (1).wav

Pre-gap length 0:00:02.00

Peak level 76.6 %
Extraction speed 3.1 X
Track quality 100.0 %
Test CRC 1746D2A2
Copy CRC 1746D2A2
Accurately ripped (confidence 6) [35BB6A93] (AR v1)
Copy OK

Track 2

Filename C:WCD-Archive2 – Schnittke – Trio-Sonate (2).wav

Pre-gap length 0:00:07.00

Peak level 49.3 %
Extraction speed 3.9 X
Track quality 100.0 %
Test CRC A6FECDB2
Copy CRC A6FECDB2
Accurately ripped (confidence 6) [500CFC6A] (AR v1)
Copy OK

Track 3

Filename C:WCD-Archive3 – Ligeti – Ramifications.wav

Pre-gap length 0:00:12.00

Peak level 51.8 %
Extraction speed 3.7 X
Track quality 99.9 %
Test CRC B8B40C56
Copy CRC B8B40C56
Accurately ripped (confidence 5) [DDFFF9A0] (AR v1)
Copy OK

Track 4

Filename C:WCD-Archive4 – Shostakovich – Chamber Symphony op. 110a (1).wav

Pre-gap length 0:00:09.00

Peak level 23.5 %
Extraction speed 3.7 X
Track quality 99.9 %
Test CRC FC449941
Copy CRC FC449941
Accurately ripped (confidence 6) [1ABEA2C9] (AR v1)
Copy OK

Track 5

Filename C:WCD-Archive5 – Shostakovich – Chamber Symphony op. 110a (2).wav

Peak level 67.0 %
Extraction speed 4.4 X
Track quality 100.0 %
Test CRC 5E07284A
Copy CRC 5E07284A
Accurately ripped (confidence 6) [B1BB6174] (AR v1)
Copy OK

Track 6

Filename C:WCD-Archive6 – Shostakovich – Chamber Symphony op. 110a (3).wav

Peak level 50.5 %
Extraction speed 4.7 X
Track quality 100.0 %
Test CRC E6B19050
Copy CRC E6B19050
Accurately ripped (confidence 6) [833A5F1E] (AR v1)
Copy OK

Track 7

Filename C:WCD-Archive7 – Shostakovich – Chamber Symphony op. 110a (4).wav

Peak level 71.3 %
Extraction speed 4.9 X
Track quality 100.0 %
Test CRC BC0130BF
Copy CRC BC0130BF
Accurately ripped (confidence 5) [759D76F9] (AR v1)
Copy OK

Track 8

Filename C:WCD-Archive8 – Shostakovich – Chamber Symphony op. 110a (5).wav

Peak level 29.0 %
Extraction speed 3.9 X
Track quality 99.9 %
Test CRC 9738CB5E
Copy CRC 9738CB5E
Accurately ripped (confidence 5) [8E593E2D] (AR v1)
Copy OK

All tracks accurately ripped

No errors occurred

End of status report

–– CUETools DB Plugin V2.1.6

[CTDB TOCID: KAzh8NMczBOzHzZYCgjpwyTw3yE-] found
Submit result: KAzh8NMczBOzHzZYCgjpwyTw3yE- has been confirmed
Track | CTDB Status
1 | (2/2) Accurately ripped
2 | (2/2) Accurately ripped
3 | (2/2) Accurately ripped
4 | (2/2) Accurately ripped
5 | (2/2) Accurately ripped
6 | (2/2) Accurately ripped
7 | (2/2) Accurately ripped
8 | (2/2) Accurately ripped

==== Log checksum D8352F9949EE9BF87360B44761D8DC5B3CFC1CFBF40CF6ED56E80910E6B2CC45 ====

VA – Rückblick Moderne – Orchestermusik Im 20. Jahrhundert (1999) (8CD Box Set) Download, Warez, DDL, Free, Full Album, Torrent, Legal.

Download