VA – Rock 'N' Roll Britannia (2016) {3CD Box Set}

Download
VA - Rock 'N' Roll Britannia (2016) {3CD Box Set}

VA – Rock ‘N’ Roll Britannia (2016) {3CD Box Set}
EAC Rip | FLAC (Img) + Cue + Log ~ 621 Mb | MP3 CBR320 ~ 452 Mb
Scans Included (JPG, 600 dpi) | RAR 5% Recovery
Beat, Rock & Roll, Pop | My Generation Music #MGM011

75 numbers from in the main the late 50’s… Many featured tracks were hits sung by many well-known artists from that time like Billy Fury, Adam Faith, Marty Wilde, Alma Cogan and Cliff Richard… This box set is a great addition to any CD collection.If you wanted to add a rock n roll genre to your collection, wanted a decent compilation for your car or needed a collection of rock and roll classics for a party, then you cant go wrong with this set.

Discogs

***************

VA - Rock 'N' Roll Britannia (2016) {3CD Box Set}

Track List CD1:

01. Cliff Richard – Twenty Flight Rock [1:47]
02. Marty Wilde – Sea Of Love [2:26]
03. Adam Faith – High School Confidential [2:23]
04. Duffy Power – Dream Lover [2:24]
05. Emile Ford & The Checkmates – What Do You Want To Make Those Eyes At Me For [2:06]
06. Billy Fury – Margo [2:35]
07. Tommy Steele – Tallahassie Lassie [2:04]
08. Don Lang – Cloudburst [2:41]
09. Neville Taylor & The Cutters – Crazy Little Daisy [2:00]
10. Craig Douglas – Nothin’ Shakin’ [2:32]
11. Wee Willie Harris – Rockin’ At The 2 I’s [2:36]
12. Ken Mackintosh – Raunchy [2:19]
13. Janice Peters – This Little Girl’s Gone Rockin’ [1:48]
14. The Five Chesternuts – Teenage Love [2:21]
15. The Drifters – Feelin’ Fine [1:57]
16. Do & Dena Farrell – Young Magic [2:18]
17. Terry Wayne – She’s Mine [2:01]
18. Dean Webb – Hey Miss Fannie [2:10]
19. Billy Fury – Gonna Type A Letter [2:36]
20. Marty Wilde – Endless Sleep [2:21]
21. John Barry Seven – You’ve Gotta Way [2:00]
22. Emile Ford & The Checkmates – Don’t Tell Me Your Troubles [2:14]
23. Cliff Richard – Living Doll [2:40]
24. Johnny Kidd & The Pirates – Feelin’ [1:59]
25. Adam Faith – What Do You Want [1:37]

EAC Log
Exact Audio Copy V1.3 from 2. September 2016

EAC extraction logfile from 23. July 2017, 13:13

Various Artists / Rock ‘N’ Roll Britannia CD1

Used drive : ATAPI iHAS122 C Adapter: 1 ID: 0

Read mode : Secure
Utilize accurate stream : Yes
Defeat audio cache : Yes
Make use of C2 pointers : No

Read offset correction : 6
Overread into Lead-In and Lead-Out : No
Fill up missing offset samples with silence : Yes
Delete leading and trailing silent blocks : No
Null samples used in CRC calculations : Yes
Used interface : Native Win32 interface for Win NT & 2000

Used output format : Internal WAV Routines
Sample format : 44.100 Hz; 16 Bit; Stereo

TOC of the extracted CD

Track | Start | Length | Start sector | End sector
––––––––––––––––––––––––––––-
1 | 0:00.00 | 1:46.38 | 0 | 7987
2 | 1:46.38 | 2:25.57 | 7988 | 18919
3 | 4:12.20 | 2:23.35 | 18920 | 29679
4 | 6:35.55 | 2:23.49 | 29680 | 40453
5 | 8:59.29 | 2:06.37 | 40454 | 49940
6 | 11:05.66 | 2:35.18 | 49941 | 61583
7 | 13:41.09 | 2:03.42 | 61584 | 70850
8 | 15:44.51 | 2:40.70 | 70851 | 82920
9 | 18:25.46 | 2:00.01 | 82921 | 91921
10 | 20:25.47 | 2:31.42 | 91922 | 103288
11 | 22:57.14 | 2:36.05 | 103289 | 114993
12 | 25:33.19 | 2:19.02 | 114994 | 125420
13 | 27:52.21 | 1:47.64 | 125421 | 133509
14 | 29:40.10 | 2:21.23 | 133510 | 144107
15 | 32:01.33 | 1:57.29 | 144108 | 152911
16 | 33:58.62 | 2:18.16 | 152912 | 163277
17 | 36:17.03 | 2:01.00 | 163278 | 172352
18 | 38:18.03 | 2:10.33 | 172353 | 182135
19 | 40:28.36 | 2:35.42 | 182136 | 193802
20 | 43:04.03 | 2:20.52 | 193803 | 204354
21 | 45:24.55 | 2:00.20 | 204355 | 213374
22 | 47:25.00 | 2:13.57 | 213375 | 223406
23 | 49:38.57 | 2:39.56 | 223407 | 235387
24 | 52:18.38 | 1:58.51 | 235388 | 244288
25 | 54:17.14 | 1:36.40 | 244289 | 251528

Range status and errors

Selected range

Filename C:UsersLondonDesktopVarious Artists – Rock ‘N’ Roll Britannia CD1.wav

Peak level 93.4 %
Extraction speed 3.3 X
Range quality 100.0 %
Test CRC 2A479EBB
Copy CRC 2A479EBB
Copy OK

No errors occurred

AccurateRip summary

Track 1 not present in database
Track 2 not present in database
Track 3 not present in database
Track 4 not present in database
Track 5 not present in database
Track 6 not present in database
Track 7 not present in database
Track 8 not present in database
Track 9 not present in database
Track 10 not present in database
Track 11 not present in database
Track 12 not present in database
Track 13 not present in database
Track 14 not present in database
Track 15 not present in database
Track 16 not present in database
Track 17 not present in database
Track 18 not present in database
Track 19 not present in database
Track 20 not present in database
Track 21 not present in database
Track 22 not present in database
Track 23 not present in database
Track 24 not present in database
Track 25 not present in database

None of the tracks are present in the AccurateRip database

End of status report

–– CUETools DB Plugin V2.1.6

[CTDB TOCID: SnZh8lR0Q9yBK8HkTQ8fv54Wgys-] found
Submit result: already submitted
Track | CTDB Status
1 | (1/1) Accurately ripped
2 | (1/1) Accurately ripped
3 | (1/1) Accurately ripped
4 | (1/1) Accurately ripped
5 | (1/1) Accurately ripped
6 | (1/1) Accurately ripped
7 | (1/1) Accurately ripped
8 | (1/1) Accurately ripped
9 | (1/1) Accurately ripped
10 | (1/1) Accurately ripped
11 | (1/1) Accurately ripped
12 | (1/1) Accurately ripped
13 | (1/1) Accurately ripped
14 | (1/1) Accurately ripped
15 | (1/1) Accurately ripped
16 | (1/1) Accurately ripped
17 | (1/1) Accurately ripped
18 | (1/1) Accurately ripped
19 | (1/1) Accurately ripped
20 | (1/1) Accurately ripped
21 | (1/1) Accurately ripped
22 | (1/1) Accurately ripped
23 | (1/1) Accurately ripped
24 | (1/1) Accurately ripped
25 | (1/1) Accurately ripped

==== Log checksum B7D049B9B6686D23C610F1CCD11BC43E8D209185C6BEB27DF340A60A70CE43D9 ====

VA - Rock 'N' Roll Britannia (2016) {3CD Box Set}

Track List CD2:

01. Cliff Richard – Move It [2:24]
02. Johnny Kidd & The Pirates – Please Don’t Touch [1:52]
03. Marty Wilde – A Teenager In Love [2:22]
04. Billy Fury – Maybe Tomorrow [2:12]
05. Terry Dene – Pretty Little Pearly [1:50]
06. Tommy Steele – Come On Let’s Go [1:59]
07. Dickie Pride – Slippin’ And Slidin’ [2:18]
08. Craig Douglas – Only Sixteen [2:14]
09. The Mudlarks – Book Of Love [2:11]
10. Vince Eager – No More [2:10]
11. Larry Page – Cool Shake [2:23]
12. Terry Wayne – Slim Jim Tie [2:00]
13. Janice Peters – A Girl Likes [1:59]
14. Vince Taylor – Brand New Cadillac [2:38]
15. Cliff Richard – Dynamite [1:57]
16. Adam Faith – Ah Poor Little Baby [2:07]
17. Bill Forbes – Once More [2:15]
18. Bert Weedon – Big Beat Boogie [1:57]
19. Tommy Sampson & His Strongmen – Rockin’ [2:31]
20. The Tunettes – Whole Lotta Shakin’ Going On [2:48]
21. Terry Dene – A White Sports Coat [2:27]
22. Dickie Pride – Frantic [1:56]
23. Tommy Steele – Rock With The Caveman [1:56]
24. Jim Dale – Be My Girl [2:02]
25. Vince Eager – This Should Go On Forever [2:49]

EAC Log
Exact Audio Copy V1.3 from 2. September 2016

EAC extraction logfile from 23. July 2017, 13:27

Various Artists / Rock ‘N’ Roll Britannia CD2

Used drive : ATAPI iHAS122 C Adapter: 1 ID: 0

Read mode : Secure
Utilize accurate stream : Yes
Defeat audio cache : Yes
Make use of C2 pointers : No

Read offset correction : 6
Overread into Lead-In and Lead-Out : No
Fill up missing offset samples with silence : Yes
Delete leading and trailing silent blocks : No
Null samples used in CRC calculations : Yes
Used interface : Native Win32 interface for Win NT & 2000

Used output format : Internal WAV Routines
Sample format : 44.100 Hz; 16 Bit; Stereo

TOC of the extracted CD

Track | Start | Length | Start sector | End sector
––––––––––––––––––––––––––––-
1 | 0:00.00 | 2:23.39 | 0 | 10763
2 | 2:23.39 | 1:52.25 | 10764 | 19188
3 | 4:15.64 | 2:21.69 | 19189 | 29832
4 | 6:37.58 | 2:12.34 | 29833 | 39766
5 | 8:50.17 | 1:50.14 | 39767 | 48030
6 | 10:40.31 | 1:58.62 | 48031 | 56942
7 | 12:39.18 | 2:18.24 | 56943 | 67316
8 | 14:57.42 | 2:14.36 | 67317 | 77402
9 | 17:12.03 | 2:10.61 | 77403 | 87213
10 | 19:22.64 | 2:10.17 | 87214 | 96980
11 | 21:33.06 | 2:22.68 | 96981 | 107698
12 | 23:55.74 | 1:59.43 | 107699 | 116666
13 | 25:55.42 | 1:59.27 | 116667 | 125618
14 | 27:54.69 | 2:37.58 | 125619 | 137451
15 | 30:32.52 | 1:57.08 | 137452 | 146234
16 | 32:29.60 | 2:07.32 | 146235 | 155791
17 | 34:37.17 | 2:14.42 | 155792 | 165883
18 | 36:51.59 | 1:56.64 | 165884 | 174647
19 | 38:48.48 | 2:31.33 | 174648 | 186005
20 | 41:20.06 | 2:47.74 | 186006 | 198604
21 | 44:08.05 | 2:27.28 | 198605 | 209657
22 | 46:35.33 | 1:56.11 | 209658 | 218368
23 | 48:31.44 | 1:56.12 | 218369 | 227080
24 | 50:27.56 | 2:02.28 | 227081 | 236258
25 | 52:30.09 | 2:49.37 | 236259 | 248970

Range status and errors

Selected range

Filename C:UsersLondonDesktopVarious Artists – Rock ‘N’ Roll Britannia CD2.wav

Peak level 97.4 %
Extraction speed 8.6 X
Range quality 100.0 %
Test CRC EB55B898
Copy CRC EB55B898
Copy OK

No errors occurred

AccurateRip summary

Track 1 not present in database
Track 2 not present in database
Track 3 not present in database
Track 4 not present in database
Track 5 not present in database
Track 6 not present in database
Track 7 not present in database
Track 8 not present in database
Track 9 not present in database
Track 10 not present in database
Track 11 not present in database
Track 12 not present in database
Track 13 not present in database
Track 14 not present in database
Track 15 not present in database
Track 16 not present in database
Track 17 not present in database
Track 18 not present in database
Track 19 not present in database
Track 20 not present in database
Track 21 not present in database
Track 22 not present in database
Track 23 not present in database
Track 24 not present in database
Track 25 not present in database

None of the tracks are present in the AccurateRip database

End of status report

–– CUETools DB Plugin V2.1.6

[CTDB TOCID: AwPHV19ANS6nsm_paI.VZTnEeWk-] found
Submit result: already submitted
Track | CTDB Status
1 | (1/1) Accurately ripped
2 | (1/1) Accurately ripped
3 | (1/1) Accurately ripped
4 | (1/1) Accurately ripped
5 | (1/1) Accurately ripped
6 | (1/1) Accurately ripped
7 | (1/1) Accurately ripped
8 | (1/1) Accurately ripped
9 | (1/1) Accurately ripped
10 | (1/1) Accurately ripped
11 | (1/1) Accurately ripped
12 | (1/1) Accurately ripped
13 | (1/1) Accurately ripped
14 | (1/1) Accurately ripped
15 | (1/1) Accurately ripped
16 | (1/1) Accurately ripped
17 | (1/1) Accurately ripped
18 | (1/1) Accurately ripped
19 | (1/1) Accurately ripped
20 | (1/1) Accurately ripped
21 | (1/1) Accurately ripped
22 | (1/1) Accurately ripped
23 | (1/1) Accurately ripped
24 | (1/1) Accurately ripped
25 | (1/1) Accurately ripped

==== Log checksum 906E102953816D4315DEBB60B62492CC14162D79FC12B3FEF72F07721579EAA6 ====

VA - Rock 'N' Roll Britannia (2016) {3CD Box Set}

Track List CD3:

01. Don Lang & His Frantic Five – Six-Five Special [2:26]
02. Cliff Richard – Blue Suede Shoes [1:47]
03. Adam Faith – Runk Bunk [1:55]
04. Marty Wilde – Bad Boy [2:26]
05. Bill Kent – The Prettiest Girl In School [2:34]
06. Tommy Steele – Give Give Give [1:56]
07. Terry Wayne – Matchbox [1:51]
08. John Barry Seven – Rockabilly Boogie [1:46]
09. Ricky James – Knee Deep In The Blues [1:59]
10. Ken Mackintosh – Mojo [2:27]
11. The Vipers – No Other Baby [2:34]
12. David Ross – I’m Walkin’ [2:05]
13. Vince Taylor & The Playboys – Right Behind You Baby [2:12]
14. The Most Brothers – Whole Lotta Woman [2:31]
15. The Sleepwalkers – Sleepwalk [2:17]
16. Johnnie The Gash Gray & Ken Jones – Tequila [2:12]
17. Alma Cogan – Getting Ready For Freddy [2:06]
18. Vince Eager – Five Days, Five Days [2:19]
19. Jack Parnell – Kansas City [2:16]
20. Johnny Kidd & The Pirates – If You Were The Only Girl In The World [2:38]
21. Terry White – Blackout [2:00]
22. Don Lang – See You Friday [2:19]
23. Eddie Hickey – Lady May [2:14]
24. Roy Young – Big Fat Mama [2:17]
25. Cliff Richard – Livin’ Lovin’ Doll [2:09]

EAC Log
Exact Audio Copy V1.3 from 2. September 2016

EAC extraction logfile from 23. July 2017, 13:40

Various Artists / Rock ‘N’ Roll Britannia CD3

Used drive : ATAPI iHAS122 C Adapter: 1 ID: 0

Read mode : Secure
Utilize accurate stream : Yes
Defeat audio cache : Yes
Make use of C2 pointers : No

Read offset correction : 6
Overread into Lead-In and Lead-Out : No
Fill up missing offset samples with silence : Yes
Delete leading and trailing silent blocks : No
Null samples used in CRC calculations : Yes
Used interface : Native Win32 interface for Win NT & 2000

Used output format : Internal WAV Routines
Sample format : 44.100 Hz; 16 Bit; Stereo

TOC of the extracted CD

Track | Start | Length | Start sector | End sector
––––––––––––––––––––––––––––-
1 | 0:00.00 | 2:25.39 | 0 | 10913
2 | 2:25.39 | 1:47.25 | 10914 | 18963
3 | 4:12.64 | 1:55.00 | 18964 | 27588
4 | 6:07.64 | 2:26.18 | 27589 | 38556
5 | 8:34.07 | 2:34.24 | 38557 | 50130
6 | 11:08.31 | 1:56.07 | 50131 | 58837
7 | 13:04.38 | 1:51.22 | 58838 | 67184
8 | 14:55.60 | 1:45.43 | 67185 | 75102
9 | 16:41.28 | 1:59.22 | 75103 | 84049
10 | 18:40.50 | 2:27.21 | 84050 | 95095
11 | 21:07.71 | 2:33.65 | 95096 | 106635
12 | 23:41.61 | 2:04.38 | 106636 | 115973
13 | 25:46.24 | 2:11.64 | 115974 | 125862
14 | 27:58.13 | 2:31.11 | 125863 | 137198
15 | 30:29.24 | 2:16.51 | 137199 | 147449
16 | 32:46.00 | 2:12.29 | 147450 | 157378
17 | 34:58.29 | 2:06.24 | 157379 | 166852
18 | 37:04.53 | 2:18.46 | 166853 | 177248
19 | 39:23.24 | 2:16.05 | 177249 | 187453
20 | 41:39.29 | 2:38.08 | 187454 | 199311
21 | 44:17.37 | 1:59.70 | 199312 | 208306
22 | 46:17.32 | 2:18.46 | 208307 | 218702
23 | 48:36.03 | 2:14.35 | 218703 | 228787
24 | 50:50.38 | 2:17.00 | 228788 | 239062
25 | 53:07.38 | 2:08.71 | 239063 | 248733

Range status and errors

Selected range

Filename C:UsersLondonDesktopVarious Artists – Rock ‘N’ Roll Britannia CD3.wav

Peak level 83.8 %
Extraction speed 8.6 X
Range quality 100.0 %
Test CRC 56B80782
Copy CRC 56B80782
Copy OK

No errors occurred

AccurateRip summary

Track 1 not present in database
Track 2 not present in database
Track 3 not present in database
Track 4 not present in database
Track 5 not present in database
Track 6 not present in database
Track 7 not present in database
Track 8 not present in database
Track 9 not present in database
Track 10 not present in database
Track 11 not present in database
Track 12 not present in database
Track 13 not present in database
Track 14 not present in database
Track 15 not present in database
Track 16 not present in database
Track 17 not present in database
Track 18 not present in database
Track 19 not present in database
Track 20 not present in database
Track 21 not present in database
Track 22 not present in database
Track 23 not present in database
Track 24 not present in database
Track 25 not present in database

None of the tracks are present in the AccurateRip database

End of status report

–– CUETools DB Plugin V2.1.6

[CTDB TOCID: UnTSdtv.7fi0YDyRolIlxoQ6Dek-] found
Submit result: already submitted
Track | CTDB Status
1 | (1/1) Accurately ripped
2 | (1/1) Accurately ripped
3 | (1/1) Accurately ripped
4 | (1/1) Accurately ripped
5 | (1/1) Accurately ripped
6 | (1/1) Accurately ripped
7 | (1/1) Accurately ripped
8 | (1/1) Accurately ripped
9 | (1/1) Accurately ripped
10 | (1/1) Accurately ripped
11 | (1/1) Accurately ripped
12 | (1/1) Accurately ripped
13 | (1/1) Accurately ripped
14 | (1/1) Accurately ripped
15 | (1/1) Accurately ripped
16 | (1/1) Accurately ripped
17 | (1/1) Accurately ripped
18 | (1/1) Accurately ripped
19 | (1/1) Accurately ripped
20 | (1/1) Accurately ripped
21 | (1/1) Accurately ripped
22 | (1/1) Accurately ripped
23 | (1/1) Accurately ripped
24 | (1/1) Accurately ripped
25 | (1/1) Accurately ripped

==== Log checksum 39FEDA3D9726F2A03C565E1AB00A847BBE22ACD458073D77FD4CB67C72F03469 ====

VA - Rock 'N' Roll Britannia (2016) {3CD Box Set}

All thanks go to London

>>> My Blog <<<

Download from icerbox.com:

VA – Rock 'N' Roll Britannia (2016) {3CD Box Set} Download, Warez, DDL, Free, Full Album, Torrent, Legal.

Download