VA – Rock 'N' Roll America (2016) {3CD Box Set}

Download
VA - Rock 'N' Roll America (2016) {3CD Box Set}

VA – Rock ‘N’ Roll America (2016) {3CD Box Set}
EAC Rip | FLAC (Img) + Cue + Log ~ 634 Mb | MP3 CBR320 ~ 444 Mb
Scans (JPG, 600 dpi) ~ 18 Mb | RAR 5% Recovery
Rock & Roll, Pop | My Generation Music #MGM012

75 tracks… Many featured tracks were hits sung by many well-known artists from that time like Bill Haley & His Comets, Chuck Berry, Jerry Lee Lewis, The Isley Brothers, Little Richard, Howlin’ Wolf, Ray Charles, Roy Orbison, Paul Anka and Elvis Presley … This box set is a great addition to any CD collection.If you wanted to add a rock n roll genre to your collection, wanted a decent compilation for your car or needed a collection of rock and roll classics for a party, then you cant go wrong with this set.

***************

VA - Rock 'N' Roll America (2016) {3CD Box Set}

Track List CD1:

01. Bill Haley & His Comets – Rock Around The Clock [2:12]
02. Chuck Berry – Roll Over Beethoven [2:25]
03. Danny & The Juniors – At The Hop [2:32]
04. Gene Vincent – Be Bop A Lula [2:36]
05. Jerry Lee Lewis – Great Balls Of Fire [1:53]
06. Lloyd Price – Stagger Lee [2:21]
07. Ritchie Valens – La Bamba [2:08]
08. The Isley Brothers – Shout [2:19]
09. Barrett Strong – Money [2:36]
10. Guy Mitchell – Singing The Blues [2:28]
11. The Champs – Tequila [2:12]
12. The Chords – Sh-Boom [2:26]
13. Maurice Williams & The Zodiacs – Stay [1:38]
14. Dale Hawkins – Susie Q [2:20]
15. Eddie Cochran – Summertime Blues [1:58]
16. Little Richard – Good Golly Miss Molly [2:11]
17. The Coasters – Yakety Yak [1:51]
18. Fats Domino – Blueberry Hill [2:21]
19. Howlin’ Wolf – Spoonful [2:42]
20. Sam Cooke – Wonderful World [2:07]
21. Frankie Avalon – Venus [2:23]
22. Bo Diddley – I’m A Man [3:01]
23. Screamin’ Jay Hawkins – I Put A Spell On You [2:27]
24. Frankie Lymon & The Teenagers – Why Do Fools Fall In Love? [2:19]
25. The Drifters – Save The Last Dance For Me [2:29]

EAC Log
Exact Audio Copy V1.3 from 2. September 2016

EAC extraction logfile from 30. July 2017, 7:44

Various Artists / Rock ‘N’ Roll America CD1

Used drive : ATAPI iHAS122 C Adapter: 1 ID: 0

Read mode : Secure
Utilize accurate stream : Yes
Defeat audio cache : Yes
Make use of C2 pointers : No

Read offset correction : 6
Overread into Lead-In and Lead-Out : No
Fill up missing offset samples with silence : Yes
Delete leading and trailing silent blocks : No
Null samples used in CRC calculations : Yes
Used interface : Native Win32 interface for Win NT & 2000

Used output format : Internal WAV Routines
Sample format : 44.100 Hz; 16 Bit; Stereo

TOC of the extracted CD

Track | Start | Length | Start sector | End sector
––––––––––––––––––––––––––––-
1 | 0:00.00 | 2:11.65 | 0 | 9889
2 | 2:11.65 | 2:24.69 | 9890 | 20758
3 | 4:36.59 | 2:32.16 | 20759 | 32174
4 | 7:09.00 | 2:36.14 | 32175 | 43888
5 | 9:45.14 | 1:52.63 | 43889 | 52351
6 | 11:38.02 | 2:21.22 | 52352 | 62948
7 | 13:59.24 | 2:07.74 | 62949 | 72547
8 | 16:07.23 | 2:19.36 | 72548 | 83008
9 | 18:26.59 | 2:35.66 | 83009 | 94699
10 | 21:02.50 | 2:27.61 | 94700 | 105785
11 | 23:30.36 | 2:12.33 | 105786 | 115718
12 | 25:42.69 | 2:25.68 | 115719 | 126661
13 | 28:08.62 | 1:38.29 | 126662 | 134040
14 | 29:47.16 | 2:20.25 | 134041 | 144565
15 | 32:07.41 | 1:57.47 | 144566 | 153387
16 | 34:05.13 | 2:11.15 | 153388 | 163227
17 | 36:16.28 | 1:50.74 | 163228 | 171551
18 | 38:07.27 | 2:20.73 | 171552 | 182124
19 | 40:28.25 | 2:42.16 | 182125 | 194290
20 | 43:10.41 | 2:07.07 | 194291 | 203822
21 | 45:17.48 | 2:23.09 | 203823 | 214556
22 | 47:40.57 | 3:01.12 | 214557 | 228143
23 | 50:41.69 | 2:27.18 | 228144 | 239186
24 | 53:09.12 | 2:19.09 | 239187 | 249620
25 | 55:28.21 | 2:29.25 | 249621 | 260820

Range status and errors

Selected range

Filename C:UsersLondonDesktopVarious Artists – Rock ‘N’ Roll America CD1.wav

Peak level 100.0 %
Extraction speed 8.7 X
Range quality 100.0 %
Test CRC 396737F9
Copy CRC 396737F9
Copy OK

No errors occurred

AccurateRip summary

Track 1 not present in database
Track 2 not present in database
Track 3 not present in database
Track 4 not present in database
Track 5 not present in database
Track 6 not present in database
Track 7 not present in database
Track 8 not present in database
Track 9 not present in database
Track 10 not present in database
Track 11 not present in database
Track 12 not present in database
Track 13 not present in database
Track 14 not present in database
Track 15 not present in database
Track 16 not present in database
Track 17 not present in database
Track 18 not present in database
Track 19 not present in database
Track 20 not present in database
Track 21 not present in database
Track 22 not present in database
Track 23 not present in database
Track 24 not present in database
Track 25 not present in database

None of the tracks are present in the AccurateRip database

End of status report

–– CUETools DB Plugin V2.1.6

[CTDB TOCID: ML18Zw5eHPoxYiP1baeTQ6uQ5.E-] disk not present in database
Submit result: ML18Zw5eHPoxYiP1baeTQ6uQ5.E- has been uploaded

==== Log checksum 0F636238F2F9C5CC025AD69D16AF72993CA5077B65E097A13D1D391870B024DB ====

DR Log
foobar2000 1.2.6 / Dynamic Range Meter 1.1.1
log date: 2017-07-30 16:56:13

––––––––––––––––––––––––––––––––––––––––
Analyzed: Bill Haley & His Comets / Rock ‘N’ Roll America CD1 (1)
Bo Diddley / Rock ‘N’ Roll America CD1 (2)
––––––––––––––––––––––––––––––––––––––––

DR Peak RMS Duration Track
––––––––––––––––––––––––––––––––––––––––
DR8 -2.60 dB -11.64 dB 2:12 01-Rock Around The Clock
DR10 -2.05 dB -13.54 dB 3:01 22-I’m A Man
––––––––––––––––––––––––––––––––––––––––

Number of tracks: 2
Official DR value: DR9

Samplerate: 44100 Hz
Channels: 2
Bits per sample: 16
Bitrate: 471 kbps
Codec: FLAC
================================================================================

––––––––––––––––––––––––––––––––––––––––
Analyzed: Chuck Berry / Rock ‘N’ Roll America CD1 (1)
Dale Hawkins / Rock ‘N’ Roll America CD1 (2)
––––––––––––––––––––––––––––––––––––––––

DR Peak RMS Duration Track
––––––––––––––––––––––––––––––––––––––––
DR8 -0.48 dB -9.85 dB 2:25 02-Roll Over Beethoven
DR10 -2.29 dB -14.46 dB 2:20 14-Susie Q
––––––––––––––––––––––––––––––––––––––––

Number of tracks: 2
Official DR value: DR9

Samplerate: 44100 Hz
Channels: 2
Bits per sample: 16
Bitrate: 471 kbps
Codec: FLAC
================================================================================

––––––––––––––––––––––––––––––––––––––––
Analyzed: Danny & The Juniors / Rock ‘N’ Roll America CD1 (1)
Eddie Cochran / Rock ‘N’ Roll America CD1 (2)
Fats Domino / Rock ‘N’ Roll America CD1 (3)
Frankie Avalon / Rock ‘N’ Roll America CD1 (4)
Frankie Lymon & The Teenagers / Rock ‘N’ Roll America CD1 (5)
––––––––––––––––––––––––––––––––––––––––

DR Peak RMS Duration Track
––––––––––––––––––––––––––––––––––––––––
DR12 -1.47 dB -14.37 dB 2:32 03-At The Hop
DR12 -1.91 dB -15.48 dB 1:58 15-Summertime Blues
DR13 -1.45 dB -15.92 dB 2:21 18-Blueberry Hill
DR10 -1.38 dB -13.61 dB 2:23 21-Venus
DR11 -1.77 dB -15.09 dB 2:19 24-Why Do Fools Fall In Love?
––––––––––––––––––––––––––––––––––––––––

Number of tracks: 5
Official DR value: DR12

Samplerate: 44100 Hz
Channels: 2
Bits per sample: 16
Bitrate: 471 kbps
Codec: FLAC
================================================================================

––––––––––––––––––––––––––––––––––––––––
Analyzed: Gene Vincent / Rock ‘N’ Roll America CD1 (1)
Guy Mitchell / Rock ‘N’ Roll America CD1 (2)
Howlin’ Wolf / Rock ‘N’ Roll America CD1 (3)
––––––––––––––––––––––––––––––––––––––––

DR Peak RMS Duration Track
––––––––––––––––––––––––––––––––––––––––
DR12 -0.78 dB -14.30 dB 2:36 04-Be Bop A Lula
DR12 -1.29 dB -14.44 dB 2:28 10-Singing The Blues
DR10 -2.88 dB -14.27 dB 2:42 19-Spoonful
––––––––––––––––––––––––––––––––––––––––

Number of tracks: 3
Official DR value: DR11

Samplerate: 44100 Hz
Channels: 2
Bits per sample: 16
Bitrate: 471 kbps
Codec: FLAC
================================================================================

––––––––––––––––––––––––––––––––––––––––
Analyzed: Jerry Lee Lewis / Rock ‘N’ Roll America CD1 (1)
Little Richard / Rock ‘N’ Roll America CD1 (2)
––––––––––––––––––––––––––––––––––––––––

DR Peak RMS Duration Track
––––––––––––––––––––––––––––––––––––––––
DR11 -1.55 dB -14.09 dB 1:53 05-Great Balls Of Fire
DR11 -2.02 dB -13.97 dB 2:11 16-Good Golly Miss Molly
––––––––––––––––––––––––––––––––––––––––

Number of tracks: 2
Official DR value: DR11

Samplerate: 44100 Hz
Channels: 2
Bits per sample: 16
Bitrate: 471 kbps
Codec: FLAC
================================================================================

––––––––––––––––––––––––––––––––––––––––
Analyzed: Lloyd Price / Rock ‘N’ Roll America CD1 (1)
Maurice Williams & The Zodiacs / Rock ‘N’ Roll America CD1 (2)
––––––––––––––––––––––––––––––––––––––––

DR Peak RMS Duration Track
––––––––––––––––––––––––––––––––––––––––
DR11 -0.74 dB -13.87 dB 2:21 06-Stagger Lee
DR12 -1.26 dB -15.35 dB 1:38 13-Stay
––––––––––––––––––––––––––––––––––––––––

Number of tracks: 2
Official DR value: DR12

Samplerate: 44100 Hz
Channels: 2
Bits per sample: 16
Bitrate: 471 kbps
Codec: FLAC
================================================================================

––––––––––––––––––––––––––––––––––––––––
Analyzed: Ritchie Valens / Rock ‘N’ Roll America CD1 (1)
Sam Cooke / Rock ‘N’ Roll America CD1 (2)
Screamin’ Jay Hawkins / Rock ‘N’ Roll America CD1 (3)
––––––––––––––––––––––––––––––––––––––––

DR Peak RMS Duration Track
––––––––––––––––––––––––––––––––––––––––
DR7 -2.09 dB -11.04 dB 2:08 07-La Bamba
DR11 0.00 dB -12.13 dB 2:07 20-Wonderful World
DR9 -2.21 dB -13.29 dB 2:27 23-I Put A Spell On You
––––––––––––––––––––––––––––––––––––––––

Number of tracks: 3
Official DR value: DR9

Samplerate: 44100 Hz
Channels: 2
Bits per sample: 16
Bitrate: 471 kbps
Codec: FLAC
================================================================================

––––––––––––––––––––––––––––––––––––––––
Analyzed: The Champs / Rock ‘N’ Roll America CD1 (1)
The Chords / Rock ‘N’ Roll America CD1 (2)
The Coasters / Rock ‘N’ Roll America CD1 (3)
The Drifters / Rock ‘N’ Roll America CD1 (4)
––––––––––––––––––––––––––––––––––––––––

DR Peak RMS Duration Track
––––––––––––––––––––––––––––––––––––––––
DR12 -1.31 dB -14.87 dB 2:12 11-Tequila
DR12 -1.37 dB -14.87 dB 2:26 12-Sh-Boom
DR12 -1.61 dB -14.99 dB 1:51 17-Yakety Yak
DR12 -1.50 dB -15.88 dB 2:29 25-Save The Last Dance For Me
––––––––––––––––––––––––––––––––––––––––

Number of tracks: 4
Official DR value: DR12

Samplerate: 44100 Hz
Channels: 2
Bits per sample: 16
Bitrate: 471 kbps
Codec: FLAC
================================================================================

––––––––––––––––––––––––––––––––––––––––
Statistics for: 08-Shout
Number of samples: 6151068
Duration: 2:19
––––––––––––––––––––––––––––––––––––––––

Left Right

Peak Value: -1.35 dB –- -1.35 dB
Avg RMS: -12.41 dB –- -12.41 dB
DR channel: 9.62 dB –- 9.62 dB
––––––––––––––––––––––––––––––––––––––––

Official DR Value: DR10

Samplerate: 44100 Hz
Channels: 2
Bits per sample: 16
Bitrate: 471 kbps
Codec: FLAC
================================================================================

CUETools Log
[CUETools log; Date: 30.07.2017 16:56:22; Version: 2.1.5]
[CTDB TOCID: ML18Zw5eHPoxYiP1baeTQ6uQ5.E-] found.
Track | CTDB Status
1 | (1/1) Accurately ripped
2 | (1/1) Accurately ripped
3 | (1/1) Accurately ripped
4 | (1/1) Accurately ripped
5 | (1/1) Accurately ripped
6 | (1/1) Accurately ripped
7 | (1/1) Accurately ripped
8 | (1/1) Accurately ripped
9 | (1/1) Accurately ripped
10 | (1/1) Accurately ripped
11 | (1/1) Accurately ripped
12 | (1/1) Accurately ripped
13 | (1/1) Accurately ripped
14 | (1/1) Accurately ripped
15 | (1/1) Accurately ripped
16 | (1/1) Accurately ripped
17 | (1/1) Accurately ripped
18 | (1/1) Accurately ripped
19 | (1/1) Accurately ripped
20 | (1/1) Accurately ripped
21 | (1/1) Accurately ripped
22 | (1/1) Accurately ripped
23 | (1/1) Accurately ripped
24 | (1/1) Accurately ripped
25 | (1/1) Accurately ripped
[AccurateRip ID: 00334426-039946d6-630d9519] disk not present in database.

Track Peak [ CRC32 ] [W/O NULL] [ LOG ]
– 100,0 [396737F9] [851DAAB8] CRC32
01 74,1 [B4AC584C] [8DB723F3]
02 94,6 [9DE6589E] [70C65FA7]
03 84,4 [F3B08A77] [C3ECC786]
04 91,3 [F7222525] [33C3F075]
05 83,6 [8B4CBD93] [2749F2B9]
06 91,8 [D21D99C2] [4F41DA55]
07 78,6 [FBB1346E] [50AB4463]
08 85,6 [E12791C9] [470DFCFF]
09 83,9 [B84E3AC8] [2DD73347]
10 86,2 [71838406] [4A73E261]
11 85,9 [0184D286] [8411B9E0]
12 85,4 [0740ABC0] [3F04808A]
13 86,5 [8CD95685] [D34A48D2]
14 76,7 [7DBA800E] [7949CBB8]
15 80,2 [15B26791] [D9718FBF]
16 79,2 [4FB7270B] [09A03E52]
17 83,0 [689F4F7E] [4506514D]
18 84,6 [47AC3D61] [6A3257FC]
19 71,8 [C4288E23] [838A2E4A]
20 100,0 [27C5C7D8] [E9B83A53]
21 85,3 [D314CA6D] [E62DC9E0]
22 78,9 [CD6128A8] [03FE4EA5]
23 77,5 [8BBD6499] [9384A2BB]
24 81,5 [A18B995B] [5C3A5FAC]
25 84,1 [39C577DA] [842CE5C3]

VA - Rock 'N' Roll America (2016) {3CD Box Set}

Track List CD2:

01. Dion – Runaround Sue [2:42]
02. Elvis Presley – Jailhouse Rock [2:29]
03. Ray Charles – What’d I Say [3:11]
04. Carl Perkins – Blue Suede Shoes [2:18]
05. Buddy Knox – Party Doll [2:16]
06. The Chordettes – Mr Sandman [2:25]
07. Ben E. King – Stand By Me [3:00]
08. The Shirelles – Will You Still Love Me Tomorrow [2:43]
09. The Teddy Bears – To Know Him Is To Love Him [2:21]
10. Big Bopper – Chantilly Lace [2:25]
11. Bobby Day – Rockin’ Robin [2:36]
12. Frankie Ford – Sea Cruise [2:47]
13. Conway Twitty – It’s Only Make Believe [2:14]
14. The Capris – There’s A Moon Out Tonight [2:14]
15. Elmore James – Dust My Broom [2:55]
16. Pat Boone – Love Letters In The Sand [2:15]
17. The Platters – The Great Pretender [2:40]
18. The Crickets – That’ll Be The Day [2:17]
19. The Dells – Oh What A Night [2:54]
20. The Five Satins – In The Still Of The Night [3:05]
21. Buddy Holly – Peggy Sue [2:31]
22. Johnny Preston – Running Bear [2:39]
23. James Brown – Please, Please, Please [2:47]
24. The Chips – Rubber Biscuit [2:08]
25. Lavern Baker – Jim Dandy [2:14]

EAC Log
Exact Audio Copy V1.3 from 2. September 2016

EAC extraction logfile from 30. July 2017, 7:59

Various Artists / Rock ‘N’ Roll America CD2

Used drive : ATAPI iHAS122 C Adapter: 1 ID: 0

Read mode : Secure
Utilize accurate stream : Yes
Defeat audio cache : Yes
Make use of C2 pointers : No

Read offset correction : 6
Overread into Lead-In and Lead-Out : No
Fill up missing offset samples with silence : Yes
Delete leading and trailing silent blocks : No
Null samples used in CRC calculations : Yes
Used interface : Native Win32 interface for Win NT & 2000

Used output format : Internal WAV Routines
Sample format : 44.100 Hz; 16 Bit; Stereo

TOC of the extracted CD

Track | Start | Length | Start sector | End sector
––––––––––––––––––––––––––––-
1 | 0:00.00 | 2:42.23 | 0 | 12172
2 | 2:42.23 | 2:28.55 | 12173 | 23327
3 | 5:11.03 | 3:11.17 | 23328 | 37669
4 | 8:22.20 | 2:17.44 | 37670 | 47988
5 | 10:39.64 | 2:15.41 | 47989 | 58154
6 | 12:55.30 | 2:25.09 | 58155 | 69038
7 | 15:20.39 | 3:00.03 | 69039 | 82541
8 | 18:20.42 | 2:42.58 | 82542 | 94749
9 | 21:03.25 | 2:21.02 | 94750 | 105326
10 | 23:24.27 | 2:25.28 | 105327 | 116229
11 | 25:49.55 | 2:36.13 | 116230 | 127942
12 | 28:25.68 | 2:46.51 | 127943 | 140443
13 | 31:12.44 | 2:13.55 | 140444 | 150473
14 | 33:26.24 | 2:13.41 | 150474 | 160489
15 | 35:39.65 | 2:54.38 | 160490 | 173577
16 | 38:34.28 | 2:15.28 | 173578 | 183730
17 | 40:49.56 | 2:39.66 | 183731 | 195721
18 | 43:29.47 | 2:17.24 | 195722 | 206020
19 | 45:46.71 | 2:53.47 | 206021 | 219042
20 | 48:40.43 | 3:04.41 | 219043 | 232883
21 | 51:45.09 | 2:31.13 | 232884 | 244221
22 | 54:16.22 | 2:38.50 | 244222 | 256121
23 | 56:54.72 | 2:46.49 | 256122 | 268620
24 | 59:41.46 | 2:08.35 | 268621 | 278255
25 | 61:50.06 | 2:14.03 | 278256 | 288308

Range status and errors

Selected range

Filename C:UsersLondonDesktopVarious Artists – Rock ‘N’ Roll America CD2.wav

Peak level 99.5 %
Extraction speed 8.9 X
Range quality 100.0 %
Test CRC ACC5B2FF
Copy CRC ACC5B2FF
Copy OK

No errors occurred

AccurateRip summary

Track 1 not present in database
Track 2 not present in database
Track 3 not present in database
Track 4 not present in database
Track 5 not present in database
Track 6 not present in database
Track 7 not present in database
Track 8 not present in database
Track 9 not present in database
Track 10 not present in database
Track 11 not present in database
Track 12 not present in database
Track 13 not present in database
Track 14 not present in database
Track 15 not present in database
Track 16 not present in database
Track 17 not present in database
Track 18 not present in database
Track 19 not present in database
Track 20 not present in database
Track 21 not present in database
Track 22 not present in database
Track 23 not present in database
Track 24 not present in database
Track 25 not present in database

None of the tracks are present in the AccurateRip database

End of status report

–– CUETools DB Plugin V2.1.6

[CTDB TOCID: GNfxiC39RvkSawtkTcmnD4pcn.s-] disk not present in database
Submit result: GNfxiC39RvkSawtkTcmnD4pcn.s- has been uploaded

==== Log checksum 16399E987F61C3B88F5109CD7F5306E0019A1B8BC04F78B0D7456BE91FA27C37 ====

DR Log
foobar2000 1.2.6 / Dynamic Range Meter 1.1.1
log date: 2017-07-30 16:57:09

––––––––––––––––––––––––––––––––––––––––
Analyzed: Ben E. King / Rock ‘N’ Roll America CD2 (1)
Big Bopper / Rock ‘N’ Roll America CD2 (2)
Bobby Day / Rock ‘N’ Roll America CD2 (3)
Buddy Holly / Rock ‘N’ Roll America CD2 (4)
––––––––––––––––––––––––––––––––––––––––

DR Peak RMS Duration Track
––––––––––––––––––––––––––––––––––––––––
DR13 -0.89 dB -16.30 dB 3:00 07-Stand By Me
DR9 -1.26 dB -11.72 dB 2:25 10-Chantilly Lace
DR10 -2.88 dB -14.52 dB 2:36 11-Rockin’ Robin
DR12 -2.08 dB -15.56 dB 2:31 21-Peggy Sue
––––––––––––––––––––––––––––––––––––––––

Number of tracks: 4
Official DR value: DR11

Samplerate: 44100 Hz
Channels: 2
Bits per sample: 16
Bitrate: 454 kbps
Codec: FLAC
================================================================================

––––––––––––––––––––––––––––––––––––––––
Statistics for: 05-Party Doll
Number of samples: 5977608
Duration: 2:16
––––––––––––––––––––––––––––––––––––––––

Left Right

Peak Value: -0.97 dB –- -0.97 dB
Avg RMS: -14.74 dB –- -14.74 dB
DR channel: 11.86 dB –- 11.86 dB
––––––––––––––––––––––––––––––––––––––––

Official DR Value: DR12

Samplerate: 44100 Hz
Channels: 2
Bits per sample: 16
Bitrate: 454 kbps
Codec: FLAC
================================================================================
––––––––––––––––––––––––––––––––––––––––
Analyzed: Carl Perkins / Rock ‘N’ Roll America CD2 (1)
Conway Twitty / Rock ‘N’ Roll America CD2 (2)
––––––––––––––––––––––––––––––––––––––––

DR Peak RMS Duration Track
––––––––––––––––––––––––––––––––––––––––
DR10 -2.11 dB -13.58 dB 2:18 04-Blue Suede Shoes
DR10 -1.55 dB -13.51 dB 2:14 13-It’s Only Make Believe
––––––––––––––––––––––––––––––––––––––––

Number of tracks: 2
Official DR value: DR10

Samplerate: 44100 Hz
Channels: 2
Bits per sample: 16
Bitrate: 454 kbps
Codec: FLAC
================================================================================

––––––––––––––––––––––––––––––––––––––––
Analyzed: Dion / Rock ‘N’ Roll America CD2 (1)
Elmore James / Rock ‘N’ Roll America CD2 (2)
––––––––––––––––––––––––––––––––––––––––

DR Peak RMS Duration Track
––––––––––––––––––––––––––––––––––––––––
DR13 -1.23 dB -17.21 dB 2:42 01-Runaround Sue
DR13 -1.63 dB -16.28 dB 2:55 15-Dust My Broom
––––––––––––––––––––––––––––––––––––––––

Number of tracks: 2
Official DR value: DR13

Samplerate: 44100 Hz
Channels: 2
Bits per sample: 16
Bitrate: 454 kbps
Codec: FLAC
================================================================================

––––––––––––––––––––––––––––––––––––––––
Analyzed: Elvis Presley / Rock ‘N’ Roll America CD2 (1)
Frankie Ford / Rock ‘N’ Roll America CD2 (2)
James Brown / Rock ‘N’ Roll America CD2 (3)
––––––––––––––––––––––––––––––––––––––––

DR Peak RMS Duration Track
––––––––––––––––––––––––––––––––––––––––
DR11 -0.93 dB -14.45 dB 2:29 02-Jailhouse Rock
DR10 -1.86 dB -13.30 dB 2:47 12-Sea Cruise
DR11 -2.27 dB -14.48 dB 2:47 23-Please, Please, Please
––––––––––––––––––––––––––––––––––––––––

Number of tracks: 3
Official DR value: DR11

Samplerate: 44100 Hz
Channels: 2
Bits per sample: 16
Bitrate: 454 kbps
Codec: FLAC
================================================================================

––––––––––––––––––––––––––––––––––––––––
Analyzed: Johnny Preston / Rock ‘N’ Roll America CD2 (1)
Lavern Baker / Rock ‘N’ Roll America CD2 (2)
––––––––––––––––––––––––––––––––––––––––

DR Peak RMS Duration Track
––––––––––––––––––––––––––––––––––––––––
DR10 -1.15 dB -13.40 dB 2:39 22-Running Bear
DR11 -1.81 dB -15.25 dB 2:14 25-Jim Dandy
––––––––––––––––––––––––––––––––––––––––

Number of tracks: 2
Official DR value: DR11

Samplerate: 44100 Hz
Channels: 2
Bits per sample: 16
Bitrate: 454 kbps
Codec: FLAC
================================================================================

––––––––––––––––––––––––––––––––––––––––
Statistics for: 16-Love Letters In The Sand
Number of samples: 5969964
Duration: 2:15
––––––––––––––––––––––––––––––––––––––––

Left Right

Peak Value: -2.30 dB –- -2.30 dB
Avg RMS: -13.98 dB –- -13.98 dB
DR channel: 9.62 dB –- 9.62 dB
––––––––––––––––––––––––––––––––––––––––

Official DR Value: DR10

Samplerate: 44100 Hz
Channels: 2
Bits per sample: 16
Bitrate: 454 kbps
Codec: FLAC
================================================================================
––––––––––––––––––––––––––––––––––––––––
Analyzed: Ray Charles / Rock ‘N’ Roll America CD2 (1)
The Capris / Rock ‘N’ Roll America CD2 (2)
The Chips / Rock ‘N’ Roll America CD2 (3)
––––––––––––––––––––––––––––––––––––––––

DR Peak RMS Duration Track
––––––––––––––––––––––––––––––––––––––––
DR11 -1.87 dB -15.33 dB 3:11 03-What’d I Say
DR12 -1.72 dB -15.16 dB 2:14 14-There’s A Moon Out Tonight
DR13 -0.04 dB -14.73 dB 2:08 24-Rubber Biscuit
––––––––––––––––––––––––––––––––––––––––

Number of tracks: 3
Official DR value: DR12

Samplerate: 44100 Hz
Channels: 2
Bits per sample: 16
Bitrate: 454 kbps
Codec: FLAC
================================================================================

––––––––––––––––––––––––––––––––––––––––
Analyzed: The Chordettes / Rock ‘N’ Roll America CD2 (1)
The Crickets / Rock ‘N’ Roll America CD2 (2)
The Dells / Rock ‘N’ Roll America CD2 (3)
The Five Satins / Rock ‘N’ Roll America CD2 (4)
––––––––––––––––––––––––––––––––––––––––

DR Peak RMS Duration Track
––––––––––––––––––––––––––––––––––––––––
DR11 -1.22 dB -14.87 dB 2:25 06-Mr Sandman
DR9 -1.90 dB -12.04 dB 2:17 18-That’ll Be The Day
DR11 -0.99 dB -14.35 dB 2:54 19-Oh What A Night
DR11 -1.60 dB -15.06 dB 3:05 20-In The Still Of The Night
––––––––––––––––––––––––––––––––––––––––

Number of tracks: 4
Official DR value: DR10

Samplerate: 44100 Hz
Channels: 2
Bits per sample: 16
Bitrate: 454 kbps
Codec: FLAC
================================================================================

––––––––––––––––––––––––––––––––––––––––
Statistics for: 17-The Great Pretender
Number of samples: 7050708
Duration: 2:40
––––––––––––––––––––––––––––––––––––––––

Left Right

Peak Value: -2.43 dB –- -2.43 dB
Avg RMS: -11.67 dB –- -11.67 dB
DR channel: 8.01 dB –- 8.01 dB
––––––––––––––––––––––––––––––––––––––––

Official DR Value: DR8

Samplerate: 44100 Hz
Channels: 2
Bits per sample: 16
Bitrate: 454 kbps
Codec: FLAC
================================================================================
––––––––––––––––––––––––––––––––––––––––
Analyzed: The Shirelles / Rock ‘N’ Roll America CD2 (1)
The Teddy Bears / Rock ‘N’ Roll America CD2 (2)
––––––––––––––––––––––––––––––––––––––––

DR Peak RMS Duration Track
––––––––––––––––––––––––––––––––––––––––
DR11 -2.17 dB -14.72 dB 2:43 08-Will You Still Love Me Tomorrow
DR10 -0.92 dB -14.29 dB 2:21 09-To Know Him Is To Love Him
––––––––––––––––––––––––––––––––––––––––

Number of tracks: 2
Official DR value: DR10

Samplerate: 44100 Hz
Channels: 2
Bits per sample: 16
Bitrate: 454 kbps
Codec: FLAC
================================================================================

CUETools Log
[CUETools log; Date: 30.07.2017 16:57:06; Version: 2.1.5]
[CTDB TOCID: GNfxiC39RvkSawtkTcmnD4pcn.s-] found.
Track | CTDB Status
1 | (1/1) Accurately ripped
2 | (1/1) Accurately ripped
3 | (1/1) Accurately ripped
4 | (1/1) Accurately ripped
5 | (1/1) Accurately ripped
6 | (1/1) Accurately ripped
7 | (1/1) Accurately ripped
8 | (1/1) Accurately ripped
9 | (1/1) Accurately ripped
10 | (1/1) Accurately ripped
11 | (1/1) Accurately ripped
12 | (1/1) Accurately ripped
13 | (1/1) Accurately ripped
14 | (1/1) Accurately ripped
15 | (1/1) Accurately ripped
16 | (1/1) Accurately ripped
17 | (1/1) Accurately ripped
18 | (1/1) Accurately ripped
19 | (1/1) Accurately ripped
20 | (1/1) Accurately ripped
21 | (1/1) Accurately ripped
22 | (1/1) Accurately ripped
23 | (1/1) Accurately ripped
24 | (1/1) Accurately ripped
25 | (1/1) Accurately ripped
[AccurateRip ID: 00399287-040ab169-3a0f0419] disk not present in database.

Track Peak [ CRC32 ] [W/O NULL] [ LOG ]
– 99,5 [ACC5B2FF] [EBC10187] CRC32
01 86,7 [6133F2B8] [67C770F7]
02 89,8 [F32FB709] [21CE7F63]
03 80,6 [0DEC08E4] [507A4B9D]
04 78,4 [CD18DCBD] [687C30D7]
05 89,4 [48F9C365] [6EDAB866]
06 86,9 [6FAC4425] [A064C2B1]
07 90,2 [9C230CA5] [E15513D4]
08 77,8 [7F172F1C] [70CD1998]
09 89,9 [205F91F7] [8980F853]
10 86,5 [978F0D2C] [E4B32830]
11 71,7 [350B3EA7] [98E95DE3]
12 80,7 [BB034201] [07D69B19]
13 83,6 [61BDA959] [E14ADED5]
14 82,0 [6C13C625] [520F1A5F]
15 82,8 [6A41C8A6] [D7EE85C5]
16 76,7 [5FFBE925] [BB9EA7B3]
17 75,5 [D1DDF013] [246C3711]
18 80,3 [DDEA17EE] [CC33BF85]
19 89,2 [BB25460F] [B8498D2D]
20 83,2 [7B675B00] [DAD773E8]
21 78,6 [95DC6C0B] [D219546F]
22 87,5 [8470683E] [8024BC8F]
23 77,0 [E251308C] [38CC5865]
24 99,5 [D177D8D8] [706D62AC]
25 81,1 [6D74D1E2] [B23EA849]

VA - Rock 'N' Roll America (2016) {3CD Box Set}

Track List CD3:

01. Mark Dinning – Teen Angel [2:41]
02. The Clovers – Love Potion Number 9 [1:53]
03. Brenda Lee – I’m Sorry [2:40]
04. Chubby Checker – The Twist [2:36]
05. Jackie Wilson – Reet Petite [2:44]
06. The Marcels – Blue Moon [2:16]
07. Roy Orbison – Only The Lonely [2:28]
08. Ray Peterson – Tell Laura I Love Her [2:56]
09. Ricky Nelson – Travelin’ Man [2:23]
10. Paul Anka – Put Your Head On My Shoulder [2:39]
11. Gary US Bonds – Quarter To Three [2:30]
12. Bobby Vee – Take Good Care Of My Baby [2:39]
13. Connie Francis – Lipstick On Your Collar [2:19]
14. Neil Sedaka – Oh! Carol [2:18]
15. Jimmie Rodgers – Kisses Sweeter Than Wine [2:21]
16. The Crests – 16 Candles [2:53]
17. Bobby Darin – Splish Splash [2:14]
18. Del Shannon – Runaway [2:19]
19. The Everly Brothers – Bye Bye Love [2:19]
20. Lee Dorsey – Ya Ya [2:28]
21. The Flamingos – I Only Have Eyes For You [3:22]
22. Bobby Freeman – Do You Wanna Dance [2:37]
23. Duane Eddy – Rebel Rouser [2:24]
24. The Dell Vikings – Come Go With Me [2:40]
25. Johnny Burnette – You’re Sixteen [1:57]

EAC Log
Exact Audio Copy V1.3 from 2. September 2016

EAC extraction logfile from 30. July 2017, 8:18

Various Artists / Rock ‘N’ Roll America CD3

Used drive : ATAPI iHAS122 C Adapter: 1 ID: 0

Read mode : Secure
Utilize accurate stream : Yes
Defeat audio cache : Yes
Make use of C2 pointers : No

Read offset correction : 6
Overread into Lead-In and Lead-Out : No
Fill up missing offset samples with silence : Yes
Delete leading and trailing silent blocks : No
Null samples used in CRC calculations : Yes
Used interface : Native Win32 interface for Win NT & 2000

Used output format : Internal WAV Routines
Sample format : 44.100 Hz; 16 Bit; Stereo

TOC of the extracted CD

Track | Start | Length | Start sector | End sector
––––––––––––––––––––––––––––-
1 | 0:00.00 | 2:40.45 | 0 | 12044
2 | 2:40.45 | 1:53.03 | 12045 | 20522
3 | 4:33.48 | 2:39.39 | 20523 | 32486
4 | 7:13.12 | 2:36.00 | 32487 | 44186
5 | 9:49.12 | 2:43.70 | 44187 | 56481
6 | 12:33.07 | 2:15.48 | 56482 | 66654
7 | 14:48.55 | 2:27.39 | 66655 | 77718
8 | 17:16.19 | 2:55.40 | 77719 | 90883
9 | 20:11.59 | 2:22.57 | 90884 | 101590
10 | 22:34.41 | 2:39.23 | 101591 | 113538
11 | 25:13.64 | 2:29.70 | 113539 | 124783
12 | 27:43.59 | 2:38.71 | 124784 | 136704
13 | 30:22.55 | 2:18.55 | 136705 | 147109
14 | 32:41.35 | 2:18.13 | 147110 | 157472
15 | 34:59.48 | 2:21.04 | 157473 | 168051
16 | 37:20.52 | 2:52.51 | 168052 | 181002
17 | 40:13.28 | 2:14.26 | 181003 | 191078
18 | 42:27.54 | 2:18.63 | 191079 | 201491
19 | 44:46.42 | 2:19.23 | 201492 | 211939
20 | 47:05.65 | 2:28.00 | 211940 | 223039
21 | 49:33.65 | 3:22.01 | 223040 | 238190
22 | 52:55.66 | 2:36.57 | 238191 | 249947
23 | 55:32.48 | 2:24.37 | 249948 | 260784
24 | 57:57.10 | 2:39.69 | 260785 | 272778
25 | 60:37.04 | 1:57.32 | 272779 | 281585

Range status and errors

Selected range

Filename C:UsersLondonDesktopVarious Artists – Rock ‘N’ Roll America CD3.wav

Peak level 90.3 %
Extraction speed 8.9 X
Range quality 100.0 %
Test CRC 568BD80E
Copy CRC 568BD80E
Copy OK

No errors occurred

AccurateRip summary

Track 1 not present in database
Track 2 not present in database
Track 3 not present in database
Track 4 not present in database
Track 5 not present in database
Track 6 not present in database
Track 7 not present in database
Track 8 not present in database
Track 9 not present in database
Track 10 not present in database
Track 11 not present in database
Track 12 not present in database
Track 13 not present in database
Track 14 not present in database
Track 15 not present in database
Track 16 not present in database
Track 17 not present in database
Track 18 not present in database
Track 19 not present in database
Track 20 not present in database
Track 21 not present in database
Track 22 not present in database
Track 23 not present in database
Track 24 not present in database
Track 25 not present in database

None of the tracks are present in the AccurateRip database

End of status report

–– CUETools DB Plugin V2.1.6

[CTDB TOCID: 0S3Lx.u_yLK0qAWbrg6c_a1YXys-] disk not present in database
Submit result: 0S3Lx.u_yLK0qAWbrg6c_a1YXys- has been uploaded

==== Log checksum CB67F643A87355F0AC09DF8D9F9BD9C9B37E4B9D3A4912DC7B623F638FBC79AC ====

DR Log
foobar2000 1.2.6 / Dynamic Range Meter 1.1.1
log date: 2017-07-30 16:58:01

––––––––––––––––––––––––––––––––––––––––
Analyzed: Bobby Darin / Rock ‘N’ Roll America CD3 (1)
Bobby Freeman / Rock ‘N’ Roll America CD3 (2)
––––––––––––––––––––––––––––––––––––––––

DR Peak RMS Duration Track
––––––––––––––––––––––––––––––––––––––––
DR9 -3.61 dB -13.82 dB 2:14 17-Splish Splash
DR9 -2.32 dB -12.29 dB 2:37 22-Do You Wanna Dance
––––––––––––––––––––––––––––––––––––––––

Number of tracks: 2
Official DR value: DR9

Samplerate: 44100 Hz
Channels: 2
Bits per sample: 16
Bitrate: 446 kbps
Codec: FLAC
================================================================================

––––––––––––––––––––––––––––––––––––––––
Statistics for: 12-Take Good Care Of My Baby
Number of samples: 7009548
Duration: 2:39
––––––––––––––––––––––––––––––––––––––––

Left Right

Peak Value: -2.19 dB –- -2.19 dB
Avg RMS: -13.86 dB –- -13.86 dB
DR channel: 9.87 dB –- 9.87 dB
––––––––––––––––––––––––––––––––––––––––

Official DR Value: DR10

Samplerate: 44100 Hz
Channels: 2
Bits per sample: 16
Bitrate: 446 kbps
Codec: FLAC
================================================================================
––––––––––––––––––––––––––––––––––––––––
Analyzed: Brenda Lee / Rock ‘N’ Roll America CD3 (1)
Chubby Checker / Rock ‘N’ Roll America CD3 (2)
Connie Francis / Rock ‘N’ Roll America CD3 (3)
Del Shannon / Rock ‘N’ Roll America CD3 (4)
Duane Eddy / Rock ‘N’ Roll America CD3 (5)
––––––––––––––––––––––––––––––––––––––––

DR Peak RMS Duration Track
––––––––––––––––––––––––––––––––––––––––
DR11 -0.88 dB -16.05 dB 2:40 03-I’m Sorry
DR10 -2.11 dB -13.48 dB 2:36 04-The Twist
DR10 -2.83 dB -15.19 dB 2:19 13-Lipstick On Your Collar
DR11 -1.35 dB -14.85 dB 2:19 18-Runaway
DR9 -3.48 dB -14.03 dB 2:24 23-Rebel Rouser
––––––––––––––––––––––––––––––––––––––––

Number of tracks: 5
Official DR value: DR10

Samplerate: 44100 Hz
Channels: 2
Bits per sample: 16
Bitrate: 446 kbps
Codec: FLAC
================================================================================

––––––––––––––––––––––––––––––––––––––––
Statistics for: 11-Quarter To Three
Number of samples: 6612060
Duration: 2:30
––––––––––––––––––––––––––––––––––––––––

Left Right

Peak Value: -2.27 dB –- -2.27 dB
Avg RMS: -14.27 dB –- -14.27 dB
DR channel: 10.82 dB –- 10.82 dB
––––––––––––––––––––––––––––––––––––––––

Official DR Value: DR11

Samplerate: 44100 Hz
Channels: 2
Bits per sample: 16
Bitrate: 446 kbps
Codec: FLAC
================================================================================
––––––––––––––––––––––––––––––––––––––––
Analyzed: Jackie Wilson / Rock ‘N’ Roll America CD3 (1)
Jimmie Rodgers / Rock ‘N’ Roll America CD3 (2)
Johnny Burnette / Rock ‘N’ Roll America CD3 (3)
––––––––––––––––––––––––––––––––––––––––

DR Peak RMS Duration Track
––––––––––––––––––––––––––––––––––––––––
DR12 -2.22 dB -15.72 dB 2:44 05-Reet Petite
DR12 -1.64 dB -15.04 dB 2:21 15-Kisses Sweeter Than Wine
DR10 -2.21 dB -13.90 dB 1:57 25-You’re Sixteen
––––––––––––––––––––––––––––––––––––––––

Number of tracks: 3
Official DR value: DR11

Samplerate: 44100 Hz
Channels: 2
Bits per sample: 16
Bitrate: 446 kbps
Codec: FLAC
================================================================================

––––––––––––––––––––––––––––––––––––––––
Statistics for: 20-Ya Ya
Number of samples: 6526800
Duration: 2:28
––––––––––––––––––––––––––––––––––––––––

Left Right

Peak Value: -2.03 dB –- -2.03 dB
Avg RMS: -14.58 dB –- -14.58 dB
DR channel: 10.48 dB –- 10.48 dB
––––––––––––––––––––––––––––––––––––––––

Official DR Value: DR10

Samplerate: 44100 Hz
Channels: 2
Bits per sample: 16
Bitrate: 446 kbps
Codec: FLAC
================================================================================
––––––––––––––––––––––––––––––––––––––––
Analyzed: Mark Dinning / Rock ‘N’ Roll America CD3 (1)
Neil Sedaka / Rock ‘N’ Roll America CD3 (2)
––––––––––––––––––––––––––––––––––––––––

DR Peak RMS Duration Track
––––––––––––––––––––––––––––––––––––––––
DR11 -2.16 dB -16.26 dB 2:41 01-Teen Angel
DR9 -2.22 dB -13.30 dB 2:18 14-Oh! Carol
––––––––––––––––––––––––––––––––––––––––

Number of tracks: 2
Official DR value: DR10

Samplerate: 44100 Hz
Channels: 2
Bits per sample: 16
Bitrate: 446 kbps
Codec: FLAC
================================================================================

––––––––––––––––––––––––––––––––––––––––
Statistics for: 10-Put Your Head On My Shoulder
Number of samples: 7025424
Duration: 2:39
––––––––––––––––––––––––––––––––––––––––

Left Right

Peak Value: -1.89 dB –- -1.89 dB
Avg RMS: -15.85 dB –- -15.85 dB
DR channel: 12.17 dB –- 12.17 dB
––––––––––––––––––––––––––––––––––––––––

Official DR Value: DR12

Samplerate: 44100 Hz
Channels: 2
Bits per sample: 16
Bitrate: 446 kbps
Codec: FLAC
================================================================================
––––––––––––––––––––––––––––––––––––––––
Analyzed: Ray Peterson / Rock ‘N’ Roll America CD3 (1)
Ricky Nelson / Rock ‘N’ Roll America CD3 (2)
––––––––––––––––––––––––––––––––––––––––

DR Peak RMS Duration Track
––––––––––––––––––––––––––––––––––––––––
DR10 -2.31 dB -14.71 dB 2:56 08-Tell Laura I Love Her
DR12 -1.82 dB -14.92 dB 2:23 09-Travelin’ Man
––––––––––––––––––––––––––––––––––––––––

Number of tracks: 2
Official DR value: DR11

Samplerate: 44100 Hz
Channels: 2
Bits per sample: 16
Bitrate: 446 kbps
Codec: FLAC
================================================================================

––––––––––––––––––––––––––––––––––––––––
Statistics for: 07-Only The Lonely
Number of samples: 6505632
Duration: 2:28
––––––––––––––––––––––––––––––––––––––––

Left Right

Peak Value: -1.84 dB –- -1.84 dB
Avg RMS: -15.07 dB –- -15.07 dB
DR channel: 10.78 dB –- 10.78 dB
––––––––––––––––––––––––––––––––––––––––

Official DR Value: DR11

Samplerate: 44100 Hz
Channels: 2
Bits per sample: 16
Bitrate: 446 kbps
Codec: FLAC
================================================================================
––––––––––––––––––––––––––––––––––––––––
Analyzed: The Clovers / Rock ‘N’ Roll America CD3 (1)
The Crests / Rock ‘N’ Roll America CD3 (2)
The Dell Vikings / Rock ‘N’ Roll America CD3 (3)
––––––––––––––––––––––––––––––––––––––––

DR Peak RMS Duration Track
––––––––––––––––––––––––––––––––––––––––
DR11 -1.97 dB -14.74 dB 1:53 02-Love Potion Number 9
DR10 -1.71 dB -14.63 dB 2:53 16-16 Candles
DR12 -1.55 dB -15.76 dB 2:40 24-Come Go With Me
––––––––––––––––––––––––––––––––––––––––

Number of tracks: 3
Official DR value: DR11

Samplerate: 44100 Hz
Channels: 2
Bits per sample: 16
Bitrate: 446 kbps
Codec: FLAC
================================================================================

––––––––––––––––––––––––––––––––––––––––
Analyzed: The Everly Brothers / Rock ‘N’ Roll America CD3 (1)
The Flamingos / Rock ‘N’ Roll America CD3 (2)
––––––––––––––––––––––––––––––––––––––––

DR Peak RMS Duration Track
––––––––––––––––––––––––––––––––––––––––
DR11 -2.04 dB -14.71 dB 2:19 19-Bye Bye Love
DR10 -1.30 dB -13.75 dB 3:22 21-I Only Have Eyes For You
––––––––––––––––––––––––––––––––––––––––

Number of tracks: 2
Official DR value: DR11

Samplerate: 44100 Hz
Channels: 2
Bits per sample: 16
Bitrate: 446 kbps
Codec: FLAC
================================================================================

––––––––––––––––––––––––––––––––––––––––
Statistics for: 06-Blue Moon
Number of samples: 5981724
Duration: 2:16
––––––––––––––––––––––––––––––––––––––––

Left Right

Peak Value: -1.67 dB –- -1.67 dB
Avg RMS: -13.90 dB –- -13.90 dB
DR channel: 10.08 dB –- 10.08 dB
––––––––––––––––––––––––––––––––––––––––

Official DR Value: DR10

Samplerate: 44100 Hz
Channels: 2
Bits per sample: 16
Bitrate: 446 kbps
Codec: FLAC
================================================================================

CUETools Log
[CUETools log; Date: 30.07.2017 16:57:58; Version: 2.1.5]
[CTDB TOCID: 0S3Lx.u_yLK0qAWbrg6c_a1YXys-] found.
Track | CTDB Status
1 | (1/1) Accurately ripped
2 | (1/1) Accurately ripped
3 | (1/1) Accurately ripped
4 | (1/1) Accurately ripped
5 | (1/1) Accurately ripped
6 | (1/1) Accurately ripped
7 | (1/1) Accurately ripped
8 | (1/1) Accurately ripped
9 | (1/1) Accurately ripped
10 | (1/1) Accurately ripped
11 | (1/1) Accurately ripped
12 | (1/1) Accurately ripped
13 | (1/1) Accurately ripped
14 | (1/1) Accurately ripped
15 | (1/1) Accurately ripped
16 | (1/1) Accurately ripped
17 | (1/1) Accurately ripped
18 | (1/1) Accurately ripped
19 | (1/1) Accurately ripped
20 | (1/1) Accurately ripped
21 | (1/1) Accurately ripped
22 | (1/1) Accurately ripped
23 | (1/1) Accurately ripped
24 | (1/1) Accurately ripped
25 | (1/1) Accurately ripped
[AccurateRip ID: 0037e0ff-03eee429-740eaa19] disk not present in database.

Track Peak [ CRC32 ] [W/O NULL] [ LOG ]
– 90,3 [568BD80E] [2A43F57E] CRC32
01 78,0 [4BF7803D] [39785B1D]
02 79,7 [FDB11DA7] [3AE9764F]
03 90,3 [A4F701A8] [86E51DEB]
04 78,4 [51ED3E8C] [0B771423]
05 77,4 [36C7215D] [16FF344F]
06 82,5 [5F7136B4] [DB537D50]
07 80,9 [3D77EDCB] [D4E1C0A7]
08 76,6 [D93C3785] [D531743C]
09 81,1 [148AD5BC] [B136092E]
10 80,4 [10C7AF30] [32D9C117]
11 77,0 [33B70C5E] [C35B1775]
12 77,6 [9B7BA4E9] [837D617F]
13 72,1 [8A0D43E2] [CADF5767]
14 77,4 [D26C8112] [77731A29]
15 82,8 [3FDA0DF1] [89B68078]
16 82,1 [23373149] [936BFD6E]
17 65,9 [6FB0DCE2] [22D44F20]
18 85,5 [19FE5921] [BDF031F1]
19 79,0 [8AF6FF18] [2F865D80]
20 79,1 [8F349AC3] [7F6EA1D5]
21 86,0 [93B5094F] [B1131865]
22 76,5 [C6355E1A] [E3C22375]
23 66,9 [8E9B4A0F] [C1D4122E]
24 83,6 [58F8EDC9] [F78DD7E9]
25 77,5 [223E92A7] [0FF39F0F]

VA - Rock 'N' Roll America (2016) {3CD Box Set}

See also:
VA – Rock ‘N’ Roll Britannia (2016) {3CD Box Set}

All thanks go to London

>>> My Blog <<<

Download from icerbox.com:

VA – Rock 'N' Roll America (2016) {3CD Box Set} Download, Warez, DDL, Free, Full Album, Torrent, Legal.

Download