VA – Rattlesnake Guitar: The Music of Peter Green (1997) 2CD

Download
VA - Rattlesnake Guitar: The Music of Peter Green (1997) 2CD

VA – Rattlesnake Guitar: The Music of Peter Green (1997) 2CD
EAC | FLAC | Image (Cue&Log) ~ 895 Mb (incl 5%) | Mp3 (CBR320) ~ 324 Mb (incl 5%) | Scans ~ 75 Mb
Genre: Blues Rock, Blues, Rock | Label: Viceroy | # 54190-2 | Time: 02:16:48

A massive, 2-disc compilation featuring cover versions of virtually every Peter Green song written during his Fleetwood Mac period, and a few drawn from his mid-80s solo period. While there are some weaker moments in this 39-track collection, the majority of the interpretations feature blues guitar, piano and vocal at their very best. Rather than simply pay tribute to Peter Green by faithfully imitating his material, the artists have chosen to re-interpret these songs and in most cases the results are superb. The power of Green’s influence is felt all the more deeply when so many artists use his music as a jumping-off point. A must have item for blues guitar fans.

Review by Marc Szeftel

Too many "tribute" albums turn out to be disappointments because "name" musicians are often hastily assembled and pressed to crank out material with which they have little or no experience and expertise. On Rattlesnake Guitar, there is a wide array of musicians from across the musical spectrum, but these play the songs as if they’d been together for years. Different musicians offer their own interpetations of Green’s music rather than trying to replicate it. And some tremendous interpretations there are here! Though I generally like the whole album, I think the standout is "Love That Burns", a wailing, bluesy rendition of a great song that will have you hitting the repeat button again and again. Other outstanding covers are Black Magic Woman, I Loved Another Woman, Oh Well, A Fool No More, and If You’ll Be My Baby. Ian Anderson does a great job with a poignant rendition of Man of the World. I had heard all these songs before and it took me a few listens to warm to some of these versions, but if you like Peter Green as much as these guys apparently do, you will find this a powerful compilation of some of his best and one that is well worth owning.

Review by Kurt Harding, Amazon.com

VA - Rattlesnake Guitar: The Music of Peter Green (1997) 2CD

Peter Green at Allmusic
Peter Green at Wiki

Tracklist:

CD1:

01. Larry McCray – Black Magic Woman (03:54)
02. Dave Peverett, Rod Price – Love That Burns (06:10)
03. Savoy Brown, Kim Simmonds – Stop Messin’ Round (03:05)
04. Snowy White – Looking For Somebody (07:11)
05. Luther Grosvenor, Mike Kellie, Jess Roden – Cryin’ Won’t Bring You Back (05:13)
06. Rory Gallagher – Leaving Town Blues (06:46)
07. Dave Peverett, Rod Price – If You Be My Baby (04:32)
08. Harvey Mandel, Wilbur Bascomb – Ramblin’ Pony (05:16)
09. Arthur Brown – The Green Manalishi (05:04)
10. Ken Hensley – Hellhounds On My Trail (03:13)
11. Larry Mitchell, Jay Aston – I Loved Another Woman (04:55)
12. Nick Abrahams – The Same Way (03:42)
13. Top Topham, Jim McCarty – Drifting (06:08)
14. Clas Yngstrom – The Supernatural (03:18)
15. Ian Anderson – Man of the World (02:53)

CD2:

01. Billy Sheehan – Oh Well (07:38)
02. Vince Converse, Innes Sibun – Rattlesnake Shake (05:26)
03. Stu Hamm, Jonathan Mover, Larry Mitchell – Fleetwood Mac (02:40)
04. Zoot Money, Bobby Tench – Watcha Gonna Do (03:58)
05. Rory Gallagher – Showbiz Blues (06:48)
06. Luther Grosvenor, Mike Kellie, Jess Roden – Merry Go Round (04:36)
07. Paul Jones, Bobby Tench, Max Middleton – Albatross (04:37)
08. Naked Blue – Closing My Eyes (04:55)
09. Ray Gomez – Evil Woman Blues (02:01)
10. Troy Turner – Lazy Poker Blues (02:47)
11. Harvey Mandel, Jon Paris – Watch Out (04:26)
12. Harvey Mandel, Wilbur Bascomb – Long Grey Mare (04:48)
13. Kim Lembo – A Fool No More (04:24)
14. Southside Johnny & The Uptown Horns – Baby When The Sun Goes Down (04:47)

EAC log CD1
Exact Audio Copy V0.99 prebeta 4 from 23. January 2008

EAC extraction logfile from 26. May 2010, 19:57

VA / Rattlesnake Guitar. The Music of Peter Green (Disc 1)

Used drive : HL-DT-STDVD-RAM GH22NP20 Adapter: 0 ID: 0

Read mode : Secure
Utilize accurate stream : Yes
Defeat audio cache : Yes
Make use of C2 pointers : No

Read offset correction : 102
Overread into Lead-In and Lead-Out : No
Fill up missing offset samples with silence : Yes
Delete leading and trailing silent blocks : No
Null samples used in CRC calculations : Yes
Used interface : Installed external ASPI interface

Used output format : User Defined Encoder
Selected bitrate : 1024 kBit/s
Quality : High
Add ID3 tag : No
Command line compressor : C:Program Files (x86)Exact Audio CopyFlacflac.exe
Additional command line options : -V -6 -T "artist=%a" -T "title=%t" -T "album=%g" -T "date=%y" -T "tracknumber=%n" -T "genre=%m" %s

TOC of the extracted CD

Track | Start | Length | Start sector | End sector
––––––––––––––––––––––––––––-
1 | 0:00.50 | 3:57.27 | 50 | 17851
2 | 3:58.02 | 6:13.23 | 17852 | 45849
3 | 10:11.25 | 3:07.70 | 45850 | 59944
4 | 13:19.20 | 7:14.37 | 59945 | 92531
5 | 20:33.57 | 5:16.65 | 92532 | 116296
6 | 25:50.47 | 6:49.33 | 116297 | 147004
7 | 32:40.05 | 4:35.07 | 147005 | 167636
8 | 37:15.12 | 5:19.08 | 167637 | 191569
9 | 42:34.20 | 5:07.00 | 191570 | 214594
10 | 47:41.20 | 3:15.52 | 214595 | 229271
11 | 50:56.72 | 4:58.05 | 229272 | 251626
12 | 55:55.02 | 3:45.53 | 251627 | 268554
13 | 59:40.55 | 6:12.10 | 268555 | 296464
14 | 65:52.65 | 3:22.35 | 296465 | 311649
15 | 69:15.25 | 2:53.45 | 311650 | 324669

Range status and errors

Selected range

Filename D:RipsVA – Rattlesnake Guitar. The Music of Peter Green (1997)VA – Rattlesnake Guitar. The Music of Peter Green (Disc 1).wav

Peak level 100.0 %
Range quality 100.0 %
Test CRC 010F1B71
Copy CRC 010F1B71
Copy OK

No errors occurred

AccurateRip summary

Track 1 cannot be verified as accurate (confidence 5) [E6689CD0], AccurateRip returned [94F2D460]
Track 2 cannot be verified as accurate (confidence 5) [482AFF05], AccurateRip returned [85F119CD]
Track 3 cannot be verified as accurate (confidence 5) [D9AF3129], AccurateRip returned [B2A68E81]
Track 4 cannot be verified as accurate (confidence 5) [A51E972F], AccurateRip returned [390F1B67]
Track 5 cannot be verified as accurate (confidence 5) [DC082E3C], AccurateRip returned [F684EA2C]
Track 6 cannot be verified as accurate (confidence 5) [63410F71], AccurateRip returned [090F26C9]
Track 7 cannot be verified as accurate (confidence 5) [F49A1B8B], AccurateRip returned [7A623DDB]
Track 8 cannot be verified as accurate (confidence 5) [F3A37A99], AccurateRip returned [06BB7941]
Track 9 cannot be verified as accurate (confidence 5) [48B50343], AccurateRip returned [3965C0A3]
Track 10 cannot be verified as accurate (confidence 5) [2298C16F], AccurateRip returned [19D88B87]
Track 11 cannot be verified as accurate (confidence 5) [D7CE1884], AccurateRip returned [069EB13C]
Track 12 cannot be verified as accurate (confidence 5) [68E66CD6], AccurateRip returned [E34B72CE]
Track 13 cannot be verified as accurate (confidence 5) [12C4230F], AccurateRip returned [1EF8C0F7]
Track 14 cannot be verified as accurate (confidence 5) [560759D3], AccurateRip returned [79228BBB]
Track 15 cannot be verified as accurate (confidence 5) [0909CF6A], AccurateRip returned [09B231BA]

No tracks could be verified as accurate
You may have a different pressing from the one(s) in the database

End of status report

DR log CD1
foobar2000 1.2 / Dynamic Range Meter 1.1.1
log date: 2013-05-12 16:14:47

––––––––––––––––––––––––––––––––––––––––
Analyzed: Arthur Brown / Rattlesnake Guitar. The Music of Peter Green (Disc 1) (1)
Clas Yngstrom / Rattlesnake Guitar. The Music of Peter Green (Disc 1) (2)
––––––––––––––––––––––––––––––––––––––––

DR Peak RMS Duration Track
––––––––––––––––––––––––––––––––––––––––
DR11 0.00 dB -11.95 dB 5:07 09-The Green Manalishi
DR12 0.00 dB -13.74 dB 3:22 14-The Supernatural
––––––––––––––––––––––––––––––––––––––––

Number of tracks: 2
Official DR value: DR12

Samplerate: 44100 Hz
Channels: 2
Bits per sample: 16
Bitrate: 883 kbps
Codec: FLAC
================================================================================

––––––––––––––––––––––––––––––––––––––––
Analyzed: Dave Peverett, Rod Price / Rattlesnake Guitar. The Music of Peter Green (Disc 1) (1-2)
Harvey Mandel, Wilbur Bascomb / Rattlesnake Guitar. The Music of Peter Green (Disc 1) (3)
Ian Anderson / Rattlesnake Guitar. The Music of Peter Green (Disc 1) (4)
––––––––––––––––––––––––––––––––––––––––

DR Peak RMS Duration Track
––––––––––––––––––––––––––––––––––––––––
DR12 0.00 dB -13.38 dB 6:13 02-Love That Burns
DR11 -0.01 dB -12.48 dB 4:35 07-If You Be My Baby
DR11 0.00 dB -11.74 dB 5:19 08-Ramblin’ Pony
DR11 -2.89 dB -17.02 dB 2:54 15-Man of the World
––––––––––––––––––––––––––––––––––––––––

Number of tracks: 4
Official DR value: DR11

Samplerate: 44100 Hz
Channels: 2
Bits per sample: 16
Bitrate: 883 kbps
Codec: FLAC
================================================================================

––––––––––––––––––––––––––––––––––––––––
Statistics for: 10-Hellhounds On My Trail
Number of samples: 8630076
Duration: 3:16
––––––––––––––––––––––––––––––––––––––––

Left Right

Peak Value: -0.14 dB –- -0.01 dB
Avg RMS: -13.43 dB –- -13.68 dB
DR channel: 11.21 dB –- 12.07 dB
––––––––––––––––––––––––––––––––––––––––

Official DR Value: DR12

Samplerate: 44100 Hz
Channels: 2
Bits per sample: 16
Bitrate: 883 kbps
Codec: FLAC
================================================================================
––––––––––––––––––––––––––––––––––––––––
Analyzed: Larry McCray / Rattlesnake Guitar. The Music of Peter Green (Disc 1) (1)
Larry Mitchell, Jay Aston / Rattlesnake Guitar. The Music of Peter Green (Disc 1) (2)
––––––––––––––––––––––––––––––––––––––––

DR Peak RMS Duration Track
––––––––––––––––––––––––––––––––––––––––
DR10 0.00 dB -11.52 dB 3:57 01-Black Magic Woman
DR11 -0.01 dB -13.40 dB 4:58 11-I Loved Another Woman
––––––––––––––––––––––––––––––––––––––––

Number of tracks: 2
Official DR value: DR11

Samplerate: 44100 Hz
Channels: 2
Bits per sample: 16
Bitrate: 883 kbps
Codec: FLAC
================================================================================

––––––––––––––––––––––––––––––––––––––––
Analyzed: Luther Grosvenor, Mike Kellie, Jess Roden / Rattlesnake Guitar. The Music of Peter Green (Disc 1) (1)
Nick Abrahams / Rattlesnake Guitar. The Music of Peter Green (Disc 1) (2)
––––––––––––––––––––––––––––––––––––––––

DR Peak RMS Duration Track
––––––––––––––––––––––––––––––––––––––––
DR12 0.00 dB -12.99 dB 5:17 05-Cryin’ Won’t Bring You Back
DR10 -0.01 dB -11.30 dB 3:46 12-The Same Way
––––––––––––––––––––––––––––––––––––––––

Number of tracks: 2
Official DR value: DR11

Samplerate: 44100 Hz
Channels: 2
Bits per sample: 16
Bitrate: 883 kbps
Codec: FLAC
================================================================================

––––––––––––––––––––––––––––––––––––––––
Statistics for: 06-Leaving Town Blues
Number of samples: 18056304
Duration: 6:49
––––––––––––––––––––––––––––––––––––––––

Left Right

Peak Value: 0.00 dB –- 0.00 dB
Avg RMS: -13.32 dB –- -13.31 dB
DR channel: 11.21 dB –- 11.25 dB
––––––––––––––––––––––––––––––––––––––––

Official DR Value: DR11

Samplerate: 44100 Hz
Channels: 2
Bits per sample: 16
Bitrate: 883 kbps
Codec: FLAC
================================================================================
––––––––––––––––––––––––––––––––––––––––
Analyzed: Savoy Brown, Kim Simmonds / Rattlesnake Guitar. The Music of Peter Green (Disc 1) (1)
Snowy White / Rattlesnake Guitar. The Music of Peter Green (Disc 1) (2)
Top Topham, Jim McCarty / Rattlesnake Guitar. The Music of Peter Green (Disc 1) (3)
––––––––––––––––––––––––––––––––––––––––

DR Peak RMS Duration Track
––––––––––––––––––––––––––––––––––––––––
DR11 0.00 dB -12.45 dB 3:08 03-Stop Messin’ Round
DR13 0.00 dB -14.09 dB 7:14 04-Looking For Somebody
DR10 -0.01 dB -12.20 dB 6:12 13-Drifting
––––––––––––––––––––––––––––––––––––––––

Number of tracks: 3
Official DR value: DR11

Samplerate: 44100 Hz
Channels: 2
Bits per sample: 16
Bitrate: 883 kbps
Codec: FLAC
================================================================================

EAC log CD2
Exact Audio Copy V0.99 prebeta 4 from 23. January 2008

EAC extraction logfile from 26. May 2010, 20:52

Various / Rattlesnake Guitar. The Music of Peter Green (Disc 2)

Used drive : HL-DT-STDVD-RAM GH22NP20 Adapter: 0 ID: 0

Read mode : Secure
Utilize accurate stream : Yes
Defeat audio cache : Yes
Make use of C2 pointers : No

Read offset correction : 102
Overread into Lead-In and Lead-Out : No
Fill up missing offset samples with silence : Yes
Delete leading and trailing silent blocks : No
Null samples used in CRC calculations : Yes
Used interface : Installed external ASPI interface

Used output format : User Defined Encoder
Selected bitrate : 1024 kBit/s
Quality : High
Add ID3 tag : No
Command line compressor : C:Program Files (x86)Exact Audio CopyFlacflac.exe
Additional command line options : -V -6 -T "artist=%a" -T "title=%t" -T "album=%g" -T "date=%y" -T "tracknumber=%n" -T "genre=%m" %s

TOC of the extracted CD

Track | Start | Length | Start sector | End sector
––––––––––––––––––––––––––––-
1 | 0:00.50 | 7:41.50 | 50 | 34674
2 | 7:42.25 | 5:29.17 | 34675 | 59366
3 | 13:11.42 | 2:43.48 | 59367 | 71639
4 | 15:55.15 | 4:01.10 | 71640 | 89724
5 | 19:56.25 | 6:53.02 | 89725 | 120701
6 | 26:49.27 | 4:39.10 | 120702 | 141636
7 | 31:28.37 | 4:40.48 | 141637 | 162684
8 | 36:09.10 | 4:58.52 | 162685 | 185086
9 | 41:07.62 | 2:04.23 | 185087 | 194409
10 | 43:12.10 | 2:50.10 | 194410 | 207169
11 | 46:02.20 | 4:29.37 | 207170 | 227381
12 | 50:31.57 | 4:52.30 | 227382 | 249311
13 | 55:24.12 | 4:28.50 | 249312 | 269461
14 | 59:52.62 | 4:48.00 | 269462 | 291061

Range status and errors

Selected range

Filename D:RipsVA – Rattlesnake Guitar. The Music of Peter Green (1997)VA – Rattlesnake Guitar. The Music of Peter Green (Disc 2).wav

Peak level 100.0 %
Range quality 99.9 %
Test CRC 9F560D1C
Copy CRC 9F560D1C
Copy OK

No errors occurred

AccurateRip summary

Track 1 cannot be verified as accurate (confidence 6) [58DF0A1B], AccurateRip returned [8B8AF92B]
Track 2 cannot be verified as accurate (confidence 7) [8CEBB137], AccurateRip returned [4F917A5F]
Track 3 cannot be verified as accurate (confidence 7) [AA94949A], AccurateRip returned [20673612]
Track 4 cannot be verified as accurate (confidence 7) [8D4BB0BA], AccurateRip returned [1357BB32]
Track 5 cannot be verified as accurate (confidence 7) [CE4B2E0B], AccurateRip returned [ABB70A9B]
Track 6 cannot be verified as accurate (confidence 7) [D89B948B], AccurateRip returned [A053CF53]
Track 7 cannot be verified as accurate (confidence 7) [09CE8B8C], AccurateRip returned [501F16AC]
Track 8 cannot be verified as accurate (confidence 7) [BD005298], AccurateRip returned [CFCF04D0]
Track 9 cannot be verified as accurate (confidence 7) [E08912C2], AccurateRip returned [7D95CA4A]
Track 10 cannot be verified as accurate (confidence 7) [F4F57AFB], AccurateRip returned [4F91388B]
Track 11 cannot be verified as accurate (confidence 7) [3C5902E1], AccurateRip returned [64257711]
Track 12 cannot be verified as accurate (confidence 7) [D3D5EE84], AccurateRip returned [B5119BC4]
Track 13 cannot be verified as accurate (confidence 7) [541B95CC], AccurateRip returned [E0431CCC]
Track 14 cannot be verified as accurate (confidence 6) [08FC29B7], AccurateRip returned [5549BFDF]

No tracks could be verified as accurate
You may have a different pressing from the one(s) in the database

End of status report

DR log CD2
foobar2000 1.2 / Dynamic Range Meter 1.1.1
log date: 2013-05-12 16:19:28

––––––––––––––––––––––––––––––––––––––––
Analyzed: Billy Sheehan / Rattlesnake Guitar. The Music of Peter Green (Disc 2) (1)
Harvey Mandel, Jon Paris / Rattlesnake Guitar. The Music of Peter Green (Disc 2) (2)
Harvey Mandel, Wilbur Bascomb / Rattlesnake Guitar. The Music of Peter Green (Disc 2) (3)
Kim Lembo / Rattlesnake Guitar. The Music of Peter Green (Disc 2) (4)
––––––––––––––––––––––––––––––––––––––––

DR Peak RMS Duration Track
––––––––––––––––––––––––––––––––––––––––
DR9 -0.01 dB -12.25 dB 7:42 01-Oh Well
DR11 -0.01 dB -12.00 dB 4:29 11-Watch Out
DR12 0.00 dB -13.64 dB 4:52 12-Long Grey Mare
DR12 -0.67 dB -15.37 dB 4:29 13-A Fool No More
––––––––––––––––––––––––––––––––––––––––

Number of tracks: 4
Official DR value: DR11

Samplerate: 44100 Hz
Channels: 2
Bits per sample: 16
Bitrate: 858 kbps
Codec: FLAC
================================================================================

––––––––––––––––––––––––––––––––––––––––
Analyzed: Luther Grosvenor, Mike Kellie, Jess Roden / Rattlesnake Guitar. The Music of Peter Green (Disc 2) (1)
Naked Blue / Rattlesnake Guitar. The Music of Peter Green (Disc 2) (2)
––––––––––––––––––––––––––––––––––––––––

DR Peak RMS Duration Track
––––––––––––––––––––––––––––––––––––––––
DR13 0.00 dB -14.98 dB 4:39 06-Merry Go Round
DR11 -0.01 dB -13.03 dB 4:59 08-Closing My Eyes
––––––––––––––––––––––––––––––––––––––––

Number of tracks: 2
Official DR value: DR12

Samplerate: 44100 Hz
Channels: 2
Bits per sample: 16
Bitrate: 858 kbps
Codec: FLAC
================================================================================

––––––––––––––––––––––––––––––––––––––––
Analyzed: Paul Jones, Bobby Tench, Max Middleton / Rattlesnake Guitar. The Music of Peter Green (Disc 2) (1)
Ray Gomez / Rattlesnake Guitar. The Music of Peter Green (Disc 2) (2)
––––––––––––––––––––––––––––––––––––––––

DR Peak RMS Duration Track
––––––––––––––––––––––––––––––––––––––––
DR11 -0.01 dB -13.69 dB 4:41 07-Albatross
DR10 -0.09 dB -10.70 dB 2:04 09-Evil Woman Blues
––––––––––––––––––––––––––––––––––––––––

Number of tracks: 2
Official DR value: DR10

Samplerate: 44100 Hz
Channels: 2
Bits per sample: 16
Bitrate: 858 kbps
Codec: FLAC
================================================================================

––––––––––––––––––––––––––––––––––––––––
Analyzed: Rory Gallagher / Rattlesnake Guitar. The Music of Peter Green (Disc 2) (1)
Southside Johnny & The Uptown Horns / Rattlesnake Guitar. The Music of Peter Green (Disc 2) (2)
––––––––––––––––––––––––––––––––––––––––

DR Peak RMS Duration Track
––––––––––––––––––––––––––––––––––––––––
DR11 -0.12 dB -12.87 dB 6:53 05-Showbiz Blues
DR11 0.00 dB -12.16 dB 4:48 14-Baby When The Sun Goes Down
––––––––––––––––––––––––––––––––––––––––

Number of tracks: 2
Official DR value: DR11

Samplerate: 44100 Hz
Channels: 2
Bits per sample: 16
Bitrate: 858 kbps
Codec: FLAC
================================================================================

––––––––––––––––––––––––––––––––––––––––
Analyzed: Stu Hamm, Jonathan Mover, Larry Mitchell / Rattlesnake Guitar. The Music of Peter Green (Disc 2) (1)
Troy Turner / Rattlesnake Guitar. The Music of Peter Green (Disc 2) (2)
––––––––––––––––––––––––––––––––––––––––

DR Peak RMS Duration Track
––––––––––––––––––––––––––––––––––––––––
DR9 -0.01 dB -9.49 dB 2:44 03-Fleetwood Mac
DR11 -0.01 dB -12.07 dB 2:50 10-Lazy Poker Blues
––––––––––––––––––––––––––––––––––––––––

Number of tracks: 2
Official DR value: DR10

Samplerate: 44100 Hz
Channels: 2
Bits per sample: 16
Bitrate: 858 kbps
Codec: FLAC
================================================================================

––––––––––––––––––––––––––––––––––––––––
Analyzed: Vince Converse, Innes Sibun / Rattlesnake Guitar. The Music of Peter Green (Disc 2) (1)
Zoot Money, Bobby Tench / Rattlesnake Guitar. The Music of Peter Green (Disc 2) (2)
––––––––––––––––––––––––––––––––––––––––

DR Peak RMS Duration Track
––––––––––––––––––––––––––––––––––––––––
DR10 0.00 dB -10.63 dB 5:29 02-Rattlesnake Shake
DR10 -0.01 dB -11.85 dB 4:01 04-Watcha Gonna Do
––––––––––––––––––––––––––––––––––––––––

Number of tracks: 2
Official DR value: DR10

Samplerate: 44100 Hz
Channels: 2
Bits per sample: 16
Bitrate: 858 kbps
Codec: FLAC
================================================================================

VA - Rattlesnake Guitar: The Music of Peter Green (1997) 2CD

VA - Rattlesnake Guitar: The Music of Peter Green (1997) 2CD

All thanks to original releaser – Yarila

More interesting music in My Blog

VA – Rattlesnake Guitar: The Music of Peter Green (1997) 2CD Download, Warez, DDL, Free, Full Album, Torrent, Legal.

Download