VA – Mysterious Voyages: A Tribute To Weather Report (2005) 2CDs

Download
VA - Mysterious Voyages: A Tribute To Weather Report (2005) 2CDs

VA – Mysterious Voyages: A Tribute To Weather Report (2005) 2CDs
EAC | FLAC | Image (Cue&Log) ~ 913 Mb | Mp3 (CBR320) ~ 356 Mb | Scans included | 02:32:35
Fusion, Post-Bop, Jazz-Rock, Contemporary Jazz | Label: ESC | # ESC 03692-2

This double-CD has 24 different groups of fusion musicians (including some from Europe) paying tribute to Weather Report. Despite the personnel and often the instrumentation changing from track to track, there is a unity to the project and many of the bands sound quite a bit like Weather Report, either purposely as part of the tribute or naturally. The programming is somewhat random and the bands bring back the sound, grooves, and spirits of Weather Report rather than necessarily always sticking to their compositions. All in all, this is a heartfelt and very well-played tribute that can also serve as an introduction to a cross-section of some of today’s top fusion musicians, many of whom are not household names yet.

Review by Scott Yanow, Allmusic.com

Weather Report’s fifteen-year tenure was not only the longest of the fusion groups that emerged from the post-Bitches Brew era—including John McLaughlin’s Mahavishnu Orchestra, Chick Corea’s Return to Forever, and Herbie Hancock’s Headhunters—it was arguably the most broadly influential. Starting out as an electric free jazz collective but ultimately honing a sound that included world beat rhythms and a more orchestral approach defined by the distinctive sounds and compositions of saxophonist Wayne Shorter and keyboardist Joe Zawinul, Weather Report also introduced a number of inestimable talents, most notably the late bassist Jaco Pastorius, who singlehandedly reinvented the role of the electric bass.

Over the years a host of artists have made their debt to Weather Report’s innovations clear. Guitarist Scott Henderson and bassist Gary Willis’ Tribal Tech, for example, clearly found inspiration in latter-period Weather Report’s sonic textures. Others, like bassist Marcus Miller, paid more direct tribute by recording Pastorius’ "Teen Town," but reinvented the melody on a slapped and popped fretted bass, instead of simply copying it on a fretless.

Both Miller’s version of "Teen Town" and an original tribute by Tribal Tech can be found on Mysterious Voyages, a new anthology that pays homage by interpreting well-known (and some not-so-well-known) Weather Report tunes, as well as new pieces acknowledging a clear debt. The generous two and a half hour-plus double-disc set is filled with a veritable who’s who of contemporary jazz, including bassists Christian McBride, Matthew Garrison, and Kai Eckhardt; saxophonists Bill Evans and Bob Malach; pianist/keyboardists Patrice Rushen, Scott Kinsey, and Rachel Z; and drummers Adam Nussbaum, Paco Sery, and Kirk Covington. The material includes Christian Jacob and Terje Gewelt’s gentle acoustic piano/bass duet rendition of Zawinul’s "A Remark You Made," guitarist Rocco Zifarelli’s power trio reading of Pastorius’ "Havona," a surprising newgrass-inflected two-guitar cover of Weather Report’s biggest hit, "Birdland," and an Americana-tinged reading of Pastorius’ classic "Three Views of a Secret."

But as much as the covers are worth the price of admission by themselves, some of the new material is equally compelling. Tribal Tech’s otherworldly tone poem "You May Remember Me" suggests how Weather Report might have sounded had it been a guitar-keys-bass-drums quartet. Kai Eckhardt’s "Queen of Cups" begins with the kind of bass solo Pastorius might be playing if he were alive today, before evolving into a dark and spacious ballad that is more economical, texturally, than anything involving Zawinul could ever be. Scott Kinsey’s "Big Rock" evolves Zawinul’s later world rhythm-based work, sounding like something out of Procession or Sportin’ Life: reverential, without being strictly imitative.

A broad-based and loving tribute, Mysterious Voyages offers greatest appeal to Weather Report fans who want to hear the music taken to the next step. But homage aside, it also stands alone as a terrific collection of music from some of today’s most notable fusion names—and a few others who will undoubtedly be heard from more in the future.

Review by John Kelman, AllAboutJazz.com

Personnel
Scott Kinsey Band: Scott Kinsey (microKorg vocoder, reason malstrom solo, nord lead 2, electro organ, samples), Steve Taglione (alto flute solo, bass clarinet, EWI, sampled recorder, electric guitar), Armand Sabal-Lecco (electric bass), Brad Dutz (congas, percussion), Kirk Covington (Yamaha drums, zildjan cymbals, sticks), Cyril Atef and Karim Ziad (vocalizations, handclaps), Mamady Keita (sampled vocals)
Marcus Miller: Marcus Miller (bass guitar, bass clarinet), Hiram Bullock (guitar), Philippe Saisse (keyboards), Steve Ferrone (main beat, high hat, sidestick, bass drum), Omar Hakim (fill drums, snare drum, bass drum, cymbals), Don Alias (congas), Paulinho Da Costa (percussion), Andy Narell (steel drums)
Michiel Borstlap & Yuri Honing: Michiel Borstlap (Korg M1), Yuri Honing (soprano saxophone)
Trinity: Matthias Krauss (keyboards, sounds, programming), Franz Holtmann (guitars, soundstreching), Gudze (bass, editing), Marco Minnemann (drums, percussion), Holger Czukay (English horn)
Michael Wolff Trio: Michael Wolff (piano), Christian McBride (bass), Tony Williams (drums)
Tribal Tech: Scott Henderson (guitar), Scott Kinsey (keyboards), Gary Willis (bass), Kirk Covington (drums)
John McLean: John McLean (guitar), Larry Kohut (acoustic bass), Karl Montzka (piano, Hammond B-3), Jim Gailloretto (sax), Adam Nussbaum (drums)
Kai Eckhardt: Kai Eckhardt (bass), Aydin Esen (keyboards), Sean Rickman (drums)
Angela Celeda: Andrej Olejniczak (tenor sax), Alfredo Mahiques (trombone), Nando de la Casa (piano, keyboards), Tony Carmano (guitar), Carlos Velasco (guitar), Laurent Vernerey (bass), Angel Celeda (drums)
Richard S. & The Vibe Tribe: Richard S. (guitar), Bill Evans (soprano sax), Bob Malach (tenor sax), Patrice Rushen (synthesizers), Kai Echkardt (bass), Terri Lyne Carrington (drums), Munyungo Jackson (percussion), Roy Galloway (backing vocals), Orin Waters (backing vocals)
Rachel Z Trio: Rachel Z (piano), Miriam Sullivan (bass), Allison Miller (drums)
Gary Willis: Gary Willis (fretless bass, keyboards), Steve Taglione (EWI), Dennis Chambers (drums)
White House: Boudewijn Lucas (bass, shekere, loop programming), Michiel Borstlap (grand piano, fender rhodes, Korg M1), Yuri Honing (soprano saxophone, tenor saxophone), Joost Lijbaart (drums), Bart Fermie (percussion, voice)
Terje Gewelt & Christian Jacob: Terje Gewelt (acoustic bass, fender jazz bass), Christian Jacob (piano)
Rocco Zifarelli: Rocco Zifarelli (guitar, guitar synthesizer), Matthew Garrison (bass), Paco Sery (drums)
Jim Beard: Jim Beard (keyboards, additional drum programming), Bob Malach (tenor sax), Jon Herington (guitar), Arto Tuncboyaciyan (percussion), Matthew Garrison (bass), Zach Danziger (drum programming), Gene Lake (drums)
Acoustic Mania: Antonio Forcione (nylon string guitar), Neil Stacey (guitar synthesizer)
Torsten De Winkel: Torsten De Winkel (guitars, electric sitar, additional programming), Janek Gwizdala (electric bass, programming), Audan Waage (trumpet), Scott Kinsey (keyboards, additional programming)
Karizma: David Garfield (keyboards), Michael Landau (guitar), Neil Stubenhaus (bass), Vinnie Colaiuta (drums)
Tony Grey: Tony Grey (bass), Romain Collin (keyboards), Walter Smith III (sax), David Fuiczynski (guitar), Kenwood Dennard (drums)
Alex Gunia: Alex Gunia (guitar), André Cayres (double bass), Michael Klaukien (drums)
Slop Shop: J. Peter Schwalm (synths, vocoder, sonics), Christoph Buhse (drums), Mark Oliver Klenk (guitar), Heiko Himmighoffen (percussion)
Mantra: Jon Ozment (organ, electric piano, synth), Chuck Underwood (guitar loops), Mark Merella (drums, percussion)
Clive Stevens: Clive Stevens (keyboards, sax, WX7-MIDI-wind controller), Lincoln Goines (bass), Frank Colon (percussion), Steve Gaboury (sound design)

Tracklist:

CD1:

01. Scott Kinsey – Big Rock (4:38)
02. Marcus Miller – Teen Town (4:56)
03. Michiel Borstlap & Yuri Honing – Memory of Enchantment (4:12)
04. Trinity – Weather Is Changing (7:57)
05. Michael Wolff – Pinocchio (5:30)
06. Tribal Tech – You May Remember Me (4:44)
07. John McLean – Three Views of a Secret (7:40)
08. Kai Eckhardt – Queen of Cups (9:11)
09. Angel Celada – Corner Pocket (7:17)
10. Richard S. & Vibe Tribe – Travels (8:29)
11. Rachel Z – On the Milky Way Express (6:09)
12. Gary Willis – Emancipation (4:52)

CD2:

01. White House – Bombay (6:18)
02. Terje Gewelt & Christian Jacob – A Remark You Made (5:19)
03. Rocco Zifarelli – Havona (7:36)
04. Jim Beard – Fever (5:51)
05. Acoustic Mania – Birdland (5:38)
06. Torsten de Winkel – Scarlet Woman (5:08)
07. Karizma – Palladium (7:32)
08. Tony Grey – White Woods (7:59)
09. Alex Gunia – American Tango (9:10)
10. Slop Shop – Overlook Hotel (4:33)
11. Mantra – Mysterious Traveller (7:29)
12. Clive Stevens – Beat (4:20)

EAC log CD1
Exact Audio Copy V1.0 beta 3 from 29. August 2011

Отчёт EAC об извлечении, выполненном 26. сентября 2012, 8:59

Various / MYSTERIOUS VOYAGES – A Tribute To Weather Report / CD 1

Дисковод: PLEXTOR CD-R PREMIUM2 Adapter: 0 ID: 0

Режим чтения : Достоверность
Использование точного потока : Да
Отключение кэша аудио : Да
Использование указателей C2 : Нет

Коррекция смещения при чтении : 30
Способность читать области Lead-in и Lead-out : Нет
Заполнение пропущенных сэмплов тишиной : Да
Удаление блоков с тишиной в начале и конце : Нет
При вычислениях CRC использовались нулевые сэмплы : Да
Интерфейс : Установленный внешний ASPI-интерфейс

Выходной формат : Пользовательский кодировщик
Выбранный битрейт : 1024 kBit/s
Качество : Высокий
Добавление ID3-тега : Нет
Утилита сжатия : C:Program FilesExact Audio CopyFLACFLAC.EXE
Дополнительные параметры : -6 -V -T "ARTIST=%artist%" -T "TITLE=%title%" -T "ALBUM=%albumtitle%" -T "DATE=%year%" -T "TRACKNUMBER=%tracknr%" -T "GENRE=%genre%" -T "COMMENT=%comment%" -T "BAND=%albuminterpret%" -T "ALBUMARTIST=%albuminterpret%" -T "COMPOSER=%composer%" %haslyrics%–tag-from-file=LYRICS="%lyricsfile%"%haslyrics% -T "DISCNUMBER=%cdnumber%" -T "TOTALDISCS=%totalcds%" -T "TOTALTRACKS=%numtracks%" %hascover%–picture="%coverfile%"%hascover% %source% -o %dest%

TOC извлечённого CD

Трек | Старт | Длительность | Начальный сектор | Конечный сектор
––––––––––––––––––––––––––––––––––-
1 | 0:00.00 | 4:38.48 | 0 | 20897
2 | 4:38.48 | 4:56.50 | 20898 | 43147
3 | 9:35.23 | 4:12.45 | 43148 | 62092
4 | 13:47.68 | 7:57.00 | 62093 | 97867
5 | 21:44.68 | 5:30.00 | 97868 | 122617
6 | 27:14.68 | 4:44.15 | 122618 | 143932
7 | 31:59.08 | 7:40.00 | 143933 | 178432
8 | 39:39.08 | 9:11.00 | 178433 | 219757
9 | 48:50.08 | 7:17.00 | 219758 | 252532
10 | 56:07.08 | 8:29.08 | 252533 | 290715
11 | 64:36.16 | 6:09.49 | 290716 | 318439
12 | 70:45.65 | 4:52.03 | 318440 | 340342

Характеристики диапазона извлечения и сообщения об ошибках

Выбранный диапазон

Имя файла C:Documents and SettingsAnatolijМои документыTribute To Weather ReportVarious – MYSTERIOUS VOYAGES – A Tribute To Weather Report , CD 1.wav

Пиковый уровень 100.0 %
Скорость извлечения 6.3 X
Качество диапазона 100.0 %
CRC теста A9FA48FA
CRC копии A9FA48FA
Копирование… OK

Ошибок не произошло

AccurateRip: сводка

Трек 1 : извлечено точно (доверие 4) [6D0E0F05] (AR v1)
Трек 2 : извлечено точно (доверие 4) [316CB3B9] (AR v1)
Трек 3 : извлечено точно (доверие 4) [A91C1ABC] (AR v1)
Трек 4 : извлечено точно (доверие 4) [B3932649] (AR v1)
Трек 5 : извлечено точно (доверие 4) [17A0C6C7] (AR v1)
Трек 6 : извлечено точно (доверие 4) [276F076B] (AR v1)
Трек 7 : извлечено точно (доверие 5) [79307CF6] (AR v1)
Трек 8 : извлечено точно (доверие 4) [69982CC4] (AR v1)
Трек 9 : извлечено точно (доверие 4) [800C04E7] (AR v1)
Трек 10 : извлечено точно (доверие 4) [11C53C13] (AR v1)
Трек 11 : извлечено точно (доверие 4) [CBEA24CF] (AR v1)
Трек 12 : извлечено точно (доверие 4) [27F81317] (AR v1)

Все треки извлечены точно

Конец отчёта

–– CUETools DB Plugin V2.1.3

[CTDB TOCID: owO4DosEYhMGKmhAtYiE3G2otrs-] found, Submit result: already submitted
[22845413] (10/12) Accurately ripped
[735a85c6] (01/12) No match
[3d06418e] (01/12) No match

==== Контрольная сумма отчёта E8EA4FD41A3216EB2F9FC8B1D942375F8211FCBE9276329385147B3A802EFA88 ====

AR log CD1
[CUETools log; Date: 10.10.2017 2:15:14; Version: 2.1.4]
[CTDB TOCID: owO4DosEYhMGKmhAtYiE3G2otrs-] found.
Track | CTDB Status
1 | (15/16) Accurately ripped
2 | (16/16) Accurately ripped
3 | (16/16) Accurately ripped
4 | (15/16) Accurately ripped
5 | (16/16) Accurately ripped
6 | (15/16) Accurately ripped
7 | (15/16) Accurately ripped
8 | (15/16) Accurately ripped
9 | (15/16) Accurately ripped
10 | (16/16) Accurately ripped
11 | (16/16) Accurately ripped
12 | (13/16) Accurately ripped
[AccurateRip ID: 001fe71d-01319437-b711b90c] found.
Track [ CRC | V2 ] Status
01 [6d0e0f05|7ed99c9a] (07+03/17) Accurately ripped
02 [316cb3b9|9b690bb0] (07+04/18) Accurately ripped
03 [a91c1abc|8f15edd9] (07+04/18) Accurately ripped
04 [b3932649|bd2c3ccf] (07+04/18) Accurately ripped
05 [17a0c6c7|ebd8f411] (07+03/17) Accurately ripped
06 [276f076b|429cc014] (07+03/17) Accurately ripped
07 [79307cf6|d5d98344] (08+04/19) Accurately ripped
08 [69982cc4|57b0904c] (07+04/17) Accurately ripped
09 [800c04e7|64f8acd3] (07+04/18) Accurately ripped
10 [11c53c13|9cf38f8a] (07+04/18) Accurately ripped
11 [cbea24cf|18e9f692] (07+04/18) Accurately ripped
12 [27f81317|337b2d64] (06+03/16) Accurately ripped
Offsetted by -664:
01 [c6a51454] (04/17) Accurately ripped
02 [89af2616] (04/18) Accurately ripped
03 [eef35534] (04/18) Accurately ripped
04 [be639133] (04/18) Accurately ripped
05 [bad60e25] (04/17) Accurately ripped
06 [d443e958] (04/17) Accurately ripped
07 [729f7c5f] (04/19) Accurately ripped
08 [5d2ceaa1] (04/17) Accurately ripped
09 [7bface5c] (04/18) Accurately ripped
10 [75c9953f] (04/18) Accurately ripped
11 [6db38fef] (04/18) Accurately ripped
12 [c71b2d01] (04/16) Accurately ripped

Track Peak [ CRC32 ] [W/O NULL] [ LOG ]
– 100,0 [A9FA48FA] [0360ED4E] CRC32
01 99,9 [2DFB05C0] [9B02B5CD]
02 96,3 [EE741163] [CB0E3C80]
03 98,0 [8EA2059D] [8620A3C8]
04 94,4 [4C663D06] [699D835C]
05 100,0 [938AB884] [F9A959D9]
06 100,0 [D08259E0] [129458EA]
07 93,0 [746399C3] [0CCCE76B]
08 56,2 [5C89D850] [A2DCC6C3]
09 97,7 [09A1BF8B] [0D5A02BF]
10 97,7 [5BADF49D] [C9AAAA82]
11 72,4 [0BF3D82D] [9E638EFC]
12 92,2 [074F0AD3] [50C1F917]

DR log CD1
foobar2000 1.2 / Dynamic Range Meter 1.1.1
log date: 2017-10-10 02:51:44

––––––––––––––––––––––––––––––––––––––––
Analyzed: Various / MYSTERIOUS VOYAGES – A Tribute To Weather Report / CD 1
––––––––––––––––––––––––––––––––––––––––

DR Peak RMS Duration Track
––––––––––––––––––––––––––––––––––––––––
DR12 0.00 dB -13.66 dB 4:39 01-Scott Kinsey / Big Rock
DR12 -0.32 dB -14.50 dB 4:57 02-Marcus Miller / Teen Town
DR10 -0.17 dB -13.90 dB 4:13 03-Michiel Borstlap & Yuri Honing / Memory Of Enchantment
DR10 -0.50 dB -12.47 dB 7:57 04-Trinity / Weather Is Changing
DR14 0.00 dB -16.01 dB 5:30 05-Michael Wolff / Pinocchio
DR9 0.00 dB -13.78 dB 4:44 06-Tribal Tech / You May Remember Me
DR11 -0.63 dB -16.00 dB 7:40 07-John McLean / Three Views Of A Secret
DR8 -5.00 dB -16.37 dB 9:11 08-Kai Eckhardt / Queen Of Cups
DR10 -0.20 dB -13.08 dB 7:17 09-Angel Celada / Corner Pocket
DR11 -0.20 dB -13.48 dB 8:29 10-Richard S. & Vibe Tribe / Travels
DR13 -2.80 dB -18.69 dB 6:10 11-Rachel Z / On The Milky Way Express
DR10 -0.70 dB -14.23 dB 4:52 12-Gary Willis / Emancipation
––––––––––––––––––––––––––––––––––––––––

Number of tracks: 12
Official DR value: DR11

Samplerate: 44100 Hz
Channels: 2
Bits per sample: 16
Bitrate: 828 kbps
Codec: FLAC
================================================================================

EAC log CD2
Exact Audio Copy V1.0 beta 3 from 29. August 2011

Отчёт EAC об извлечении, выполненном 25. сентября 2012, 18:58

Various / MYSTERIOUS VOYAGES – A Tribute To Weather Report / CD 2

Дисковод: PLEXTOR CD-R PREMIUM2 Adapter: 0 ID: 0

Режим чтения : Достоверность
Использование точного потока : Да
Отключение кэша аудио : Да
Использование указателей C2 : Нет

Коррекция смещения при чтении : 30
Способность читать области Lead-in и Lead-out : Нет
Заполнение пропущенных сэмплов тишиной : Да
Удаление блоков с тишиной в начале и конце : Нет
При вычислениях CRC использовались нулевые сэмплы : Да
Интерфейс : Установленный внешний ASPI-интерфейс

Выходной формат : Пользовательский кодировщик
Выбранный битрейт : 1024 kBit/s
Качество : Высокий
Добавление ID3-тега : Нет
Утилита сжатия : C:Program FilesExact Audio CopyFLACFLAC.EXE
Дополнительные параметры : -6 -V -T "ARTIST=%artist%" -T "TITLE=%title%" -T "ALBUM=%albumtitle%" -T "DATE=%year%" -T "TRACKNUMBER=%tracknr%" -T "GENRE=%genre%" -T "COMMENT=%comment%" -T "BAND=%albuminterpret%" -T "ALBUMARTIST=%albuminterpret%" -T "COMPOSER=%composer%" %haslyrics%–tag-from-file=LYRICS="%lyricsfile%"%haslyrics% -T "DISCNUMBER=%cdnumber%" -T "TOTALDISCS=%totalcds%" -T "TOTALTRACKS=%numtracks%" %hascover%–picture="%coverfile%"%hascover% %source% -o %dest%

TOC извлечённого CD

Трек | Старт | Длительность | Начальный сектор | Конечный сектор
––––––––––––––––––––––––––––––––––-
1 | 0:00.00 | 6:18.00 | 0 | 28349
2 | 6:18.00 | 5:19.00 | 28350 | 52274
3 | 11:37.00 | 7:36.00 | 52275 | 86474
4 | 19:13.00 | 5:51.00 | 86475 | 112799
5 | 25:04.00 | 5:38.00 | 112800 | 138149
6 | 30:42.00 | 5:08.50 | 138150 | 161299
7 | 35:50.50 | 7:32.50 | 161300 | 195249
8 | 43:23.25 | 7:59.45 | 195250 | 231219
9 | 51:22.70 | 9:10.00 | 231220 | 272469
10 | 60:32.70 | 4:33.74 | 272470 | 293018
11 | 65:06.69 | 7:29.27 | 293019 | 326720
12 | 72:36.21 | 4:20.45 | 326721 | 346265

Характеристики диапазона извлечения и сообщения об ошибках

Выбранный диапазон

Имя файла C:Documents and SettingsAnatolijМои документыMysterious Voyages – A Tribute To Weather ReportVarious – MYSTERIOUS VOYAGES – A Tribute To Weather Report , CD 2.wav

Пиковый уровень 100.0 %
Скорость извлечения 11.3 X
Качество диапазона 100.0 %
CRC теста B6F25503
CRC копии B6F25503
Копирование… OK

Ошибок не произошло

AccurateRip: сводка

Трек 1 : извлечено точно (доверие 4) [69712B64] (AR v1)
Трек 2 : извлечено точно (доверие 4) [283DE4E5] (AR v1)
Трек 3 : извлечено точно (доверие 4) [2D2F1DB5] (AR v1)
Трек 4 : извлечено точно (доверие 4) [DBE61DD5] (AR v1)
Трек 5 : извлечено точно (доверие 4) [68CD6635] (AR v1)
Трек 6 : извлечено точно (доверие 4) [6B3AED47] (AR v1)
Трек 7 : извлечено точно (доверие 4) [7DE099EE] (AR v1)
Трек 8 : извлечено точно (доверие 4) [F4E5DAE8] (AR v1)
Трек 9 : извлечено точно (доверие 4) [347481AF] (AR v1)
Трек 10 : извлечено точно (доверие 4) [BEB18921] (AR v1)
Трек 11 : извлечено точно (доверие 4) [0B4A96D0] (AR v1)
Трек 12 : извлечено точно (доверие 4) [63AC732E] (AR v1)

Все треки извлечены точно

Конец отчёта

–– CUETools DB Plugin V2.1.3

[CTDB TOCID: 5FurPbWcciKPvXIiztmfwYJrejw-] found, Submit result: 5FurPbWcciKPvXIiztmfwYJrejw- has been confirmed
[36a9ce2e] (8/8) Accurately ripped

==== Контрольная сумма отчёта 31B001D8FC61CD499F72FF30511F5DD51E49773EA2099A952B412606A8752C6B ====

AR log CD2
[CUETools log; Date: 10.10.2017 2:15:52; Version: 2.1.4]
[CTDB TOCID: 5FurPbWcciKPvXIiztmfwYJrejw-] found.
Track | CTDB Status
1 | (13/14) Accurately ripped
2 | (13/14) Accurately ripped
3 | (13/14) Accurately ripped
4 | (13/14) Accurately ripped
5 | (14/14) Accurately ripped
6 | (14/14) Accurately ripped
7 | (14/14) Accurately ripped
8 | (13/14) Accurately ripped
9 | (14/14) Accurately ripped
10 | (13/14) Accurately ripped
11 | (13/14) Accurately ripped
12 | (14/14) Accurately ripped
[AccurateRip ID: 00223ec8-0141e019-ac12080c] found.
Track [ CRC | V2 ] Status
01 [69712b64|eefc152d] (07+05/17) Accurately ripped
02 [283de4e5|3caa7998] (07+05/17) Accurately ripped
03 [2d2f1db5|a81b3c51] (07+05/17) Accurately ripped
04 [dbe61dd5|96b2b027] (07+05/17) Accurately ripped
05 [68cd6635|1ba6de6f] (07+05/17) Accurately ripped
06 [6b3aed47|c1324fe5] (07+05/17) Accurately ripped
07 [7de099ee|7e0e38a0] (07+05/17) Accurately ripped
08 [f4e5dae8|9660eba0] (07+04/16) Accurately ripped
09 [347481af|0228341a] (07+05/17) Accurately ripped
10 [beb18921|487d3367] (07+05/18) Accurately ripped
11 [0b4a96d0|e9a9f5fd] (07+04/17) Accurately ripped
12 [63ac732e|1a73c49a] (07+04/17) Accurately ripped
Offsetted by -18:
01 [c28d44b4] (03/17) Accurately ripped
02 [ce906414] (03/17) Accurately ripped
03 [ee25b3e5] (03/17) Accurately ripped
04 [c7daed01] (03/17) Accurately ripped
05 [96ff9276] (03/17) Accurately ripped
06 [7b88fc1f] (03/17) Accurately ripped
07 [7e5fac8e] (03/17) Accurately ripped
08 [4c3280fc] (03/16) Accurately ripped
09 [7cbfad61] (03/17) Accurately ripped
10 [32b80b09] (03/18) Accurately ripped
11 [4bf90fbe] (03/17) Accurately ripped
12 [15000111] (03/17) Accurately ripped

Track Peak [ CRC32 ] [W/O NULL] [ LOG ]
– 100,0 [B6F25503] [B39DEBF2] CRC32
01 98,0 [76D6D6EC] [D0429979]
02 69,0 [2A874F20] [8071C67B]
03 93,0 [AFF8A01B] [43D15ED1]
04 99,8 [66A98DD4] [0F2FAA45]
05 100,0 [C720CCD1] [0A13B346]
06 100,0 [DB3A75B3] [F6B3802C]
07 98,8 [2EB6CF7E] [593EC1FD]
08 98,8 [0005239E] [FB298FC2]
09 100,0 [DDB4E526] [B5B6E9C5]
10 100,0 [E2C8F8D9] [B051AF1F]
11 95,5 [3E7EFA01] [E19EC372]
12 70,7 [AAA054A1] [5E7E2050]

DR log CD2
foobar2000 1.2 / Dynamic Range Meter 1.1.1
log date: 2017-10-10 02:52:20

––––––––––––––––––––––––––––––––––––––––
Analyzed: Various / MYSTERIOUS VOYAGES – A Tribute To Weather Report / CD 2
––––––––––––––––––––––––––––––––––––––––

DR Peak RMS Duration Track
––––––––––––––––––––––––––––––––––––––––
DR9 -0.17 dB -10.78 dB 6:18 01-White House / Bombay
DR12 -3.22 dB -18.15 dB 5:19 02-Terje Gewelt & Christian Jacob/ A Remark You Made
DR14 -0.62 dB -17.72 dB 7:36 03-Rocco Zifarelli / Havona
DR10 -0.01 dB -11.81 dB 5:51 04-Jim Beard / Fever
DR10 0.00 dB -13.01 dB 5:38 05-Acoustic Mania / Birdland
DR10 0.00 dB -12.70 dB 5:09 06-Torsten de Winkel /Janek Gwizdala / Audun Waage / Scarlet Woman
DR10 -0.10 dB -11.83 dB 7:33 07-Karizma /Palladium
DR12 -0.10 dB -13.39 dB 8:00 08-Tony Grey / White Woods
DR13 0.00 dB -15.60 dB 9:10 09-Alex Gunia / American Tango
DR11 0.00 dB -13.08 dB 4:34 10-Slop Shop / Overlook Hotel
DR11 -0.40 dB -12.98 dB 7:29 11-Mantra / Mysterious Traveller
DR10 -3.00 dB -14.79 dB 4:21 12-Clive Stevens / Beat 17
––––––––––––––––––––––––––––––––––––––––

Number of tracks: 12
Official DR value: DR11

Samplerate: 44100 Hz
Channels: 2
Bits per sample: 16
Bitrate: 834 kbps
Codec: FLAC
================================================================================

VA - Mysterious Voyages: A Tribute To Weather Report (2005) 2CDs

VA - Mysterious Voyages: A Tribute To Weather Report (2005) 2CDs

All thanks to original releaser – anatolij51

More interesting music in My Blog

Weather Report – Tale Spinnin’ (1975) [Audio Fidelity, Remastered 2016]

Weather Report – Heavy Weather (1977) [Audio Fidelity, Remastered 2017]

Weather Report – 8:30 (1979) [Remastered 1994]

VA – Mysterious Voyages: A Tribute To Weather Report (2005) 2CDs Download, Warez, DDL, Free, Full Album, Torrent, Legal.

Download