VA – Ministry Of Sound: Throwback Grooves (2017)

Download
VA - Ministry Of Sound: Throwback Grooves (2017)

VA – Ministry Of Sound: Throwback Grooves
EAC Rip | FLAC (tracks)+cue, log, m3u, front cover | 233:58 min | 1.57 GB
Label: Ministry Of Sound – MOSCD479 | Tracks: 60 | Rls.date: 2017
Soul, R&B, Pop

Ministry of Sound’s biggest retrospective series is back and bigger than ever. The biggest dance label in the world presents Throwback Grooves, 3CDS of the smoothest feel good jamz.

Unwrap the greatest triple boxset of old skool classics and liquid feel-good grooves. Featuring Destiny’s Child, Soul II Soul, TLC, Mary J Blige, The Brand New Heavies, Whitney Houston, Chaka Khan and loads more.

This is the only boxset you need for an unforgettable gift this Mother’s Day.

TRACKLIST

Disc 1
1. Soul II Soul – Back To Life
2. Destiny’s Child – No, No, No Part 2 (feat. Wyclef Jean)
3. Mary J. Blige – Real Love
4. Gabrielle – Dreams
5. Des’ree – You Gotta Be
6. The Brand New Heavies – Dream On Dreamer
7. Neneh Cherry – Buffalo Stance
8. Shola Ama – You’re The One I Love (C&J Original Edit)
9. Eternal – Just A Step From Heaven
10. Sounds Of Blackness – Optimistic
11. Arrested Development – People Everyday (Metamorphosis Mix)
12. Driza Bone – Real Love
13. Incognito – Dont You Worry Bout A Thing
14. Young Disciples – Apparently Nothing
15. Beverley Knight – Flavour Of The Old School
16. Shanice – I Love Your Smile
17. Michelle Gayle – Sweetness
18. Groove Theory – Tell Me
19. Sweetbox – Everything’s Gonna Be Alright
20. Chantay Savage – I Will Survive

EAC Log
Exact Audio Copy V1.1 from 23. June 2015

EAC extraction logfile from 8. May 2017, 12:48

Various Artists / Throwback Groove CD1

Used drive : slimtype eTDU108 1 Adapter: 1 ID: 0

Read mode : Secure
Utilize accurate stream : Yes
Defeat audio cache : Yes
Make use of C2 pointers : No

Read offset correction : 6
Overread into Lead-In and Lead-Out : No
Fill up missing offset samples with silence : Yes
Delete leading and trailing silent blocks : No
Null samples used in CRC calculations : Yes
Used interface : Native Win32 interface for Win NT & 2000
Gap handling : Appended to previous track

Used output format : User Defined Encoder
Selected bitrate : 1024 kBit/s
Quality : High
Add ID3 tag : No
Command line compressor : C:Program Files (x86)Exact Audio CopyFlacflac.exe
Additional command line options : -8 -e -V -T "ARTIST=%artist%" -T "TITLE=%title%" -T "ALBUM=%albumtitle%" -T "DATE=%year%" -T "TRACKNUMBER=%tracknr%" -T "GENRE=%genre%" -T "PERFORMER=%albuminterpret%" -T "COMPOSER=%composer%" %haslyrics%–tag-from-file=LYRICS="%lyricsfile%"%haslyrics% -T "ALBUMARTIST=%albumartist%" -T "DISCNUMBER=%cdnumber%" -T "TOTALDISCS=%totalcds%" -T "TOTALTRACKS=%numtracks%" -T "COMMENT=%comment%" %source% -o %dest%

TOC of the extracted CD

Track | Start | Length | Start sector | End sector
––––––––––––––––––––––––––––-
1 | 0:00.00 | 3:44.05 | 0 | 16804
2 | 3:44.05 | 3:25.52 | 16805 | 32231
3 | 7:09.57 | 4:22.61 | 32232 | 51942
4 | 11:32.43 | 3:39.19 | 51943 | 68386
5 | 15:11.62 | 3:54.42 | 68387 | 85978
6 | 19:06.29 | 3:31.67 | 85979 | 101870
7 | 22:38.21 | 4:00.41 | 101871 | 119911
8 | 26:38.62 | 3:47.21 | 119912 | 136957
9 | 30:26.08 | 3:51.13 | 136958 | 154295
10 | 34:17.21 | 3:41.03 | 154296 | 170873
11 | 37:58.24 | 4:46.50 | 170874 | 192373
12 | 42:44.74 | 3:44.33 | 192374 | 209206
13 | 46:29.32 | 4:06.40 | 209207 | 227696
14 | 50:35.72 | 3:56.24 | 227697 | 245420
15 | 54:32.21 | 4:08.41 | 245421 | 264061
16 | 58:40.62 | 3:44.12 | 264062 | 280873
17 | 62:24.74 | 3:35.24 | 280874 | 297022
18 | 66:00.23 | 3:52.07 | 297023 | 314429
19 | 69:52.30 | 3:09.07 | 314430 | 328611
20 | 73:01.37 | 4:08.66 | 328612 | 347277

Track 1

Filename C:My MusicVarious Artists – Ministry of Sound – Throwback Groove [2017][flac][CD]CD11 – Track01.wav

Pre-gap length 0:00:02.00

Peak level 98.8 %
Extraction speed 2.2 X
Track quality 99.9 %
Test CRC DE6F9E55
Copy CRC DE6F9E55
Accurately ripped (confidence 1) [1309BCFF] (AR v2)
Copy OK

Track 2

Filename C:My MusicVarious Artists – Ministry of Sound – Throwback Groove [2017][flac][CD]CD12 – Track02.wav

Peak level 98.8 %
Extraction speed 3.0 X
Track quality 100.0 %
Test CRC 157FFE5D
Copy CRC 157FFE5D
Accurately ripped (confidence 1) [C6CC41F0] (AR v2)
Copy OK

Track 3

Filename C:My MusicVarious Artists – Ministry of Sound – Throwback Groove [2017][flac][CD]CD13 – Track03.wav

Peak level 98.8 %
Extraction speed 3.3 X
Track quality 100.0 %
Test CRC 80639A61
Copy CRC 80639A61
Accurately ripped (confidence 1) [1452C26D] (AR v2)
Copy OK

Track 4

Filename C:My MusicVarious Artists – Ministry of Sound – Throwback Groove [2017][flac][CD]CD14 – Track04.wav

Peak level 98.8 %
Extraction speed 3.5 X
Track quality 100.0 %
Test CRC 2DF323BB
Copy CRC 2DF323BB
Accurately ripped (confidence 1) [5306E609] (AR v2)
Copy OK

Track 5

Filename C:My MusicVarious Artists – Ministry of Sound – Throwback Groove [2017][flac][CD]CD15 – Track05.wav

Peak level 92.1 %
Extraction speed 3.7 X
Track quality 100.0 %
Test CRC 90034CD7
Copy CRC 90034CD7
Accurately ripped (confidence 1) [F679D2D9] (AR v2)
Copy OK

Track 6

Filename C:My MusicVarious Artists – Ministry of Sound – Throwback Groove [2017][flac][CD]CD16 – Track06.wav

Peak level 98.8 %
Extraction speed 3.8 X
Track quality 100.0 %
Test CRC 0C69C8D0
Copy CRC 0C69C8D0
Accurately ripped (confidence 1) [8AA82433] (AR v2)
Copy OK

Track 7

Filename C:My MusicVarious Artists – Ministry of Sound – Throwback Groove [2017][flac][CD]CD17 – Track07.wav

Peak level 98.8 %
Extraction speed 4.2 X
Track quality 100.0 %
Test CRC 2297AF1B
Copy CRC 2297AF1B
Accurately ripped (confidence 1) [13D00994] (AR v2)
Copy OK

Track 8

Filename C:My MusicVarious Artists – Ministry of Sound – Throwback Groove [2017][flac][CD]CD18 – Track08.wav

Peak level 98.8 %
Extraction speed 4.2 X
Track quality 100.0 %
Test CRC 1AD00EC1
Copy CRC 1AD00EC1
Accurately ripped (confidence 1) [E736138F] (AR v2)
Copy OK

Track 9

Filename C:My MusicVarious Artists – Ministry of Sound – Throwback Groove [2017][flac][CD]CD19 – Track09.wav

Peak level 98.8 %
Extraction speed 4.3 X
Track quality 100.0 %
Test CRC C142C26A
Copy CRC C142C26A
Accurately ripped (confidence 1) [5F279707] (AR v2)
Copy OK

Track 10

Filename C:My MusicVarious Artists – Ministry of Sound – Throwback Groove [2017][flac][CD]CD110 – Track10.wav

Peak level 98.8 %
Extraction speed 4.5 X
Track quality 100.0 %
Test CRC D1E5675C
Copy CRC D1E5675C
Accurately ripped (confidence 1) [8E358033] (AR v2)
Copy OK

Track 11

Filename C:My MusicVarious Artists – Ministry of Sound – Throwback Groove [2017][flac][CD]CD111 – Track11.wav

Peak level 98.8 %
Extraction speed 4.8 X
Track quality 100.0 %
Test CRC F330AFA7
Copy CRC F330AFA7
Accurately ripped (confidence 1) [593EC93C] (AR v2)
Copy OK

Track 12

Filename C:My MusicVarious Artists – Ministry of Sound – Throwback Groove [2017][flac][CD]CD112 – Track12.wav

Peak level 98.8 %
Extraction speed 3.7 X
Track quality 99.9 %
Test CRC A0A6BCCE
Copy CRC A0A6BCCE
Accurately ripped (confidence 1) [9E248A9F] (AR v2)
Copy OK

Track 13

Filename C:My MusicVarious Artists – Ministry of Sound – Throwback Groove [2017][flac][CD]CD113 – Track13.wav

Peak level 98.8 %
Extraction speed 5.0 X
Track quality 100.0 %
Test CRC 8759D21A
Copy CRC 8759D21A
Accurately ripped (confidence 1) [03BC2907] (AR v2)
Copy OK

Track 14

Filename C:My MusicVarious Artists – Ministry of Sound – Throwback Groove [2017][flac][CD]CD114 – Track14.wav

Peak level 98.8 %
Extraction speed 5.1 X
Track quality 100.0 %
Test CRC 24E56F77
Copy CRC 24E56F77
Accurately ripped (confidence 1) [444D3EEE] (AR v2)
Copy OK

Track 15

Filename C:My MusicVarious Artists – Ministry of Sound – Throwback Groove [2017][flac][CD]CD115 – Track15.wav

Peak level 98.8 %
Extraction speed 5.3 X
Track quality 100.0 %
Test CRC 951628CB
Copy CRC 951628CB
Accurately ripped (confidence 1) [E6A68C88] (AR v2)
Copy OK

Track 16

Filename C:My MusicVarious Artists – Ministry of Sound – Throwback Groove [2017][flac][CD]CD116 – Track16.wav

Peak level 98.8 %
Extraction speed 5.3 X
Track quality 100.0 %
Test CRC ADC1511A
Copy CRC ADC1511A
Accurately ripped (confidence 1) [4C32418E] (AR v2)
Copy OK

Track 17

Filename C:My MusicVarious Artists – Ministry of Sound – Throwback Groove [2017][flac][CD]CD117 – Track17.wav

Peak level 98.8 %
Extraction speed 5.4 X
Track quality 100.0 %
Test CRC 282DBFCA
Copy CRC 282DBFCA
Accurately ripped (confidence 1) [533F5706] (AR v2)
Copy OK

Track 18

Filename C:My MusicVarious Artists – Ministry of Sound – Throwback Groove [2017][flac][CD]CD118 – Track18.wav

Peak level 98.8 %
Extraction speed 4.3 X
Track quality 99.9 %
Test CRC 15464368
Copy CRC 15464368
Accurately ripped (confidence 1) [D5055DF8] (AR v2)
Copy OK

Track 19

Filename C:My MusicVarious Artists – Ministry of Sound – Throwback Groove [2017][flac][CD]CD119 – Track19.wav

Peak level 98.8 %
Extraction speed 5.5 X
Track quality 100.0 %
Test CRC EA27095D
Copy CRC EA27095D
Accurately ripped (confidence 1) [AF86FB99] (AR v2)
Copy OK

Track 20

Filename C:My MusicVarious Artists – Ministry of Sound – Throwback Groove [2017][flac][CD]CD120 – Track20.wav

Peak level 98.8 %
Extraction speed 5.8 X
Track quality 100.0 %
Test CRC C8CA96A6
Copy CRC C8CA96A6
Accurately ripped (confidence 1) [D865417F] (AR v2)
Copy OK

All tracks accurately ripped

No errors occurred

End of status report

==== Log checksum 22CC700D56632BB96B8A9EFC84FDE0D904FB25F9D96D694669AA82CAD25A50CE ====

Disc 2
1. TLC – Waterfalls
2. SWV – I’m So Into You
3. Brownstone – If You Love Me
4. Whitney Houston – My Love Is Your Love
5. Angie Stone – Wish I Didn’t Miss You
6. Jade – Don’t Walk Away
7. Aaliyah – Back & Forth
8. LL Cool J. – Hey Lover (feat. Boyz II Men)
9. Monica – Don’t Take It Personal (Just One Of Dem Days)
10. Toni Braxton – Another Sad Love Song
11. Brandy – I Wanna Be Down
12. The Cover Girls – Wishing On A Star
13. Donell Jones – U Know What’s Up
14. D’Angelo – Brown Sugar
15. Jill Scott – Getting In The Way
16. Omar – There’s Nothing Like This
17. Sade – Paradise
18. Tatyana Ali – Boy You Knock Me Out
19. Marvin Gaye – Let’s Get It On (Da Producers Mpg Groove Mix)
20. R. Kelly – Happy People

EAC Log
Exact Audio Copy V1.1 from 23. June 2015

EAC extraction logfile from 8. May 2017, 13:31

Various Artists / Throwback Grooves CD2

Used drive : slimtype eTDU108 1 Adapter: 1 ID: 0

Read mode : Secure
Utilize accurate stream : Yes
Defeat audio cache : Yes
Make use of C2 pointers : No

Read offset correction : 6
Overread into Lead-In and Lead-Out : No
Fill up missing offset samples with silence : Yes
Delete leading and trailing silent blocks : No
Null samples used in CRC calculations : Yes
Used interface : Native Win32 interface for Win NT & 2000
Gap handling : Appended to previous track

Used output format : User Defined Encoder
Selected bitrate : 1024 kBit/s
Quality : High
Add ID3 tag : No
Command line compressor : C:Program Files (x86)Exact Audio CopyFlacflac.exe
Additional command line options : -8 -e -V -T "ARTIST=%artist%" -T "TITLE=%title%" -T "ALBUM=%albumtitle%" -T "DATE=%year%" -T "TRACKNUMBER=%tracknr%" -T "GENRE=%genre%" -T "PERFORMER=%albuminterpret%" -T "COMPOSER=%composer%" %haslyrics%–tag-from-file=LYRICS="%lyricsfile%"%haslyrics% -T "ALBUMARTIST=%albumartist%" -T "DISCNUMBER=%cdnumber%" -T "TOTALDISCS=%totalcds%" -T "TOTALTRACKS=%numtracks%" -T "COMMENT=%comment%" %source% -o %dest%

TOC of the extracted CD

Track | Start | Length | Start sector | End sector
––––––––––––––––––––––––––––-
1 | 0:00.00 | 3:32.67 | 0 | 15966
2 | 3:32.67 | 4:31.41 | 15967 | 36332
3 | 8:04.33 | 3:11.07 | 36333 | 50664
4 | 11:15.40 | 3:53.35 | 50665 | 68174
5 | 15:09.00 | 3:56.21 | 68175 | 85895
6 | 19:05.21 | 3:32.27 | 85896 | 101822
7 | 22:37.48 | 3:44.56 | 101823 | 118678
8 | 26:22.29 | 4:02.18 | 118679 | 136846
9 | 30:24.47 | 4:10.31 | 136847 | 155627
10 | 34:35.03 | 3:47.00 | 155628 | 172652
11 | 38:22.03 | 4:01.31 | 172653 | 190758
12 | 42:23.34 | 4:40.14 | 190759 | 211772
13 | 47:03.48 | 4:00.06 | 211773 | 229778
14 | 51:03.54 | 4:17.20 | 229779 | 249073
15 | 55:20.74 | 3:52.69 | 249074 | 266542
16 | 59:13.68 | 3:59.15 | 266543 | 284482
17 | 63:13.08 | 3:32.20 | 284483 | 300402
18 | 66:45.28 | 3:58.37 | 300403 | 318289
19 | 70:43.65 | 4:20.66 | 318290 | 337855
20 | 75:04.56 | 4:12.29 | 337856 | 356784

Track 1

Filename C:My MusicVarious Artists – Ministry of Sound – Throwback Groove [2017][flac][CD]CD221 – Track01.wav

Pre-gap length 0:00:02.00

Peak level 98.1 %
Extraction speed 2.8 X
Track quality 100.0 %
Test CRC B61E9696
Copy CRC B61E9696
Track not present in AccurateRip database
Copy OK

Track 2

Filename C:My MusicVarious Artists – Ministry of Sound – Throwback Groove [2017][flac][CD]CD222 – Track02.wav

Peak level 98.8 %
Extraction speed 2.6 X
Track quality 99.9 %
Test CRC 29E67405
Copy CRC 29E67405
Track not present in AccurateRip database
Copy OK

Track 3

Filename C:My MusicVarious Artists – Ministry of Sound – Throwback Groove [2017][flac][CD]CD223 – Track03.wav

Peak level 98.8 %
Extraction speed 3.3 X
Track quality 100.0 %
Test CRC FC5E18FD
Copy CRC FC5E18FD
Track not present in AccurateRip database
Copy OK

Track 4

Filename C:My MusicVarious Artists – Ministry of Sound – Throwback Groove [2017][flac][CD]CD224 – Track04.wav

Peak level 98.8 %
Extraction speed 3.5 X
Track quality 100.0 %
Test CRC 688C5B56
Copy CRC 688C5B56
Track not present in AccurateRip database
Copy OK

Track 5

Filename C:My MusicVarious Artists – Ministry of Sound – Throwback Groove [2017][flac][CD]CD225 – Track05.wav

Peak level 98.8 %
Extraction speed 3.7 X
Track quality 100.0 %
Test CRC 777C68F2
Copy CRC 777C68F2
Track not present in AccurateRip database
Copy OK

Track 6

Filename C:My MusicVarious Artists – Ministry of Sound – Throwback Groove [2017][flac][CD]CD226 – Track06.wav

Peak level 98.8 %
Extraction speed 3.9 X
Track quality 100.0 %
Test CRC BFCA3813
Copy CRC BFCA3813
Track not present in AccurateRip database
Copy OK

Track 7

Filename C:My MusicVarious Artists – Ministry of Sound – Throwback Groove [2017][flac][CD]CD227 – Track07.wav

Peak level 98.8 %
Extraction speed 3.1 X
Track quality 99.9 %
Test CRC 0FA4E126
Copy CRC 0FA4E126
Track not present in AccurateRip database
Copy OK

Track 8

Filename C:My MusicVarious Artists – Ministry of Sound – Throwback Groove [2017][flac][CD]CD228 – Track08.wav

Peak level 98.8 %
Extraction speed 4.2 X
Track quality 100.0 %
Test CRC 42F94269
Copy CRC 42F94269
Track not present in AccurateRip database
Copy OK

Track 9

Filename C:My MusicVarious Artists – Ministry of Sound – Throwback Groove [2017][flac][CD]CD229 – Track09.wav

Peak level 98.8 %
Extraction speed 4.4 X
Track quality 100.0 %
Test CRC 8CABAB84
Copy CRC 8CABAB84
Track not present in AccurateRip database
Copy OK

Track 10

Filename C:My MusicVarious Artists – Ministry of Sound – Throwback Groove [2017][flac][CD]CD230 – Track10.wav

Peak level 98.8 %
Extraction speed 4.5 X
Track quality 100.0 %
Test CRC AC4AB623
Copy CRC AC4AB623
Track not present in AccurateRip database
Copy OK

Track 11

Filename C:My MusicVarious Artists – Ministry of Sound – Throwback Groove [2017][flac][CD]CD231 – Track11.wav

Peak level 98.8 %
Extraction speed 4.7 X
Track quality 100.0 %
Test CRC B70408D8
Copy CRC B70408D8
Track not present in AccurateRip database
Copy OK

Track 12

Filename C:My MusicVarious Artists – Ministry of Sound – Throwback Groove [2017][flac][CD]CD232 – Track12.wav

Peak level 98.8 %
Extraction speed 4.0 X
Track quality 99.9 %
Test CRC 945ECD32
Copy CRC 945ECD32
Track not present in AccurateRip database
Copy OK

Track 13

Filename C:My MusicVarious Artists – Ministry of Sound – Throwback Groove [2017][flac][CD]CD233 – Track13.wav

Peak level 98.8 %
Extraction speed 5.0 X
Track quality 100.0 %
Test CRC 129320E3
Copy CRC 129320E3
Track not present in AccurateRip database
Copy OK

Track 14

Filename C:My MusicVarious Artists – Ministry of Sound – Throwback Groove [2017][flac][CD]CD234 – Track14.wav

Peak level 98.8 %
Extraction speed 4.1 X
Track quality 99.9 %
Test CRC E40B20F1
Copy CRC E40B20F1
Track not present in AccurateRip database
Copy OK

Track 15

Filename C:My MusicVarious Artists – Ministry of Sound – Throwback Groove [2017][flac][CD]CD235 – Track15.wav

Peak level 98.8 %
Extraction speed 5.2 X
Track quality 100.0 %
Test CRC E3F8F41F
Copy CRC E3F8F41F
Track not present in AccurateRip database
Copy OK

Track 16

Filename C:My MusicVarious Artists – Ministry of Sound – Throwback Groove [2017][flac][CD]CD236 – Track16.wav

Peak level 98.8 %
Extraction speed 5.4 X
Track quality 100.0 %
Test CRC 57A335B1
Copy CRC 57A335B1
Track not present in AccurateRip database
Copy OK

Track 17

Filename C:My MusicVarious Artists – Ministry of Sound – Throwback Groove [2017][flac][CD]CD237 – Track17.wav

Peak level 98.8 %
Extraction speed 5.5 X
Track quality 100.0 %
Test CRC 11214AF2
Copy CRC 11214AF2
Track not present in AccurateRip database
Copy OK

Track 18

Filename C:My MusicVarious Artists – Ministry of Sound – Throwback Groove [2017][flac][CD]CD238 – Track18.wav

Peak level 98.8 %
Extraction speed 5.7 X
Track quality 100.0 %
Test CRC A50C94A2
Copy CRC A50C94A2
Track not present in AccurateRip database
Copy OK

Track 19

Filename C:My MusicVarious Artists – Ministry of Sound – Throwback Groove [2017][flac][CD]CD239 – Track19.wav

Peak level 98.8 %
Extraction speed 5.8 X
Track quality 100.0 %
Test CRC 5746FF57
Copy CRC 5746FF57
Track not present in AccurateRip database
Copy OK

Track 20

Filename C:My MusicVarious Artists – Ministry of Sound – Throwback Groove [2017][flac][CD]CD240 – Track20.wav

Peak level 98.8 %
Extraction speed 5.9 X
Track quality 100.0 %
Test CRC E2B931FB
Copy CRC E2B931FB
Track not present in AccurateRip database
Copy OK

None of the tracks are present in the AccurateRip database

No errors occurred

End of status report

==== Log checksum 1D7F06FC1AE71C5772C49B1DC411563660F1673BF9AC4E3DFF5087C4249A8AAF ====

Disc 3
1. Michael Jackson – Rock With You
2. Luther Vandross – Never Too Much
3. Chaka Khan – Ain’t Nobody
4. Alexander O’Neal – Criticize
5. Mac Band – Roses Are Red
6. The Fatback Band – I Found lovin
7. Dennis Edwards – Don’t Look Any Further (feat. Siedah Garrett)
8. Toto – Georgy Porgy
9. Nu Shooz – I Can’t Wait
10. Terence Trent D’Arby – Sing Your Name
11. Joyce Sims – Come Into My Life
12. Al B. Sure! – Nite And Day
13. The Gap Band – Outstanding
14. Mary Jane Girls – All Night Long
15. Jocelyn Brown – Somebody Else’s Guy
16. Loose Ends – Hangin On A String (Contemplating)
17. S.O.S. Band – The Finest
18. Juicy – Sugar Free
19. Mtume – Juicy Fruit
20. Earth, Wind & Fire – Fantasy

EAC Log
Exact Audio Copy V1.1 from 23. June 2015

EAC extraction logfile from 8. May 2017, 14:25

Various Artists / Throwback Grooves CD3

Used drive : slimtype eTDU108 1 Adapter: 1 ID: 0

Read mode : Secure
Utilize accurate stream : Yes
Defeat audio cache : Yes
Make use of C2 pointers : No

Read offset correction : 6
Overread into Lead-In and Lead-Out : No
Fill up missing offset samples with silence : Yes
Delete leading and trailing silent blocks : No
Null samples used in CRC calculations : Yes
Used interface : Native Win32 interface for Win NT & 2000
Gap handling : Appended to previous track

Used output format : User Defined Encoder
Selected bitrate : 1024 kBit/s
Quality : High
Add ID3 tag : No
Command line compressor : C:Program Files (x86)Exact Audio CopyFlacflac.exe
Additional command line options : -8 -e -V -T "ARTIST=%artist%" -T "TITLE=%title%" -T "ALBUM=%albumtitle%" -T "DATE=%year%" -T "TRACKNUMBER=%tracknr%" -T "GENRE=%genre%" -T "PERFORMER=%albuminterpret%" -T "COMPOSER=%composer%" %haslyrics%–tag-from-file=LYRICS="%lyricsfile%"%haslyrics% -T "ALBUMARTIST=%albumartist%" -T "DISCNUMBER=%cdnumber%" -T "TOTALDISCS=%totalcds%" -T "TOTALTRACKS=%numtracks%" -T "COMMENT=%comment%" %source% -o %dest%

TOC of the extracted CD

Track | Start | Length | Start sector | End sector
––––––––––––––––––––––––––––-
1 | 0:00.00 | 3:21.52 | 0 | 15126
2 | 3:21.52 | 3:48.08 | 15127 | 32234
3 | 7:09.60 | 3:46.48 | 32235 | 49232
4 | 10:56.33 | 4:01.05 | 49233 | 67312
5 | 14:57.38 | 4:16.67 | 67313 | 86579
6 | 19:14.30 | 4:05.59 | 86580 | 105013
7 | 23:20.14 | 4:02.04 | 105014 | 123167
8 | 27:22.18 | 4:02.14 | 123168 | 141331
9 | 31:24.32 | 3:36.64 | 141332 | 157595
10 | 35:01.21 | 4:30.42 | 157596 | 177887
11 | 39:31.63 | 3:22.14 | 177888 | 193051
12 | 42:54.02 | 3:55.06 | 193052 | 210682
13 | 46:49.08 | 3:14.70 | 210683 | 225302
14 | 50:04.03 | 3:59.26 | 225303 | 243253
15 | 54:03.29 | 3:51.14 | 243254 | 260592
16 | 57:54.43 | 3:34.53 | 260593 | 276695
17 | 61:29.21 | 4:38.01 | 276696 | 297546
18 | 66:07.22 | 4:25.23 | 297547 | 317444
19 | 70:32.45 | 3:44.71 | 317445 | 334315
20 | 74:17.41 | 3:38.38 | 334316 | 350703

Track 1

Filename C:My MusicVarious Artists – Ministry of Sound – Throwback Groove [2017][flac][CD]CD341 – Track01.wav

Pre-gap length 0:00:02.00

Peak level 98.8 %
Extraction speed 2.7 X
Track quality 100.0 %
Test CRC 0AB0D2C8
Copy CRC 0AB0D2C8
Track not present in AccurateRip database
Copy OK

Track 2

Filename C:My MusicVarious Artists – Ministry of Sound – Throwback Groove [2017][flac][CD]CD342 – Track02.wav

Peak level 98.8 %
Extraction speed 3.0 X
Track quality 100.0 %
Test CRC 03373266
Copy CRC 03373266
Track not present in AccurateRip database
Copy OK

Track 3

Filename C:My MusicVarious Artists – Ministry of Sound – Throwback Groove [2017][flac][CD]CD343 – Track03.wav

Peak level 98.8 %
Extraction speed 3.2 X
Track quality 100.0 %
Test CRC AA48D335
Copy CRC AA48D335
Track not present in AccurateRip database
Copy OK

Track 4

Filename C:My MusicVarious Artists – Ministry of Sound – Throwback Groove [2017][flac][CD]CD344 – Track04.wav

Peak level 98.8 %
Extraction speed 3.5 X
Track quality 100.0 %
Test CRC DDDB8B05
Copy CRC DDDB8B05
Track not present in AccurateRip database
Copy OK

Track 5

Filename C:My MusicVarious Artists – Ministry of Sound – Throwback Groove [2017][flac][CD]CD345 – Track05.wav

Peak level 98.8 %
Extraction speed 3.7 X
Track quality 100.0 %
Test CRC 51BE4FA8
Copy CRC 51BE4FA8
Track not present in AccurateRip database
Copy OK

Track 6

Filename C:My MusicVarious Artists – Ministry of Sound – Throwback Groove [2017][flac][CD]CD346 – Track06.wav

Peak level 98.8 %
Extraction speed 3.9 X
Track quality 100.0 %
Test CRC 29122BDF
Copy CRC 29122BDF
Track not present in AccurateRip database
Copy OK

Track 7

Filename C:My MusicVarious Artists – Ministry of Sound – Throwback Groove [2017][flac][CD]CD347 – Track07.wav

Peak level 98.8 %
Extraction speed 4.1 X
Track quality 100.0 %
Test CRC F0B694B8
Copy CRC F0B694B8
Track not present in AccurateRip database
Copy OK

Track 8

Filename C:My MusicVarious Artists – Ministry of Sound – Throwback Groove [2017][flac][CD]CD348 – Track08.wav

Peak level 98.8 %
Extraction speed 4.3 X
Track quality 100.0 %
Test CRC B7E82953
Copy CRC B7E82953
Track not present in AccurateRip database
Copy OK

Track 9

Filename C:My MusicVarious Artists – Ministry of Sound – Throwback Groove [2017][flac][CD]CD349 – Track09.wav

Peak level 98.8 %
Extraction speed 4.3 X
Track quality 100.0 %
Test CRC 95E1327A
Copy CRC 95E1327A
Track not present in AccurateRip database
Copy OK

Track 10

Filename C:My MusicVarious Artists – Ministry of Sound – Throwback Groove [2017][flac][CD]CD350 – Track10.wav

Peak level 98.8 %
Extraction speed 3.7 X
Track quality 99.9 %
Test CRC 66A0E1EF
Copy CRC 66A0E1EF
Track not present in AccurateRip database
Copy OK

Track 11

Filename C:My MusicVarious Artists – Ministry of Sound – Throwback Groove [2017][flac][CD]CD351 – Track11.wav

Peak level 98.8 %
Extraction speed 3.5 X
Track quality 99.9 %
Test CRC 12B3F6AD
Copy CRC 12B3F6AD
Track not present in AccurateRip database
Copy OK

Track 12

Filename C:My MusicVarious Artists – Ministry of Sound – Throwback Groove [2017][flac][CD]CD352 – Track12.wav

Peak level 98.8 %
Extraction speed 4.8 X
Track quality 100.0 %
Test CRC 98DE3726
Copy CRC 98DE3726
Track not present in AccurateRip database
Copy OK

Track 13

Filename C:My MusicVarious Artists – Ministry of Sound – Throwback Groove [2017][flac][CD]CD353 – Track13.wav

Peak level 98.8 %
Extraction speed 4.8 X
Track quality 100.0 %
Test CRC 97A53641
Copy CRC 97A53641
Track not present in AccurateRip database
Copy OK

Track 14

Filename C:My MusicVarious Artists – Ministry of Sound – Throwback Groove [2017][flac][CD]CD354 – Track14.wav

Peak level 98.8 %
Extraction speed 4.0 X
Track quality 99.9 %
Test CRC 04BB2C6E
Copy CRC 04BB2C6E
Track not present in AccurateRip database
Copy OK

Track 15

Filename C:My MusicVarious Artists – Ministry of Sound – Throwback Groove [2017][flac][CD]CD355 – Track15.wav

Peak level 98.8 %
Extraction speed 5.2 X
Track quality 100.0 %
Test CRC D9866CE4
Copy CRC D9866CE4
Track not present in AccurateRip database
Copy OK

Track 16

Filename C:My MusicVarious Artists – Ministry of Sound – Throwback Groove [2017][flac][CD]CD356 – Track16.wav

Peak level 98.8 %
Extraction speed 5.3 X
Track quality 100.0 %
Test CRC ADBEF752
Copy CRC ADBEF752
Track not present in AccurateRip database
Copy OK

Track 17

Filename C:My MusicVarious Artists – Ministry of Sound – Throwback Groove [2017][flac][CD]CD357 – Track17.wav

Peak level 98.8 %
Extraction speed 5.6 X
Track quality 100.0 %
Test CRC B2F044F0
Copy CRC B2F044F0
Track not present in AccurateRip database
Copy OK

Track 18

Filename C:My MusicVarious Artists – Ministry of Sound – Throwback Groove [2017][flac][CD]CD358 – Track18.wav

Peak level 98.8 %
Extraction speed 5.6 X
Track quality 100.0 %
Test CRC 36F28788
Copy CRC 36F28788
Track not present in AccurateRip database
Copy OK

Track 19

Filename C:My MusicVarious Artists – Ministry of Sound – Throwback Groove [2017][flac][CD]CD359 – Track19.wav

Peak level 98.8 %
Extraction speed 5.7 X
Track quality 100.0 %
Test CRC F2A7F3CA
Copy CRC F2A7F3CA
Track not present in AccurateRip database
Copy OK

Track 20

Filename C:My MusicVarious Artists – Ministry of Sound – Throwback Groove [2017][flac][CD]CD360 – Track20.wav

Peak level 98.8 %
Extraction speed 5.7 X
Track quality 100.0 %
Test CRC CD8DA335
Copy CRC CD8DA335
Track not present in AccurateRip database
Copy OK

None of the tracks are present in the AccurateRip database

No errors occurred

End of status report

==== Log checksum 500D7224299A76460E4BA2BF6F368F28560BBEECAC63D57850ABBC1D2BB5BE55 ====

Thanks to the Original customer.

VA – Ministry Of Sound: Throwback Grooves (2017) Download, Warez, DDL, Free, Full Album, Torrent, Legal.

Download