VA – Jazzflora: Scandinavian Aspects Of Jazz (2004)

Download
VA - Jazzflora: Scandinavian Aspects Of Jazz (2004)

VA – Jazzflora: Scandinavian Aspects Of Jazz (2004)
EAC Rip | FLAC (Tracks) +CUE, LOG | 462 MB | Covers Included
Genre: Future Jazz / Electronic | Label: DNM | Catalog Number: DNMCD004

Great little introduction to what our friends in Scandanavia are doing musically. The combination of Nu-Jazz and Downtempo is oustanding.

EAC Log
Exact Audio Copy V0.99 prebeta 5 from 4. May 2009

EAC extraction logfile from 3. November 2012, 21:17

Various / Jazzflora : Scandinavian Aspects Of Jazz

Used drive : ATAPI iHAP122 W Adapter: 0 ID: 1

Read mode : Secure
Utilize accurate stream : Yes
Defeat audio cache : Yes
Make use of C2 pointers : No

Read offset correction : 6
Overread into Lead-In and Lead-Out : No
Fill up missing offset samples with silence : Yes
Delete leading and trailing silent blocks : No
Null samples used in CRC calculations : Yes
Used interface : Native Win32 interface for Win NT & 2000
Gap handling : Appended to previous track

Used output format : User Defined Encoder
Selected bitrate : 1024 kBit/s
Quality : High
Add ID3 tag : No
Command line compressor : C:Program FilesExact Audio CopyFLACFLAC.EXE
Additional command line options : -8 -V -T "ARTIST=%a" -T "TITLE=%t" -T "ALBUM=%g" -T "DATE=%y" -T "TRACKNUMBER=%n" -T "GENRE=%m" -T "COMMENT=EAC FLAC -8 Rip By DEN" %s

TOC of the extracted CD

Track | Start | Length | Start sector | End sector
––––––––––––––––––––––––––––-
1 | 0:00.00 | 7:06.03 | 0 | 31952
2 | 7:06.03 | 7:56.49 | 31953 | 67701
3 | 15:02.52 | 3:54.12 | 67702 | 85263
4 | 18:56.64 | 6:48.18 | 85264 | 115881
5 | 25:45.07 | 6:44.00 | 115882 | 146181
6 | 32:29.07 | 6:32.72 | 146182 | 175653
7 | 39:02.04 | 6:36.70 | 175654 | 205423
8 | 45:38.74 | 5:28.59 | 205424 | 230082
9 | 51:07.58 | 4:56.68 | 230083 | 252350
10 | 56:04.51 | 6:46.68 | 252351 | 282868
11 | 62:51.44 | 5:02.15 | 282869 | 305533
12 | 67:53.59 | 3:38.10 | 305534 | 321893

Track 1

Filename E:MUSICWAV1. Kovin Lentaen Kotiin Kaipaan.wav

Pre-gap length 0:00:02.00

Peak level 98.8 %
Track quality 99.9 %
Test CRC FC006E87
Copy CRC FC006E87
Cannot be verified as accurate (confidence 3) [0518BE14], AccurateRip returned [E650E1CC]
Copy OK

Track 2

Filename E:MUSICWAV2. I Love You My Friends.wav

Peak level 98.8 %
Track quality 100.0 %
Test CRC 5FD11F82
Copy CRC 5FD11F82
Cannot be verified as accurate (confidence 3) [0EEDC7F7], AccurateRip returned [611843B0]
Copy OK

Track 3

Filename E:MUSICWAV3. Open The Door.wav

Peak level 98.8 %
Track quality 100.0 %
Test CRC 8D802A07
Copy CRC 8D802A07
Cannot be verified as accurate (confidence 3) [B153D0A1], AccurateRip returned [CEC8EF07]
Copy OK

Track 4

Filename E:MUSICWAV4. Alan Accelerates.wav

Peak level 98.8 %
Track quality 100.0 %
Test CRC 2755BC98
Copy CRC 2755BC98
Cannot be verified as accurate (confidence 3) [F1DE8BDB], AccurateRip returned [F8894C09]
Copy OK

Track 5

Filename E:MUSICWAV5. Good & Bad.wav

Peak level 98.8 %
Track quality 100.0 %
Test CRC 99A42991
Copy CRC 99A42991
Cannot be verified as accurate (confidence 3) [59316E23], AccurateRip returned [05ADEDF9]
Copy OK

Track 6

Filename E:MUSICWAV6. Logic Of Space.wav

Peak level 98.8 %
Track quality 100.0 %
Test CRC D58A22AC
Copy CRC D58A22AC
Cannot be verified as accurate (confidence 3) [645DAF6E], AccurateRip returned [FEDFF460]
Copy OK

Track 7

Filename E:MUSICWAV7. Tonight (Nicola Conte New Jazz Version).wav

Peak level 98.8 %
Track quality 100.0 %
Test CRC 5F984B26
Copy CRC 5F984B26
Cannot be verified as accurate (confidence 3) [532D8759], AccurateRip returned [571A9D93]
Copy OK

Track 8

Filename E:MUSICWAV8. Trading Eights.wav

Peak level 98.8 %
Track quality 100.0 %
Test CRC B2C7DF96
Copy CRC B2C7DF96
Cannot be verified as accurate (confidence 3) [50A53661], AccurateRip returned [3FA50A09]
Copy OK

Track 9

Filename E:MUSICWAV9. Bloodstream.wav

Peak level 98.8 %
Track quality 100.0 %
Test CRC FBCD3F33
Copy CRC FBCD3F33
Cannot be verified as accurate (confidence 3) [CAAEC04C], AccurateRip returned [A9227DBA]
Copy OK

Track 10

Filename E:MUSICWAV10. Marinade.wav

Peak level 98.8 %
Track quality 100.0 %
Test CRC 25E8C5F9
Copy CRC 25E8C5F9
Cannot be verified as accurate (confidence 3) [6984D591], AccurateRip returned [CAAEE74D]
Copy OK

Track 11

Filename E:MUSICWAV11. Noisuf (Raw Jazz Take).wav

Peak level 98.8 %
Track quality 100.0 %
Test CRC BE0375F2
Copy CRC BE0375F2
Cannot be verified as accurate (confidence 3) [0B36F82C], AccurateRip returned [E80E1009]
Copy OK

Track 12

Filename E:MUSICWAV12. Comatose Luck.wav

Peak level 98.9 %
Track quality 100.0 %
Test CRC 88F83BFA
Copy CRC 88F83BFA
Cannot be verified as accurate (confidence 3) [82D3DAF5], AccurateRip returned [43BF1AC2]
Copy OK

No tracks could be verified as accurate
You may have a different pressing from the one(s) in the database

No errors occurred

End of status report

Tracklist:
01. Kuusuman Profeetta – Kovin Lentaen Kotiin Kaipaan [07:06]
02. Hird – I Love You My Friends [07:56]
03. Elsa – Open The Door [03:54]
04. Butti 49 – Alan Accelerates [06:48]
05. Povo – Good & Bad [06:44]
06. Iony – Logic Of Space [06:32]
07. Koop – Tonight (Nicola Conte New Jazz Version) [06:36]
08. The Five Corners Quintet – Trading Eights [05:28]
09. Oddjob – Bloodstream [04:56]
10. Kahuun – Marinade [06:46]
11. Stockholm Cyclo – Noisuf (Raw Jazz Take) [05:02]
12. Xploding Plastix – Comatose Luck [03:38]

VA – Jazzflora: Scandinavian Aspects Of Jazz (2004) Download, Warez, DDL, Free, Full Album, Torrent, Legal.

Download