VA – Jazz For Meditation (2007) | ViralVideoPk

Daily Dose of Free Downloads

VA – Jazz For Meditation (2007)

Download

VA - Jazz For Meditation (2007)

VA – Jazz For Meditation (2007)
EAC Rip | FLAC (Image) +CUE, LOG | 359 MB | Covers Included
Genre: Jazz, Smooth Jazz | Label: Universal Music Group | Catalog Number: 06024 9843727

Nine track compilation CD featuring Alice Coltrane, Yusef Lateef & More.

EAC Log
Exact Audio Copy V1.0 beta 1 from 15. November 2010

EAC extraction logfile from 8. December 2010, 19:38

Various Artists / Jazz For Meditation

Used drive : SlimtypeDVD A DS8A4S Adapter: 1 ID: 0

Read mode : Secure
Utilize accurate stream : Yes
Defeat audio cache : Yes
Make use of C2 pointers : No

Read offset correction : 6
Overread into Lead-In and Lead-Out : No
Fill up missing offset samples with silence : Yes
Delete leading and trailing silent blocks : No
Null samples used in CRC calculations : Yes
Used interface : Native Win32 interface for Win NT & 2000

Used output format : User Defined Encoder
Selected bitrate : 896 kBit/s
Quality : High
Add ID3 tag : No
Command line compressor : C:Program FilesFLACflac.exe
Additional command line options : -8 -V %s

TOC of the extracted CD

Track | Start | Length | Start sector | End sector
––––––––––––––––––––––––––––-
1 | 0:00.00 | 7:05.00 | 0 | 31874
2 | 7:05.00 | 5:22.70 | 31875 | 56094
3 | 12:27.70 | 10:57.04 | 56095 | 105373
4 | 23:24.74 | 11:06.13 | 105374 | 155336
5 | 34:31.12 | 4:24.45 | 155337 | 175181
6 | 38:55.57 | 7:55.66 | 175182 | 210872
7 | 46:51.48 | 4:05.45 | 210873 | 229292
8 | 50:57.18 | 4:08.05 | 229293 | 247897
9 | 55:05.23 | 6:26.18 | 247898 | 276865

Range status and errors

Selected range

Filename D:MusicVarious Artists – Jazz For MeditationVarious Artists – Jazz For Meditation.wav

Peak level 99.9 %
Extraction speed 0.4 X
Range quality 99.9 %
Copy CRC B9CC4A83
Copy OK

No errors occurred

AccurateRip summary

Track 1 cannot be verified as accurate (confidence 7) [9FA03243], AccurateRip returned [24414933]
Track 2 cannot be verified as accurate (confidence 7) [8EAE49A0], AccurateRip returned [C192FACC]
Track 3 cannot be verified as accurate (confidence 7) [65CB34F8], AccurateRip returned [E20EA052]
Track 4 cannot be verified as accurate (confidence 7) [183FA0C1], AccurateRip returned [680F8D5D]
Track 5 cannot be verified as accurate (confidence 7) [9591BAE1], AccurateRip returned [9B13E157]
Track 6 cannot be verified as accurate (confidence 7) [E75DE7E7], AccurateRip returned [86AEBE8D]
Track 7 cannot be verified as accurate (confidence 7) [0A14F8AE], AccurateRip returned [8B98AADC]
Track 8 cannot be verified as accurate (confidence 7) [CFD36C52], AccurateRip returned [5D87556A]
Track 9 cannot be verified as accurate (confidence 7) [7F7E45F1], AccurateRip returned [1FDEE93C]

No tracks could be verified as accurate
You may have a different pressing from the one(s) in the database

End of status report

Tracklist:
01. Blue Nile (Alice Coltrane) (7:05)
02. Yaad (Dewan Motihar Trio) (5:23)
03. Song Before Sunrise (The Joe Harriott – John Mayer Double Quintet) (10:57)
04. Karuna Supreme (John Handy & Ali Akbar Khan) (11:06)
05. Integration (Amancio D’Silva) (4:25)
06. The Shang (Randy Weston) (7:56)
07. Bamboo Flute Blues (Yusef Lateef) (4:06)
08. For Some We Loved (Dorothy Ashby) (4:08)
09. Hare Krishna – Hail Krishna (Tony Scott) (6:26)

Info.
Track 1 recorded January 26, 1970, Dix Hills, New York. Original: Impulse AS-916.
Track 2 recorded October 23, 1967, Villingen. Original: MPS 15 142.
Track 3 recorded September 3 – 4, 1966. Original: Atlantic ST-1482.
Track 4 recorded November 1, 1975, Ludwigsburg. Original: MPS 15 455.
Track 5 recorded 1968, London. Original: Columbia SCX-6322.
Track 6 recorded February 23 – 25, 1998, New York City. Original: Gitanes 557 821-2.
Track 7 recorded July 22, 1965, Englewood Cliffs, New Jersey. Original: Impulse A-92.
Track 8 recorded November 1969 – January 1970, Chicago. Original: Cadet LPS-841.
Track 9 recorded February 28, 1968, New York City. Original: Verve V6-8742.

VA – Jazz For Meditation (2007) Download, Warez, DDL, Free, Full Album, Torrent, Legal.

Download


  • Recent Posts

  • Recent Tags