VA – In Harmony: A Sesame Street Record (1980) {Warner Bros.} **[REPOST]**

Download
VA - In Harmony: A Sesame Street Record (1980) {Warner Bros.} **[REPOST]**

VA – In Harmony: A Sesame Street Record (1980) {Warner Bros.}
EAC Rip | FLAC with CUE and log | scans | 214 mb
MP3 CBR 320kbps | RAR | 91 mb
Genre: children’s, children’s pop, modern pop, smooth jazz, pop jazz, folk, acoustic

A 1980 compilation of pop artists recording a children’s music album. Features music from The Doobie Brothers, George Benson, Bette Midler, Carly Simon, Linda Ronstadt, Al Jarreau, James Taylor, Livingston Taylor, Kate Taylor, and a few other Taylor’s as well, along with Ernie and Cookie Monster. This was released by Sesame Street Records via Warner Bros., which begins with the letters W and B.

Not only do you get to hear The Doobie Brothers, Pauline Wilson of Seawind, and Cookie Monster on the same album, but it’s a family affair with a lot of Taylor’s and a fair share of Simon’s.

For the unaware, this is a children’s record. Sesame Street is a children’s show on PBS in the United States created by the late Jim Henson, and variations of this show appear around the world. The show featured interaction between real people and "Muppets", a cast of characters that included Big Bird, Grover, Bert & Ernie, Oscar The Grouch, Roosevelt Franklin, The Count, Guy Smiley, and Kermit The Frog. The well-known street is familiar to children today as the home of Elmo. Doobies? A-B-C’s? Why not!

Some of the people who play on this include Steve Gadd, Jeff "Skunk" Baxter, Tony Levin, Steve Ferrone, Jim Keltner, Ron Carter, Greg Phillinganes, Phil Upchurch.

VA - In Harmony: A Sesame Street Record (1980) {Warner Bros.} **[REPOST]**

01. The Doobie Brothers – Wynken, Blynken and Nodd
02. James Taylor – Jelly Man Kelly
03. Carly Simon – Be With Me
04. Bette Midler – Blueberry Pie
05. Ernie & Cookie Monster – Share
06. Al Jarreau – One Good Turn
07. Linda Ronstadt & Wendy Waldman – I Want A Horse
08. Libby Titus & Dr. John – The Sailor And The Mermaid
09. Livingston Taylor – Pajamas
10. George Benson & Pauline Wilson – A Friend For All Seasons
11. Lucy Simon – I Have A Song
12. Kate Taylor & The Simon/Taylor Family – In Harmony

Produced by Lucy Simon and David Levine

EAC Log
EAC extraction logfile from 27. August 2006, 8:48 for CD
Various / In Harmony – A Sesame Street Record

Used drive : LITE-ON DVDRW SOHW-1633S Adapter: 0 ID: 0
Read mode : Secure with NO C2, accurate stream, disable cache
Read offset correction : 12
Overread into Lead-In and Lead-Out : No

Used output format : Internal WAV Routines
44.100 Hz; 16 Bit; Stereo

Other options :
Fill up missing offset samples with silence : Yes
Delete leading and trailing silent blocks : No
Installed external ASPI interface

Track 1
Filename D:FLACVA – In Harmony, A Sesame Street Record (1980) [FLAC]1 – The Doobie Brothers – Wynken, Blynken and Nodd.wav

Pre-gap length 0:00:02.42

Peak level 90.3 %
Track quality 100.0 %
Test CRC 536C3F88
Copy CRC 536C3F88
Copy OK

Track 2
Filename D:FLACVA – In Harmony, A Sesame Street Record (1980) [FLAC]2 – James Taylor – Jelly Man Kelly.wav

Pre-gap length 0:00:01.44

Peak level 98.0 %
Track quality 100.0 %
Test CRC 3FC73191
Copy CRC 3FC73191
Copy OK

Track 3
Filename D:FLACVA – In Harmony, A Sesame Street Record (1980) [FLAC]3 – Carly Simon – Be With Me.wav

Pre-gap length 0:00:01.76

Peak level 70.7 %
Track quality 100.0 %
Test CRC 71EB31EA
Copy CRC 71EB31EA
Copy OK

Track 4
Filename D:FLACVA – In Harmony, A Sesame Street Record (1980) [FLAC]4 – Bette Midler – Blueberry Pie.wav

Pre-gap length 0:00:01.26

Peak level 97.8 %
Track quality 100.0 %
Test CRC F1335FD7
Copy CRC F1335FD7
Copy OK

Track 5
Filename D:FLACVA – In Harmony, A Sesame Street Record (1980) [FLAC]5 – Ernie & Cookie Monster – Share.wav

Pre-gap length 0:00:01.02

Peak level 96.4 %
Track quality 100.0 %
Test CRC 8885FB23
Copy CRC 8885FB23
Copy OK

Track 6
Filename D:FLACVA – In Harmony, A Sesame Street Record (1980) [FLAC]6 – Al Jarreau – One Good Turn.wav

Pre-gap length 0:00:01.70

Peak level 97.7 %
Track quality 100.0 %
Test CRC DABEF1A6
Copy CRC DABEF1A6
Copy OK

Track 7
Filename D:FLACVA – In Harmony, A Sesame Street Record (1980) [FLAC]7 – Linda Ronstadt & Wendy Waldman – I Want A Horse.wav

Pre-gap length 0:00:02.40

Peak level 97.8 %
Track quality 99.9 %
Test CRC 56A7B42F
Copy CRC 56A7B42F
Copy OK

Track 8
Filename D:FLACVA – In Harmony, A Sesame Street Record (1980) [FLAC]8 – Libby Titus & Dr. John – The Sailor And The Mermaid.wav

Pre-gap length 0:00:02.40

Peak level 87.2 %
Track quality 100.0 %
Test CRC 7991BBB1
Copy CRC 7991BBB1
Copy OK

Track 9
Filename D:FLACVA – In Harmony, A Sesame Street Record (1980) [FLAC]9 – Livingston Taylor – Pajamas.wav

Pre-gap length 0:00:01.90

Peak level 73.6 %
Track quality 99.9 %
Test CRC AF69CDF0
Copy CRC AF69CDF0
Copy OK

Track 10
Filename D:FLACVA – In Harmony, A Sesame Street Record (1980) [FLAC]10 – George Benson & Pauline Wilson – A Friend For All Seasons.wav

Pre-gap length 0:00:01.24

Peak level 97.0 %
Track quality 100.0 %
Test CRC 4133A05F
Copy CRC 4133A05F
Copy OK

Track 11
Filename D:FLACVA – In Harmony, A Sesame Street Record (1980) [FLAC]11 – Lucy Simon – I Have A Song.wav

Pre-gap length 0:00:01.46

Peak level 90.6 %
Track quality 100.0 %
Test CRC D40CF841
Copy CRC D40CF841
Copy OK

Track 12
Filename D:FLACVA – In Harmony, A Sesame Street Record (1980) [FLAC]12 – Kate Taylor & The Simon, Taylor Family – In Harmony.wav

Pre-gap length 0:00:02.30

Peak level 96.1 %
Track quality 100.0 %
Test CRC 0B728EC8
Copy CRC 0B728EC8
Copy OK

No errors occured

End of status report

VA - In Harmony: A Sesame Street Record (1980) {Warner Bros.} **[REPOST]**

VA – In Harmony: A Sesame Street Record (1980) {Warner Bros.} **[REPOST]** Download, Warez, DDL, Free, Full Album, Torrent, Legal.

Download