VA – Honeymoon In Vegas: Music From The Original Motion Picture Soundtrack (1992)

Download
VA - Honeymoon In Vegas: Music From The Original Motion Picture Soundtrack (1992)

VA – Honeymoon In Vegas: Music From The Original Motion Picture Soundtrack (1992)
EAC | FLAC | Tracks (Cue&Log) ~ 262 Mb | Mp3 (CBR320) ~ 104 Mb | Scans included
Soundtrack, Score, Pop/Rock, Country, Rock & Roll | Label: Sony | # 471925 2 | 00:39:51

Country singers rule this soundtrack of Elvis Presley covers, which is every bit as flawed, frivolous and fun as the film from whence it came. While Billy Joel parodies "All Shook Up" and "Heartbreak Hotel," John Mellencamp labors to avoid parodying "Jailhouse Rock," and U2’s Bono transforms "Can’t Help Falling in Love" into an obsessive parable about hero worship, folks like Ricky Van Shelton and Trisha Yearwood just sit back and sing the things, which at least makes them pleasant after more than one plaing. Dwight Yoakam’s power-chord-country version of "Suspicious Minds" and Travis Tritt’s "Burning Love" rank with their best remakes. Breaking the trend are pop crooner Bryan Ferry, who sings a seductive British soul version of "Are You Lonesome Tonight?" and the usually trustworthy Vince Gill, whose Pat Boone-style rendition of Arthur Crudup’s classic blues "That’s All Right" cleans up the grammar.

Review by Brian Mansfield, Allmusic.com

Film at IMDB
Film at Wiki

Tracklist:

01. Billy Joel – All Shook Up (2:09)
02. Ricky van Shelton – Wear My Ring Around Your Neck (2:12)
03. Amy Grant – Love Me Tender (3:51)
04. Travis Tritt – Burning Love (3:35)
05. Billy Joel – Heartbreak Hotel (3:20)
06. Bryan Ferry – Are You Lonesome Tonight? (4:59)
07. Dwight Yoakam – Suspicious Minds (3:51)
08. Trisha Yearwood – (You’re The) Devil In Disguise (2:37)
09. Jeff Beck – Hound Dog (2:13)
10. Vince Gill – That’s All Right (2:43)
11. John Mellencamp – Jailhouse Rock (3:36)
12. Willie Nelson – Blue Hawaii (2:37)
13. Bono – Can’t Help Falling In Love (2:04)

EAC log
Exact Audio Copy V0.99 prebeta 5 from 4. May 2009

EAC extraction logfile from 18. January 2012, 13:44

Various / Honeymoon In Vegas

Used drive : Optiarc DVD RW AD-7580S Adapter: 0 ID: 1

Read mode : Secure
Utilize accurate stream : Yes
Defeat audio cache : Yes
Make use of C2 pointers : No

Read offset correction : 6
Overread into Lead-In and Lead-Out : No
Fill up missing offset samples with silence : Yes
Delete leading and trailing silent blocks : No
Null samples used in CRC calculations : Yes
Used interface : Native Win32 interface for Win NT & 2000
Gap handling : Appended to previous track

Used output format : User Defined Encoder
Selected bitrate : 768 kBit/s
Quality : High
Add ID3 tag : No
Command line compressor : C:Program Files NewExact Audio CopyFLACFLAC.EXE
Additional command line options : -8 -V %s

TOC of the extracted CD

Track | Start | Length | Start sector | End sector
––––––––––––––––––––––––––––-
1 | 0:00.00 | 2:09.32 | 0 | 9706
2 | 2:09.32 | 2:13.55 | 9707 | 19736
3 | 4:23.12 | 3:52.30 | 19737 | 37166
4 | 8:15.42 | 3:34.68 | 37167 | 53284
5 | 11:50.35 | 3:21.57 | 53285 | 68416
6 | 15:12.17 | 4:59.68 | 68417 | 90909
7 | 20:12.10 | 3:51.70 | 90910 | 108304
8 | 24:04.05 | 2:38.30 | 108305 | 120184
9 | 26:42.35 | 2:13.25 | 120185 | 130184
10 | 28:55.60 | 2:44.45 | 130185 | 142529
11 | 31:40.30 | 3:36.37 | 142530 | 158766
12 | 35:16.67 | 2:37.40 | 158767 | 170581
13 | 37:54.32 | 2:04.23 | 170582 | 179904

Track 1

Filename D:TorrentsVA – 1992 – Honeymoon In Vegas1. Billy Joel – All Shook Up.wav

Pre-gap length 0:00:02.00

Peak level 97.1 %
Track quality 100.0 %
Copy CRC C06AF606
Accurately ripped (confidence 12) [8F00F807]
Copy OK

Track 2

Filename D:TorrentsVA – 1992 – Honeymoon In Vegas2. Ricky van Shelton – Wear My Ring Around Your Neck.wav

Pre-gap length 0:00:00.22

Peak level 97.7 %
Track quality 99.7 %
Copy CRC 2451EAAB
Accurately ripped (confidence 11) [41F4529A]
Copy OK

Track 3

Filename D:TorrentsVA – 1992 – Honeymoon In Vegas3. Amy Grant – Love Me Tender.wav

Pre-gap length 0:00:02.17

Peak level 95.3 %
Track quality 99.7 %
Copy CRC E260F66A
Accurately ripped (confidence 11) [584CD728]
Copy OK

Track 4

Filename D:TorrentsVA – 1992 – Honeymoon In Vegas4. Travis Tritt – Burning Love.wav

Pre-gap length 0:00:01.45

Peak level 100.0 %
Track quality 99.5 %
Copy CRC 50FB5196
Accurately ripped (confidence 11) [1853A05B]
Copy OK

Track 5

Filename D:TorrentsVA – 1992 – Honeymoon In Vegas5. Billy Joel – Heartbreak Hotel.wav

Pre-gap length 0:00:00.30

Peak level 99.7 %
Track quality 99.0 %
Copy CRC 442A0102
Accurately ripped (confidence 12) [1AE32D03]
Copy OK

Track 6

Filename D:TorrentsVA – 1992 – Honeymoon In Vegas6. Bryan Ferry – Are You Lonesome Tonight .wav

Pre-gap length 0:00:01.25

Peak level 100.0 %
Track quality 99.4 %
Copy CRC 38156504
Accurately ripped (confidence 11) [84ED0E27]
Copy OK

Track 7

Filename D:TorrentsVA – 1992 – Honeymoon In Vegas7. Dwight Yoakam – Suspicious Minds.wav

Pre-gap length 0:00:00.50

Peak level 96.2 %
Track quality 99.2 %
Copy CRC E40992EF
Accurately ripped (confidence 12) [732D7CB4]
Copy OK

Track 8

Filename D:TorrentsVA – 1992 – Honeymoon In Vegas8. Trisha Yearwood – (You’re The) Devil In Disguise.wav

Pre-gap length 0:00:01.28

Peak level 98.2 %
Track quality 99.9 %
Copy CRC 927E7503
Accurately ripped (confidence 11) [23797C17]
Copy OK

Track 9

Filename D:TorrentsVA – 1992 – Honeymoon In Vegas9. Jeff Beck – Hound Dog.wav

Pre-gap length 0:00:01.15

Peak level 97.7 %
Track quality 99.8 %
Copy CRC 1DB36ADC
Accurately ripped (confidence 12) [3F7AFB80]
Copy OK

Track 10

Filename D:TorrentsVA – 1992 – Honeymoon In Vegas10. Vince Gill – That’s All Right.wav

Pre-gap length 0:00:00.55

Peak level 100.0 %
Track quality 99.8 %
Copy CRC 1B6AD82C
Accurately ripped (confidence 11) [1EF4292E]
Copy OK

Track 11

Filename D:TorrentsVA – 1992 – Honeymoon In Vegas11. John Mellencamp – Jailhouse Rock.wav

Pre-gap length 0:00:01.28

Peak level 97.6 %
Track quality 99.9 %
Copy CRC D7BEDFA8
Accurately ripped (confidence 11) [7B6AA626]
Copy OK

Track 12

Filename D:TorrentsVA – 1992 – Honeymoon In Vegas12. Willie Nelson – Blue Hawaii.wav

Pre-gap length 0:00:00.27

Peak level 94.8 %
Track quality 100.0 %
Copy CRC E0F9CDD8
Accurately ripped (confidence 11) [7A4F3978]
Copy OK

Track 13

Filename D:TorrentsVA – 1992 – Honeymoon In Vegas13. Bono – Can’t Help Falling In Love.wav

Pre-gap length 0:00:00.67

Peak level 94.8 %
Track quality 100.0 %
Copy CRC D25DB8F0
Accurately ripped (confidence 10) [69735839]
Copy OK

All tracks accurately ripped

No errors occurred

End of status report

AR log
[CUETools log; Date: 10.07.2017 3:42:56; Version: 2.1.4]
[CTDB TOCID: t0H8IvQg0xLiP00vqhcMQhaurbM-] found.
Track | CTDB Status
1 | (17/17) Accurately ripped
2 | (17/17) Accurately ripped
3 | (17/17) Accurately ripped
4 | (17/17) Accurately ripped
5 | (17/17) Accurately ripped
6 | (17/17) Accurately ripped
7 | (17/17) Accurately ripped
8 | (17/17) Accurately ripped
9 | (17/17) Accurately ripped
10 | (17/17) Accurately ripped
11 | (17/17) Accurately ripped
12 | (17/17) Accurately ripped
13 | (16/17) Accurately ripped
[AccurateRip ID: 0013add2-00c65c88-9d095e0d] found.
Track [ CRC | V2 ] Status
01 [8f00f807|056c2c05] (14+15/31) Accurately ripped
02 [41f4529a|afa702e9] (13+15/32) Accurately ripped
03 [584cd728|6517a76a] (13+15/32) Accurately ripped
04 [1853a05b|8e2d1665] (14+15/33) Accurately ripped
05 [1ae32d03|3c70a94a] (15+15/34) Accurately ripped
06 [84ed0e27|47da3794] (14+15/33) Accurately ripped
07 [732d7cb4|2b0e0571] (15+15/34) Accurately ripped
08 [23797c17|ae29c7c6] (14+15/33) Accurately ripped
09 [3f7afb80|22555a41] (15+15/34) Accurately ripped
10 [1ef4292e|507abe78] (14+15/33) Accurately ripped
11 [7b6aa626|39c23d45] (14+15/33) Accurately ripped
12 [7a4f3978|0977d079] (14+15/33) Accurately ripped
13 [69735839|e16239a4] (13+15/32) Accurately ripped
Offsetted by -1708:
01 [e2b26203] (00/31) No match (V2 was not tested)
02 [fa31f6ee] (02/32) Accurately ripped
03 [f207aa38] (02/32) Accurately ripped
04 [4b6cbf37] (02/33) Accurately ripped
05 [57acb097] (02/34) Accurately ripped
06 [be968da7] (02/33) Accurately ripped
07 [f2a16f2c] (02/34) Accurately ripped
08 [2aa92853] (02/33) Accurately ripped
09 [b0f3c8dc] (02/34) Accurately ripped
10 [7dceabca] (02/33) Accurately ripped
11 [0cd08bfe] (02/33) Accurately ripped
12 [f85894dc] (02/33) Accurately ripped
13 [49e79acf] (00/32) No match (V2 was not tested)

Track Peak [ CRC32 ] [W/O NULL] [ LOG ]
– 100,0 [ACA0ADFC] [986A92EE]
01 97,1 [C06AF606] [16EEE4CB] CRC32
02 97,7 [2451EAAB] [5BCF5582] CRC32
03 95,3 [E260F66A] [BC01F556] CRC32
04 100,0 [50FB5196] [49ABB505] CRC32
05 99,7 [442A0102] [BDC211D3] CRC32
06 100,0 [38156504] [A9A9DB60] CRC32
07 96,2 [E40992EF] [ADDA75C6] CRC32
08 98,2 [927E7503] [0C6EF635] CRC32
09 97,7 [1DB36ADC] [DC60EA70] CRC32
10 100,0 [1B6AD82C] [249D67CC] CRC32
11 97,6 [D7BEDFA8] [6601101E] CRC32
12 94,8 [E0F9CDD8] [C8F3B08D] CRC32
13 94,8 [D25DB8F0] [57AC2DDE] CRC32

DR log
foobar2000 1.2 / Dynamic Range Meter 1.1.1
log date: 2013-06-08 00:08:50

––––––––––––––––––––––––––––––––––––––––
Analyzed: ? / ?
––––––––––––––––––––––––––––––––––––––––

DR Peak RMS Duration Track
––––––––––––––––––––––––––––––––––––––––
DR9 -0.25 dB -11.08 dB 2:09 ?-01. Billy Joel – All Shook Up
DR10 -0.20 dB -11.88 dB 2:14 ?-02. Ricky van Shelton – Wear My Ring Around Your Neck
DR11 -0.41 dB -14.78 dB 3:52 ?-03. Amy Grant – Love Me Tender
DR9 0.00 dB -10.58 dB 3:35 ?-04. Travis Tritt – Burning Love
DR11 -0.02 dB -14.44 dB 3:22 ?-05. Billy Joel – Heartbreak Hotel
DR11 0.00 dB -12.50 dB 5:00 ?-06. Bryan Ferry – Are You Lonesome Tonight
DR10 -0.33 dB -11.94 dB 3:52 ?-07. Dwight Yoakam – Suspicious Minds
DR9 -0.15 dB -11.76 dB 2:38 ?-08. Trisha Yearwood – (You’re The) Devil In Disguise
DR9 -0.20 dB -10.89 dB 2:13 ?-09. Jeff Beck – Hound Dog
DR10 0.00 dB -11.46 dB 2:45 ?-10. Vince Gill – That’s All Right
DR10 -0.21 dB -12.13 dB 3:36 ?-11. John Mellencamp – Jailhouse Rock
DR11 -0.46 dB -14.74 dB 2:38 ?-12. Willie Nelson – Blue Hawaii
DR10 -0.46 dB -12.67 dB 2:04 ?-13. Bono – Can’t Help Falling In Love
––––––––––––––––––––––––––––––––––––––––

Number of tracks: 13
Official DR value: DR10

Samplerate: 44100 Hz
Channels: 2
Bits per sample: 16
Bitrate: 698 kbps
Codec: FLAC
================================================================================

VA - Honeymoon In Vegas: Music From The Original Motion Picture Soundtrack (1992)

VA - Honeymoon In Vegas: Music From The Original Motion Picture Soundtrack (1992)

All thanks to original releaser – cooman1

More interesting music in My Blog

VA – Honeymoon In Vegas: Music From The Original Motion Picture Soundtrack (1992) Download, Warez, DDL, Free, Full Album, Torrent, Legal.

Download