VA – Heavy Psych Sounds Records Vol. II (2017)

Download
VA - Heavy Psych Sounds Records Vol. II (2017)

VA – Heavy Psych Sounds Records Vol. II (2017)
EAC Rip | FLAC, IMG+CUE+LOG | 600 MB | MP3 CBR 320 Kbps | 190 MB | Complete HQ Scans | PNG -> 20 MB
Heavy Psych/Stoner/Doom | Label: Heavy Psych Sounds Records #HPS054 | RAR 3% Rec. | IcerBox.com

Here the second chapter for the mighty Heavy Psych Sounds Records Sampler, this time you’ll see songs taken from releases of the last part of 2016 and some unreleased gem from albums has to be released until May 2017 as Duel, Cachemira and The Sonic Dawn. The Sampler also feature two brand new unreleased tracks recorded specifically for the compilation! Black Rainbows and Killer Boogie new incredible tracks!

Tracklist :

1. Black Rainbows – The Red Sky Above – 5:46
2. Cachemira – Overpopulation – 4:38
3. Dead Witches – Mind Control – 5:02
4. Doctor Cyclops – Lonely Devil – 3:50
5. Duel – Witchbanger – 3:20
6. Farflung – You Will Kill Me – 5:50
7. Fatso Jetson – Wire Wheels and Robots – 5:57
8. Giobia – Thsi World Was Being Watched Closely – 6:22
9. Glitter Wizard – Mycelia – 3:23
10. Killer Boogie – Eight Ball – 4:34
11. Mothership – Crown of Lies – 5:43
12. Nick Oliveri – Anything and Everything – 2:15
13. The Clamps – Must Destroy – 3:31
14. The Golden Grass – Flashing Our Of Sight – 2:39
15. The Freeks – Unlce Jack’s Truck – 5:44
16. The Sonic Dawn – Summer Voyage – 7:13

EAC extraction logfile
Exact Audio Copy V1.3 from 2. September 2016

EAC extraction logfile from 4. October 2017, 14:48

Various / Heavy Psych Sounds Vol. 11

Used drive : PIONEER DVD-RW DVR-219L Adapter: 1 ID: 1

Read mode : Secure
Utilize accurate stream : Yes
Defeat audio cache : Yes
Make use of C2 pointers : No

Read offset correction : 6
Overread into Lead-In and Lead-Out : No
Fill up missing offset samples with silence : Yes
Delete leading and trailing silent blocks : No
Null samples used in CRC calculations : Yes
Used interface : Native Win32 interface for Win NT & 2000

Used output format : Internal WAV Routines
Sample format : 44.100 Hz; 16 Bit; Stereo

TOC of the extracted CD

Track | Start | Length | Start sector | End sector
––––––––––––––––––––––––––––-
1 | 0:00.00 | 5:45.61 | 0 | 25935
2 | 5:45.61 | 4:38.03 | 25936 | 46788
3 | 10:23.64 | 5:02.05 | 46789 | 69443
4 | 15:25.69 | 3:50.26 | 69444 | 86719
5 | 19:16.20 | 3:20.31 | 86720 | 101750
6 | 22:36.51 | 5:50.36 | 101751 | 128036
7 | 28:27.12 | 5:56.51 | 128037 | 154787
8 | 34:23.63 | 6:21.67 | 154788 | 183429
9 | 40:45.55 | 3:23.15 | 183430 | 198669
10 | 44:08.70 | 4:34.20 | 198670 | 219239
11 | 48:43.15 | 5:42.65 | 219240 | 244954
12 | 54:26.05 | 2:15.02 | 244955 | 255081
13 | 56:41.07 | 3:30.39 | 255082 | 270870
14 | 60:11.46 | 2:39.29 | 270871 | 282824
15 | 62:51.00 | 5:44.11 | 282825 | 308635
16 | 68:35.11 | 7:13.17 | 308636 | 341127

Range status and errors

Selected range

Filename D:.by necromandusVA – Heavy Psych Sounds Vol. 11.wav

Peak level 100.0 %
Extraction speed 8.0 X
Range quality 100.0 %
Test CRC 7A737D90
Copy CRC 7A737D90
Copy OK

No errors occurred

AccurateRip summary

Track 1 accurately ripped (confidence 3) [5897421B] (AR v2)
Track 2 accurately ripped (confidence 3) [6086D5F3] (AR v2)
Track 3 accurately ripped (confidence 3) [33E85DA0] (AR v2)
Track 4 accurately ripped (confidence 3) [CFC9719D] (AR v2)
Track 5 accurately ripped (confidence 3) [673186FA] (AR v2)
Track 6 accurately ripped (confidence 3) [54909D6E] (AR v2)
Track 7 accurately ripped (confidence 3) [55657262] (AR v2)
Track 8 accurately ripped (confidence 3) [0E2AD9F7] (AR v2)
Track 9 accurately ripped (confidence 3) [8E68A0F0] (AR v2)
Track 10 accurately ripped (confidence 3) [073DB2A3] (AR v2)
Track 11 accurately ripped (confidence 3) [7BE7390F] (AR v2)
Track 12 accurately ripped (confidence 3) [8821A686] (AR v2)
Track 13 accurately ripped (confidence 3) [EADC688A] (AR v2)
Track 14 accurately ripped (confidence 3) [D121EE75] (AR v2)
Track 15 accurately ripped (confidence 3) [2C330E64] (AR v2)
Track 16 accurately ripped (confidence 3) [70873B56] (AR v2)

All tracks accurately ripped

End of status report

–– CUETools DB Plugin V2.1.6

[CTDB TOCID: GgUFwEHvAnc60Ck7uPie7_C.kZA-] found
Submit result: GgUFwEHvAnc60Ck7uPie7_C.kZA- has been confirmed
Track | CTDB Status
1 | (14/14) Accurately ripped
2 | (14/14) Accurately ripped
3 | (14/14) Accurately ripped
4 | (14/14) Accurately ripped
5 | (14/14) Accurately ripped
6 | (14/14) Accurately ripped
7 | (14/14) Accurately ripped
8 | (14/14) Accurately ripped
9 | (14/14) Accurately ripped
10 | (14/14) Accurately ripped
11 | (14/14) Accurately ripped
12 | (14/14) Accurately ripped
13 | (14/14) Accurately ripped
14 | (14/14) Accurately ripped
15 | (13/14) Accurately ripped
16 | (13/14) Accurately ripped

==== Log checksum E2DC41C82E9ED3F35ED98B9D293699603641C456BC1B26ADF8A00B3A4A46AC1D ====

VA – Heavy Psych Sounds Records Vol. II (2017) Download, Warez, DDL, Free, Full Album, Torrent, Legal.

Download