VA – Heavy Psych Sounds Records (2016)

Download
VA - Heavy Psych Sounds Records (2016)

VA – Heavy Psych Sounds Records (2016)
EAC Rip | FLAC, IMG+CUE+LOG | 610 MB | MP3 CBR 320 Kbps | 190 MB | Complete HQ Scans | PNG -> 20 MB
Heavy Psych/Stoner/Doom | Label: Heavy Psych Sounds Records #HPS041 | RAR 3% Rec. | IcerBox.com

Heavy Psych Sounds 041 is a brand-new promotional compilation, that will be launched in a special price to give the chance to all heavy psych sounds fans to be able to know all the bands in the 2015/2016 roster.

Tracklist :

1. Ape Machine – Give What You Get – 3:12
2. Banquet – Set Me Free – 4:40
3. Black Rainbows – Electrify – 4:04
4. Deadsmoke – Liar Behind Me – 6:04
5. Duel – This Old Crow – 3:42
6. Farflung – We Are ‘E’ – 4:36
7. Glitter Wizard – The Hunter – 4:11
8. Holy Grove – Death Of Magic – 4:25
9. Isaak – Fountainhead – 4:01
10. Killer Boogie – Make Another Ride – 4:33
11. Monsternaut – Caravan – 2:56
12. My Home On Trees – Winter – 5:48
13. Mondo Generator – 13th Floor – 2:56
14. Old Man Lizard – Fawza Falih – 4:47
15. Stoned Jesus – Stormy Monday – 4:34
16. Throneless – Masters Of Nothing – 9:05
17. Wild Eyes – Stiff Nights – 4:11

EAC extraction logfile
Exact Audio Copy V1.3 from 2. September 2016

EAC extraction logfile from 4. October 2017, 16:54

Various / Heavy Psych Sounds Records

Used drive : PIONEER DVD-RW DVR-219L Adapter: 1 ID: 1

Read mode : Secure
Utilize accurate stream : Yes
Defeat audio cache : Yes
Make use of C2 pointers : No

Read offset correction : 6
Overread into Lead-In and Lead-Out : No
Fill up missing offset samples with silence : Yes
Delete leading and trailing silent blocks : No
Null samples used in CRC calculations : Yes
Used interface : Native Win32 interface for Win NT & 2000

Used output format : Internal WAV Routines
Sample format : 44.100 Hz; 16 Bit; Stereo

TOC of the extracted CD

Track | Start | Length | Start sector | End sector
––––––––––––––––––––––––––––-
1 | 0:00.00 | 3:12.16 | 0 | 14415
2 | 3:12.16 | 4:39.60 | 14416 | 35400
3 | 7:52.01 | 4:03.54 | 35401 | 53679
4 | 11:55.55 | 6:04.27 | 53680 | 81006
5 | 18:00.07 | 3:41.53 | 81007 | 97634
6 | 21:41.60 | 4:36.00 | 97635 | 118334
7 | 26:17.60 | 4:10.74 | 118335 | 137158
8 | 30:28.59 | 4:25.24 | 137159 | 157057
9 | 34:54.08 | 4:01.01 | 157058 | 175133
10 | 38:55.09 | 4:32.47 | 175134 | 195580
11 | 43:27.56 | 2:55.63 | 195581 | 208768
12 | 46:23.44 | 5:47.48 | 208769 | 234841
13 | 52:11.17 | 2:55.40 | 234842 | 248006
14 | 55:06.57 | 4:47.12 | 248007 | 269543
15 | 59:53.69 | 4:34.06 | 269544 | 290099
16 | 64:28.00 | 9:05.21 | 290100 | 330995
17 | 73:33.21 | 4:10.68 | 330996 | 349813

Range status and errors

Selected range

Filename D:.by necromandusVA – Heavy Psych Sounds Records.wav

Peak level 100.0 %
Extraction speed 1.9 X
Range quality 100.0 %
Test CRC 8F7262AC
Copy CRC 8F7262AC
Copy OK

No errors occurred

AccurateRip summary

Track 1 not present in database
Track 2 not present in database
Track 3 not present in database
Track 4 not present in database
Track 5 not present in database
Track 6 not present in database
Track 7 not present in database
Track 8 not present in database
Track 9 not present in database
Track 10 not present in database
Track 11 not present in database
Track 12 not present in database
Track 13 not present in database
Track 14 not present in database
Track 15 not present in database
Track 16 not present in database
Track 17 not present in database

None of the tracks are present in the AccurateRip database

End of status report

–– CUETools DB Plugin V2.1.6

[CTDB TOCID: ewYetMArRszMacJjf90cZBYsK3U-] found
Submit result: ewYetMArRszMacJjf90cZBYsK3U- has been confirmed
Track | CTDB Status
1 | (3/3) Accurately ripped
2 | (3/3) Accurately ripped
3 | (3/3) Accurately ripped
4 | (3/3) Accurately ripped
5 | (3/3) Accurately ripped
6 | (3/3) Accurately ripped
7 | (3/3) Accurately ripped
8 | (3/3) Accurately ripped
9 | (3/3) Accurately ripped
10 | (3/3) Accurately ripped
11 | (3/3) Accurately ripped
12 | (3/3) Accurately ripped
13 | (3/3) Accurately ripped
14 | (3/3) Accurately ripped
15 | (3/3) Accurately ripped
16 | (3/3) Accurately ripped
17 | (3/3) Accurately ripped

==== Log checksum AAECCA01EE5B2B031EAC63CB9612A067AF8CBDD5043246B7B5E77B4941D22D5C ====

VA – Heavy Psych Sounds Records (2016) Download, Warez, DDL, Free, Full Album, Torrent, Legal.

Download