VA – Hard Rain: A Tribute To Bob Dylan Vol One & Two (2002)

Download
VA - Hard Rain: A Tribute To Bob Dylan Vol One & Two (2002)

VA – Hard Rain: A Tribute To Bob Dylan Vol One & Two (2002)
EAC | Flac(Image) + Cue + Log & MP3 CBR 320Kbps
2CD | UNCUT 2002 05 & 06 | ~ 934 or 334 Mb | Scans(jpng) -> 12.60 Mb
Folk Rock, Acoustic, Classic Rock, Indie Rock, Country Rock

~ The Band, The Hollies, Manfred Mann, Cassandra Wilson, Todd Rundgren, Emmylou Harris … ~

VA – Hard Rain: A Tribute To Bob Dylan Vol One & Two (2002):

VA - Hard Rain: A Tribute To Bob Dylan Vol One & Two (2002)

Tracklist Vol One:

1 The Waterboys / Girl From The North Country 4:25
2 Bill Kirchen / Just Like Tom Thumb’s Blues 5:42
3 Johnny Marr / Don’t Think Twice, It’s All Right 4:28
4 Howard Devoto / Luxuria / She’s Your Lover Now 3:36
5 Thea Gilmore / Dreamed I Saw St. Augustine 4:34
6 The Band / When I Paint My Masterpiece 4:18
7 The Hollies / The Times They Are A-Changin’ 3:17
8 Robert Palmer / I’ll Be Your Baby Tonight 3:27
9 Cat Power / Paths Of Victory 3:22
10 Todd Rundgren / Most Likely You Go Your Way And I’ll Go Mine 3:26
11 Thurston, Kim & Epic* / Sitting On A Barbed Wire Fence 3:54
12 Mary Lou Lord / You’re Gonna Make Me Lonesome When You Go 3:46
13 Manfred Mann / With God On Our Side 4:25
14 Cassandra Wilson / Shelter From The Storm 5:18
15 The Nice / She Belongs To Me 11:48
16 Paul Weller / I Shall Be Released 3:02

EAC Log
EAC extraction logfile from 24. September 2008, 19:35 for CD
Various / Hard Rain Vol One

Used drive : HL-DT-STDVDRAM GSA-T10N Adapter: 0 ID: 0
Read mode : Secure with C2, accurate stream, disable cache
Read offset correction : 667
Overread into Lead-In and Lead-Out : No

Used output format : Internal WAV Routines
44.100 Hz; 16 Bit; Stereo
Use compression offset : 1057

Other options :
Fill up missing offset samples with silence : Yes
Delete leading and trailing silent blocks : No
Installed external ASPI interface

Track 1
Filename C:EAC ripsUncutHard Rain Vol One – Uncut1 – The Waterboys – Girl From The North Country.wav

Peak level 97.7 %
Track quality 100.0 %
Test CRC 2741EAFA
Copy CRC 2741EAFA
Copy OK

Track 2
Filename C:EAC ripsUncutHard Rain Vol One – Uncut2 – Bill Kirchen – Just Like Tom Thumb’s Blues.wav

Peak level 98.8 %
Track quality 100.0 %
Test CRC F74C0345
Copy CRC F74C0345
Copy OK

Track 3
Filename C:EAC ripsUncutHard Rain Vol One – Uncut3 – Johnny Marr – Don’t Think Twice, It’s All Right.wav

Peak level 78.5 %
Track quality 100.0 %
Test CRC 5652B8D2
Copy CRC 5652B8D2
Copy OK

Track 4
Filename C:EAC ripsUncutHard Rain Vol One – Uncut4 – Howard Devoto, Luxuria – She’s Your Lover Now.wav

Peak level 93.3 %
Track quality 100.0 %
Test CRC DAC0AABE
Copy CRC DAC0AABE
Copy OK

Track 5
Filename C:EAC ripsUncutHard Rain Vol One – Uncut5 – Thea Gilmore – I Dreamed I Saw Saint Augustine.wav

Peak level 82.6 %
Track quality 100.0 %
Test CRC E0653742
Copy CRC E0653742
Copy OK

Track 6
Filename C:EAC ripsUncutHard Rain Vol One – Uncut6 – The Band – When I Paint My Masterpiece.wav

Peak level 97.7 %
Track quality 99.9 %
Test CRC 1FED34BC
Copy CRC 1FED34BC
Copy OK

Track 7
Filename C:EAC ripsUncutHard Rain Vol One – Uncut7 – The Hollies – The Times They Are A-Changin’.wav

Peak level 97.7 %
Track quality 100.0 %
Test CRC FAF2A5A7
Copy CRC FAF2A5A7
Copy OK

Track 8
Filename C:EAC ripsUncutHard Rain Vol One – Uncut8 – Robert Palmer – I’ll Be Your Baby Tonight.wav

Peak level 97.7 %
Track quality 100.0 %
Test CRC A39A002F
Copy CRC A39A002F
Copy OK

Track 9
Filename C:EAC ripsUncutHard Rain Vol One – Uncut9 – Cat Power – Paths Of Victory.wav

Peak level 79.1 %
Track quality 100.0 %
Test CRC 3C88FAD9
Copy CRC 3C88FAD9
Copy OK

Track 10
Filename C:EAC ripsUncutHard Rain Vol One – Uncut10 – Todd Rundgren – Most Likely You Go Your Way And I’ll Go Mine.wav

Peak level 98.8 %
Track quality 100.0 %
Test CRC 3657C261
Copy CRC 3657C261
Copy OK

Track 11
Filename C:EAC ripsUncutHard Rain Vol One – Uncut11 – Thurston, Kim & Epic – Sitting On A Barbed Wire Fence.wav

Peak level 87.0 %
Track quality 100.0 %
Test CRC 51FE9B86
Copy CRC 51FE9B86
Copy OK

Track 12
Filename C:EAC ripsUncutHard Rain Vol One – Uncut12 – Mary Lou Lord – You’re Gonna Make Me Lonesome When You Go.wav

Peak level 69.9 %
Track quality 100.0 %
Test CRC 12A676A0
Copy CRC 12A676A0
Copy OK

Track 13
Filename C:EAC ripsUncutHard Rain Vol One – Uncut13 – Manfred Mann – With God On Our Side.wav

Peak level 97.7 %
Track quality 100.0 %
Test CRC 11F5C6CE
Copy CRC 11F5C6CE
Copy OK

Track 14
Filename C:EAC ripsUncutHard Rain Vol One – Uncut14 – Cassandra Wilson – Shelter From The Storm.wav

Peak level 97.7 %
Track quality 100.0 %
Test CRC B4B8964F
Copy CRC B4B8964F
Copy OK

Track 15
Filename C:EAC ripsUncutHard Rain Vol One – Uncut15 – The Nice – She Belongs To Me.wav

Peak level 97.3 %
Track quality 99.9 %
Test CRC 35B6C778
Copy CRC 35B6C778
Copy OK

Track 16
Filename C:EAC ripsUncutHard Rain Vol One – Uncut16 – Paul Weller – I Shall Be Released.wav

Peak level 98.8 %
Track quality 100.0 %
Test CRC EA4A980E
Copy CRC EA4A980E
Copy OK

No errors occured

End of status report

DR Log
foobar2000 1.2.9 / Dynamic Range Meter 1.1.1
log date: 2017-07-12 02:23:25

––––––––––––––––––––––––––––––––––––––––
Analyzed: Bill Kirchen / Hard Rain Vol One (1)
Cassandra Wilson / Hard Rain Vol One (2)
––––––––––––––––––––––––––––––––––––––––

DR Peak RMS Duration Track
––––––––––––––––––––––––––––––––––––––––
DR9 -0.10 dB -10.89 dB 5:43 02-Just Like Tom Thumb’s Blues
DR9 -0.20 dB -12.55 dB 5:17 14-Shelter From The Storm
––––––––––––––––––––––––––––––––––––––––

Number of tracks: 2
Official DR value: DR9

Samplerate: 44100 Hz
Channels: 2
Bits per sample: 16
Bitrate: 868 kbps
Codec: FLAC
================================================================================

––––––––––––––––––––––––––––––––––––––––
Statistics for: 09-Paths Of Victory
Number of samples: 8931132
Duration: 3:23
––––––––––––––––––––––––––––––––––––––––

Left Right

Peak Value: -0.10 dB –- -0.10 dB
Avg RMS: -15.87 dB –- -15.56 dB
DR channel: 11.10 dB –- 10.57 dB
––––––––––––––––––––––––––––––––––––––––

Official DR Value: DR11

Samplerate: 44100 Hz
Channels: 2
Bits per sample: 16
Bitrate: 868 kbps
Codec: FLAC
================================================================================
––––––––––––––––––––––––––––––––––––––––
Statistics for: 04-She’s Your Lover Now
Number of samples: 9629676
Duration: 3:38
––––––––––––––––––––––––––––––––––––––––

Left Right

Peak Value: -0.60 dB –- -0.60 dB
Avg RMS: -9.93 dB –- -9.90 dB
DR channel: 8.11 dB –- 7.86 dB
––––––––––––––––––––––––––––––––––––––––

Official DR Value: DR8

Samplerate: 44100 Hz
Channels: 2
Bits per sample: 16
Bitrate: 868 kbps
Codec: FLAC
================================================================================
––––––––––––––––––––––––––––––––––––––––
Analyzed: Johnny Marr / Hard Rain Vol One (1)
Manfred Mann / Hard Rain Vol One (2)
––––––––––––––––––––––––––––––––––––––––

DR Peak RMS Duration Track
––––––––––––––––––––––––––––––––––––––––
DR10 -2.10 dB -14.61 dB 4:27 03-Don’t Think Twice, It’s All Right
DR10 -0.20 dB -11.85 dB 4:25 13-With God On Our Side
––––––––––––––––––––––––––––––––––––––––

Number of tracks: 2
Official DR value: DR10

Samplerate: 44100 Hz
Channels: 2
Bits per sample: 16
Bitrate: 868 kbps
Codec: FLAC
================================================================================

––––––––––––––––––––––––––––––––––––––––
Analyzed: Mary Lou Lord / Hard Rain Vol One (1)
Paul Weller / Hard Rain Vol One (2)
––––––––––––––––––––––––––––––––––––––––

DR Peak RMS Duration Track
––––––––––––––––––––––––––––––––––––––––
DR9 -1.23 dB -14.80 dB 3:47 12-You’re Gonna Make Me Lonesome When You Go
DR7 -0.10 dB -8.38 dB 3:03 16-I Shall Be Released
––––––––––––––––––––––––––––––––––––––––

Number of tracks: 2
Official DR value: DR8

Samplerate: 44100 Hz
Channels: 2
Bits per sample: 16
Bitrate: 868 kbps
Codec: FLAC
================================================================================

––––––––––––––––––––––––––––––––––––––––
Statistics for: 08-I’ll Be Your Baby Tonight
Number of samples: 9151632
Duration: 3:28
––––––––––––––––––––––––––––––––––––––––

Left Right

Peak Value: -0.20 dB –- -0.20 dB
Avg RMS: -13.14 dB –- -12.87 dB
DR channel: 11.53 dB –- 11.27 dB
––––––––––––––––––––––––––––––––––––––––

Official DR Value: DR11

Samplerate: 44100 Hz
Channels: 2
Bits per sample: 16
Bitrate: 868 kbps
Codec: FLAC
================================================================================
––––––––––––––––––––––––––––––––––––––––
Analyzed: The Band / Hard Rain Vol One (1)
The Hollies / Hard Rain Vol One (2)
The Nice / Hard Rain Vol One (3)
––––––––––––––––––––––––––––––––––––––––

DR Peak RMS Duration Track
––––––––––––––––––––––––––––––––––––––––
DR10 -0.20 dB -11.60 dB 4:18 06-When I Paint My Masterpiece
DR8 -0.20 dB -10.64 dB 3:18 07-The Times They Are A-Changin’
DR9 -0.23 dB -13.21 dB 11:48 15-She Belongs To Me
––––––––––––––––––––––––––––––––––––––––

Number of tracks: 3
Official DR value: DR9

Samplerate: 44100 Hz
Channels: 2
Bits per sample: 16
Bitrate: 868 kbps
Codec: FLAC
================================================================================

––––––––––––––––––––––––––––––––––––––––
Analyzed: The Waterboys / Hard Rain Vol One (1)
Thea Gilmore / Hard Rain Vol One (2)
Thurston, Kim & Epic / Hard Rain Vol One (3)
––––––––––––––––––––––––––––––––––––––––

DR Peak RMS Duration Track
––––––––––––––––––––––––––––––––––––––––
DR10 -0.20 dB -11.59 dB 4:26 01-Girl From The North Country
DR7 -1.65 dB -9.77 dB 4:35 05-I Dreamed I Saw Saint Augustine
DR8 -1.20 dB -9.89 dB 3:56 11-Sitting On A Barbed Wire Fence
––––––––––––––––––––––––––––––––––––––––

Number of tracks: 3
Official DR value: DR8

Samplerate: 44100 Hz
Channels: 2
Bits per sample: 16
Bitrate: 868 kbps
Codec: FLAC
================================================================================

––––––––––––––––––––––––––––––––––––––––
Statistics for: 10-Most Likely You Go Your Way And I’ll Go Mine
Number of samples: 9033444
Duration: 3:25
––––––––––––––––––––––––––––––––––––––––

Left Right

Peak Value: -0.10 dB –- -0.10 dB
Avg RMS: -10.65 dB –- -10.30 dB
DR channel: 9.42 dB –- 9.33 dB
––––––––––––––––––––––––––––––––––––––––

Official DR Value: DR9

Samplerate: 44100 Hz
Channels: 2
Bits per sample: 16
Bitrate: 868 kbps
Codec: FLAC

CUETools Log
[CUETools log; Date: 12.07.2017 2:23:26; Version: 2.1.4]
CDDBId mismatch: F8111810 vs F5111810
[CTDB TOCID: VBsvWjsVqPvz3U4W2omFCR9rKOg-] disk not present in database.
[AccurateRip ID: 00284214-01e1ccec-f5111810] disk not present in database.

Track Peak [ CRC32 ] [W/O NULL] [ LOG ]
– 98,8 [CC565FFF] [CA68E698]
01 97,7 [A464DB74] [CF06D842] [2741EAFA]
02 98,8 [93181B08] [8250FF81] [F74C0345]
03 78,5 [A2E79284] [6911A21B] [5652B8D2]
04 93,3 [DEDF8B0F] [7F8DA68B] [DAC0AABE]
05 82,6 [BF539416] [CD591570] [E0653742]
06 97,7 [57D7F60D] [3C9E9214] [1FED34BC]
07 97,7 [60686BDD] [C386CF87] [FAF2A5A7]
08 97,7 [7977E5C2] [17E0B142] [A39A002F]
09 98,8 [2A946E5F] [B9691C56] [3C88FAD9]
10 98,8 [0A3C0E34] [C2659050] [3657C261]
11 87,0 [ACFE1301] [9C35FD27] [51FE9B86]
12 86,8 [04EC8307] [ED2CCAD8] [12A676A0]
13 97,7 [810035A6] [C7173942] [11F5C6CE]
14 97,7 [58EA91E8] [3CEA3C64] [B4B8964F]
15 97,3 [35B6C778] [DB3CA43E] CRC32
16 98,8 [EA4A980E] [3194FDD8] CRC32

VA - Hard Rain: A Tribute To Bob Dylan Vol One & Two (2002)

Tracklist Vol Two:

1 Hamell On Trial / It’s Alright Ma (I’m Only Bleeding) 3:51
2 Echo & The Bunnymen / It’s All Over Now, Baby Blue 3:38
3 Lee Ranaldo / Visions Of Johanna 8:02
4 Paul Westerberg / Positively 4th Street 4:10
5 Yo La Tengo / I Threw It All Away 2:15
6 The Specials / Maggie’s Farm 3:33
7 The Charlatans / Tonight I’ll Be Staying Here With You 3:25
8 Dr Feelgood* / Highway 61 Revisited 3:58
9 Robyn Hitchcock / Tangled Up In Blue 6:28
10 Buddy & Julie Miller / Wallflower 2:56
11 Steve Harley / Love Minus Zero / No Limit 6:08
12 Ani DiFranco / Hurricane 7:12
13 Cowboy Junkies / If You Gotta Go, Go Now 3:07
14 Gallon Drunk / Series Of Dreams 6:09
15 Emmylou Harris / Every Grain Of Sand 3:56

EAC Log
EAC extraction logfile from 24. September 2008, 20:36 for CD
Various Artists / Hard Rain Vol Two

Used drive : HL-DT-STDVDRAM GSA-T10N Adapter: 0 ID: 0
Read mode : Secure with C2, accurate stream, disable cache
Read offset correction : 667
Overread into Lead-In and Lead-Out : No

Used output format : Internal WAV Routines
44.100 Hz; 16 Bit; Stereo
Use compression offset : 1057

Other options :
Fill up missing offset samples with silence : Yes
Delete leading and trailing silent blocks : No
Installed external ASPI interface

Track 1
Filename C:EAC ripsUncutHard Rain Vol Two – Uncut1 – Hamell On Trial – It’s Alright, Ma (I’m Only Bleeding).wav

Pre-gap length 0:00:02.00

Peak level 87.0 %
Track quality 100.0 %
Test CRC 2001E68A
Copy CRC 2001E68A
Copy OK

Track 2
Filename C:EAC ripsUncutHard Rain Vol Two – Uncut2 – Echo & The Bunnymen – It’s All Over Now, Baby Blue.wav

Pre-gap length 0:00:01.35

Peak level 98.8 %
Track quality 100.0 %
Test CRC 91F6BACD
Copy CRC 91F6BACD
Copy OK

Track 3
Filename C:EAC ripsUncutHard Rain Vol Two – Uncut3 – Lee Ranaldo – Visions Of Johanna.wav

Pre-gap length 0:00:01.12

Peak level 97.7 %
Track quality 100.0 %
Test CRC 52327721
Copy CRC 52327721
Copy OK

Track 4
Filename C:EAC ripsUncutHard Rain Vol Two – Uncut4 – Paul Westerberg – Positively 4th Street.wav

Pre-gap length 0:00:01.18

Peak level 97.7 %
Track quality 100.0 %
Test CRC 4F19592C
Copy CRC 4F19592C
Copy OK

Track 5
Filename C:EAC ripsUncutHard Rain Vol Two – Uncut5 – Yo La Tengo – I Threw It All Away.wav

Peak level 97.7 %
Track quality 100.0 %
Test CRC C1478395
Copy CRC C1478395
Copy OK

Track 6
Filename C:EAC ripsUncutHard Rain Vol Two – Uncut6 – The Specials – Maggie’s Farm.wav

Pre-gap length 0:00:01.53

Peak level 97.7 %
Track quality 100.0 %
Test CRC 42B55598
Copy CRC 42B55598
Copy OK

Track 7
Filename C:EAC ripsUncutHard Rain Vol Two – Uncut7 – The Charlatans – Tonight I’ll Be Staying Here With You.wav

Peak level 93.3 %
Track quality 100.0 %
Test CRC F55A725C
Copy CRC F55A725C
Copy OK

Track 8
Filename C:EAC ripsUncutHard Rain Vol Two – Uncut8 – Dr Feelgood – Highway 61 Revisited.wav

Pre-gap length 0:00:01.30

Peak level 98.8 %
Track quality 99.9 %
Test CRC C987F242
Copy CRC C987F242
Copy OK

Track 9
Filename C:EAC ripsUncutHard Rain Vol Two – Uncut9 – Robyn Hitchcock – Tangled Up In Blue.wav

Pre-gap length 0:00:01.17

Peak level 74.1 %
Track quality 100.0 %
Test CRC 46D48FFC
Copy CRC 46D48FFC
Copy OK

Track 10
Filename C:EAC ripsUncutHard Rain Vol Two – Uncut10 – Buddy & Julie Miller – Wallflower.wav

Pre-gap length 0:00:01.18

Peak level 83.2 %
Track quality 100.0 %
Test CRC BBC4971E
Copy CRC BBC4971E
Copy OK

Track 11
Filename C:EAC ripsUncutHard Rain Vol Two – Uncut11 – Steve Harley – Love Minus Zero-No Limit.wav

Pre-gap length 0:00:01.50

Peak level 95.0 %
Track quality 100.0 %
Test CRC 5CE7CF29
Copy CRC 5CE7CF29
Copy OK

Track 12
Filename C:EAC ripsUncutHard Rain Vol Two – Uncut12 – Ani DiFranco – Hurricane.wav

Peak level 97.7 %
Track quality 100.0 %
Test CRC 6906F9EC
Copy CRC 6906F9EC
Copy OK

Track 13
Filename C:EAC ripsUncutHard Rain Vol Two – Uncut13 – Cowboy Junkies – If You Gotta Go, Go Now.wav

Pre-gap length 0:00:01.08

Peak level 97.7 %
Track quality 100.0 %
Test CRC 52814BA0
Copy CRC 52814BA0
Copy OK

Track 14
Filename C:EAC ripsUncutHard Rain Vol Two – Uncut14 – Gallon Drunk – Series Of Dreams.wav

Peak level 93.3 %
Track quality 100.0 %
Test CRC 6EF69F12
Copy CRC 6EF69F12
Copy OK

Track 15
Filename C:EAC ripsUncutHard Rain Vol Two – Uncut15 – Emmylou Harris – Every Grain Of Sand.wav

Peak level 97.7 %
Track quality 100.0 %
Test CRC 9F7BECD4
Copy CRC 9F7BECD4
Copy OK

No errors occured

End of status report

DR Log
foobar2000 1.2.9 / Dynamic Range Meter 1.1.1
log date: 2017-07-12 02:23:58

––––––––––––––––––––––––––––––––––––––––
Analyzed: Buddy & Julie Miller / Hard Rain Vol Two (1)
Cowboy Junkies / Hard Rain Vol Two (2)
––––––––––––––––––––––––––––––––––––––––

DR Peak RMS Duration Track
––––––––––––––––––––––––––––––––––––––––
DR7 -1.60 dB -10.23 dB 2:56 10-Wallflower
DR10 -0.20 dB -11.01 dB 3:06 13-If You Gotta Go, Go Now
––––––––––––––––––––––––––––––––––––––––

Number of tracks: 2
Official DR value: DR8

Samplerate: 44100 Hz
Channels: 2
Bits per sample: 16
Bitrate: 923 kbps
Codec: FLAC
================================================================================

––––––––––––––––––––––––––––––––––––––––
Statistics for: 08-Highway 61 Revisited
Number of samples: 10463460
Duration: 3:57
––––––––––––––––––––––––––––––––––––––––

Left Right

Peak Value: -0.10 dB –- -0.10 dB
Avg RMS: -10.86 dB –- -10.79 dB
DR channel: 9.63 dB –- 9.76 dB
––––––––––––––––––––––––––––––––––––––––

Official DR Value: DR10

Samplerate: 44100 Hz
Channels: 2
Bits per sample: 16
Bitrate: 923 kbps
Codec: FLAC
================================================================================
––––––––––––––––––––––––––––––––––––––––
Analyzed: Echo & The Bunnymen / Hard Rain Vol Two (1)
Emmylou Harris / Hard Rain Vol Two (2)
––––––––––––––––––––––––––––––––––––––––

DR Peak RMS Duration Track
––––––––––––––––––––––––––––––––––––––––
DR8 -0.10 dB -9.19 dB 3:37 02-It’s All Over Now, Baby Blue
DR9 -0.20 dB -11.18 dB 3:56 15-Every Grain Of Sand
––––––––––––––––––––––––––––––––––––––––

Number of tracks: 2
Official DR value: DR9

Samplerate: 44100 Hz
Channels: 2
Bits per sample: 16
Bitrate: 923 kbps
Codec: FLAC
================================================================================

––––––––––––––––––––––––––––––––––––––––
Statistics for: 14-Series Of Dreams
Number of samples: 16312296
Duration: 6:10
––––––––––––––––––––––––––––––––––––––––

Left Right

Peak Value: -0.60 dB –- -0.60 dB
Avg RMS: -10.35 dB –- -9.79 dB
DR channel: 7.79 dB –- 7.32 dB
––––––––––––––––––––––––––––––––––––––––

Official DR Value: DR8

Samplerate: 44100 Hz
Channels: 2
Bits per sample: 16
Bitrate: 923 kbps
Codec: FLAC
================================================================================
––––––––––––––––––––––––––––––––––––––––
Analyzed: Hamell On Trial / Hard Rain Vol Two (1)
Lee Ranaldo / Hard Rain Vol Two (2)
Paul Westerberg / Hard Rain Vol Two (3)
Robyn Hitchcock / Hard Rain Vol Two (4)
Steve Harley / Hard Rain Vol Two (5)
––––––––––––––––––––––––––––––––––––––––

DR Peak RMS Duration Track
––––––––––––––––––––––––––––––––––––––––
DR6 -1.20 dB -9.88 dB 3:51 01-It’s Alright, Ma (I’m Only Bleeding)
DR8 -0.20 dB -9.35 dB 8:01 03-Visions Of Johanna
DR9 -0.20 dB -10.32 dB 4:09 04-Positively 4th Street
DR7 -2.60 dB -11.70 dB 6:27 09-Tangled Up In Blue
DR9 -0.44 dB -11.59 dB 6:06 11-Love Minus Zero-No Limit
––––––––––––––––––––––––––––––––––––––––

Number of tracks: 5
Official DR value: DR8

Samplerate: 44100 Hz
Channels: 2
Bits per sample: 16
Bitrate: 923 kbps
Codec: FLAC
================================================================================

––––––––––––––––––––––––––––––––––––––––
Statistics for: 07-Tonight I’ll Be Staying Here With You
Number of samples: 9055200
Duration: 3:25
––––––––––––––––––––––––––––––––––––––––

Left Right

Peak Value: -0.60 dB –- -0.60 dB
Avg RMS: -9.50 dB –- -9.22 dB
DR channel: 7.30 dB –- 6.81 dB
––––––––––––––––––––––––––––––––––––––––

Official DR Value: DR7

Samplerate: 44100 Hz
Channels: 2
Bits per sample: 16
Bitrate: 923 kbps
Codec: FLAC
================================================================================
––––––––––––––––––––––––––––––––––––––––
Statistics for: 06-Maggie’s Farm
Number of samples: 9339792
Duration: 3:32
––––––––––––––––––––––––––––––––––––––––

Left Right

Peak Value: -0.20 dB –- -0.20 dB
Avg RMS: -11.14 dB –- -11.36 dB
DR channel: 8.95 dB –- 9.16 dB
––––––––––––––––––––––––––––––––––––––––

Official DR Value: DR9

Samplerate: 44100 Hz
Channels: 2
Bits per sample: 16
Bitrate: 923 kbps
Codec: FLAC
================================================================================
––––––––––––––––––––––––––––––––––––––––
Statistics for: 05-I Threw It All Away
Number of samples: 5990544
Duration: 2:16
––––––––––––––––––––––––––––––––––––––––

Left Right

Peak Value: -0.20 dB –- -0.20 dB
Avg RMS: -10.58 dB –- -10.58 dB
DR channel: 9.12 dB –- 9.10 dB
––––––––––––––––––––––––––––––––––––––––

Official DR Value: DR9

Samplerate: 44100 Hz
Channels: 2
Bits per sample: 16
Bitrate: 923 kbps
Codec: FLAC

CUETools Log
[CUETools log; Date: 12.07.2017 2:24:02; Version: 2.1.4]
CDDBId mismatch: BF10270F vs D5101A0F
[CTDB TOCID: 8oKDzbbYeNe3BD9ljADSLqK3Ku8-] disk not present in database.
[AccurateRip ID: 00249618-01a12bc2-d5101a0f] disk not present in database.

Track Peak [ CRC32 ] [W/O NULL] [ LOG ]
– 98,8 [58DB8C80] [F9E59038]
01 87,0 [24F31850] [145A75C7] [2001E68A]
02 98,8 [0530F38C] [403BB644] [91F6BACD]
03 97,7 [273504F7] [621F7224] [52327721]
04 97,7 [695A12C0] [A4B6BFF8] [4F19592C]
05 97,7 [26854C93] [F6907A28] [C1478395]
06 97,7 [8981F574] [47A80823] [42B55598]
07 98,8 [3354A7D3] [24A0FF20] [F55A725C]
08 98,8 [6CCDA560] [B8D9EC01] [C987F242]
09 74,1 [549A7911] [06B444E9] [46D48FFC]
10 83,2 [E1578415] [1BC33B08] [BBC4971E]
11 95,0 [BB329D36] [319927B5] [5CE7CF29]
12 97,7 [ED364833] [A4FD7467] [6906F9EC]
13 97,7 [9BADC857] [19C50E61] [52814BA0]
14 93,3 [6EF69F12] [8FBC22A2] CRC32
15 97,7 [9F7BECD4] [E793A6D8] CRC32

All thanks go to the original releaser

Bob Dylan in my Blog

Download VA – Hard Rain: A Tribute To Bob Dylan Vol One & Two (2002):

VA – Hard Rain: A Tribute To Bob Dylan Vol One & Two (2002) Download, Warez, DDL, Free, Full Album, Torrent, Legal.

Download